#TITLE:Overdose (MGD Mix);
#SUBTITLE:;
#ARTIST:Bass-X;
#TITLETRANSLIT:;
#SUBTITLETRANSLIT:;
#ARTISTTRANSLIT:;
#CREDIT:;
#BANNER:overdose.png;
#BACKGROUND:overdose-bg.png;
#LYRICSPATH:;
#CDTITLE:;
#MUSIC:overdose.ogg;
#OFFSET:0.000;
#SAMPLESTART:56.471;
#SAMPLELENGTH:12.000;
#SELECTABLE:YES;
#BPMS:0.000=340.000,510.000=510.000,595.000=340.000;
#STOPS:510.000=0.235
;
#BGCHANGES:;

//---------------dance-single - Renard----------------
#NOTES:
     dance-single:
     Renard:
     Challenge:
     12:
     0.988,1.000,0.756,0.019,0.078:
0000
0000
0000
0000
,
0000
0000
0000
0000
,
0000
0000
0000
0000
,
0000
0000
0000
0000
,
0000
0000
0000
0000
,
0000
0000
0000
0000
,
0000
0000
0000
0000
,
0000
0000
0000
0000
,
1100
0010
0001
0100
,
0010
1000
0001
0100
,
0010
1000
0100
0010
,
0001
0000
0010
0000
0100
1000
0001
0010
,
0100
1000
0010
0100
,
0001
0100
0010
1000
,
0001
0100
0010
1000
0100
0010
0001
1000
,
0010
0100
0001
1000
0001
0010
0100
1000
,
0001
1000
1001
0001
,
0100
0010
0110
0010
,
1000
0001
0101
0001
,
1000
0100
1100
1000
,
0001
0010
0011
0001
,
0010
0100
0110
0100
,
1000
0010
1010
0010
,
0100
0000
0001
1000
0001
0100
0001
0000
,
1000
0100
1100
0010
,
0001
0100
1010
0100
,
0001
0010
0011
0001
,
0010
0100
0110
0100
,
1000
0010
0101
0010
,
1000
0000
0001
0100
0001
0000
0010
0000
,
0001
0010
0000
1100
,
0000
0000
1010
0000
0001
0100
0010
1000
,
0001
0100
0010
1000
0001
0100
0000
0010
,
1000
0000
0001
0100
0000
0010
1000
0000
,
0100
0010
0001
0010
0100
1000
0000
0001
,
0010
0000
0100
1000
0000
0001
0100
0000
,
0010
1000
0001
0100
0010
1000
0000
0001
,
0100
0000
0010
1000
0000
0001
0010
0000
,
0100
1000
0001
0010
0100
0000
1000
0000
,
0001
0010
0100
1000
0001
0000
0010
0000
,
0001
1000
0010
0100
0001
1000
0000
0010
,
0100
0000
0001
1000
0000
0010
0100
0000
,
0001
0100
0010
1000
0001
1000
0000
0100
,
0010
0000
0001
0010
0000
0100
1000
0000
,
0001
1000
0010
0100
0001
1000
0000
0010
,
0100
0000
0001
1000
0000
0010
0100
0000
,
0001
0000
0100
0001
1000
0000
0001
0000
,
1100
1100
0011
0011
,
0001
0100
0010
1000
0100
0010
0000
0001
,
0010
0000
0100
1000
0000
0001
0010
0000
,
0100
1000
0010
0100
0001
1000
0000
0010
,
0100
0000
0001
0100
0000
0010
1000
0000
,
0100
0010
0001
0010
0100
1000
0000
0010
,
0100
0000
0001
0100
0000
0010
1000
0000
,
0100
0010
0001
0100
0010
0000
1000
0100
,
0010
0000
0001
0010
0000
0100
1000
0000
,
0001
0100
0010
1000
0001
1000
0000
0010
,
1000
0000
0001
0100
0000
0010
1000
0000
,
0001
1000
0100
0010
0001
0010
0000
0100
,
0010
0000
0001
1000
0000
0010
0100
0000
,
0001
0100
0010
1000
0100
0010
0000
0001
,
0010
0000
0100
1000
0000
0001
1000
0000
,
0101
0000
0000
0000
0110
0000
0000
0010
,
1000
0101
1001
0000
,
0001
0000
0100
0010
0000
1000
0010
0000
,
0101
0000
0000
1010
,
1000
0000
0100
0010
0000
0001
0010
0000
,
0110
0000
0000
1100
,
0001
0000
0100
0010
0000
1000
0001
0000
,
1001
0000
0000
1010
,
0001
0000
0100
0010
0000
1000
0100
0000
,
0110
0000
0000
0011
,
0001
0000
0010
0100
0000
1000
0001
0000
,
1010
0000
0000
0101
,
0001
0000
1000
0100
0000
0010
0001
0000
,
0110
0000
0000
1001
,
0100
0000
0001
0000
0100
0010
1000
0000
,
0101
0000
0000
1010
,
1000
0010
0100
0001
0010
0100
1000
0010
,
0100
0001
0010
0100
1000
0010
0100
0001
,
1000
0000
0001
0100
0000
0010
1000
0000
,
0001
0000
0100
0010
0000
1000
0100
0000
,
0010
0000
0001
0010
0000
0100
1000
0000
,
0001
0000
0100
0010
0000
1000
0100
0000
,
0010
0000
0001
0100
0000
0010
1000
0000
,
0001
0000
0010
0100
0000
1000
0001
0000
,
1000
0000
0010
0100
0000
0001
0100
0000
,
0010
1000
0001
0100
,
0010
0000
1000
0100
0000
0010
0001
0000
,
0010
0000
0100
1000
0000
0010
0100
0000
,
0001
0000
1000
0010
0000
0100
0001
0000
,
1000
0000
0010
0100
0000
0001
1000
0000
,
0100
0000
0010
0001
0000
0100
0010
0000
,
1000
0000
0100
0010
0000
0001
0100
0000
,
0010
0000
1000
0100
0000
0010
0001
0000
,
1000
0000
0001
0000
1000
0001
1000
0001
,
1000
0010
0100
0001
1000
0000
0000
0000
,
0110
0000
0000
1001
0000
0000
1010
0000
,
0001
1000
0100
0010
0001
0000
0000
0000
,
1100
0000
0000
0011
0000
0000
1100
0000
,
0001
0100
0010
1000
0010
0000
0000
0000
,
0101
0000
0000
1010
0000
0000
1001
0000
,
1000
0100
0010
0001
0010
0000
0000
0000
,
0011
0000
0000
0110
0000
0000
1100
0000
,
1000
0001
1000
0010
0100
0000
0000
0000
,
1001
0000
0000
1010
0000
0000
0101
0000
,
0001
0100
0010
1000
0001
0000
0000
0000
,
0110
0000
0000
1001
0000
0000
1100
0000
,
0100
1000
0001
0010
0100
0000
0000
0000
,
0011
0000
0000
1100
0000
0000
1001
0000
,
0110
0000
0000
1001
,
0000
0000
0001
0100
0001
0100
0001
0000
,
1000
0100
0010
0001
,
0010
0100
1000
0010
,
0100
0001
1000
0100
,
0010
0001
0100
0010
,
1000
0100
0010
0001
,
0010
0100
1000
0001
,
0100
0010
1000
0100
,
0010
0000
0001
0010
0100
1000
0001
1000
,
0010
1000
0001
0100
,
0010
1000
0100
0010
,
0001
0010
0100
1000
,
0100
0010
0001
0010
0100
1000
0001
0100
,
0010
1000
0001
0100
,
0010
1000
0100
0010
,
0001
0010
0100
1000
,
0001
0000
0000
0000
1000
0000
0000
0000
2002
3003
0000
0000
1000
0000
0000
0001
,
0000
0000
0100
0000
0000
0010
0000
0000
1000
0000
0000
0000
0000
0000
0101
0000
,
0000
0000
0000
0000
0000
0010
0000
0000
,
1010
0000
0000
0000
0000
0000
0000
0000
0000
0000
0000
0000
0001
0000
0000
0100
,
0000
0000
0010
0000
0000
1000
0000
0000
0100
0000
0000
0000
0000
0000
1100
0000
,
0000
0000
0000
0000
0000
0001
0000
0000
,
0011
0000
0000
0000
0000
0000
0000
0000
0000
0000
0000
0000
0001
0000
0000
0010
,
0000
0000
0100
0000
0000
1000
0000
0000
0001
0000
0000
0000
0000
0000
1001
0000
,
0000
0000
0000
0000
0000
0010
0000
0000
,
1010
0000
0000
0000
0000
0000
0000
0000
0000
0000
0000
0000
1000
0000
0000
0010
,
0000
0000
0100
0000
0000
0001
0000
0000
1000
0000
0000
0000
0000
0000
1001
0000
,
0000
0000
0000
0000
0001
0000
0000
0100
0000
0000
0010
0000
0000
1000
0000
0000
,
0001
0000
0000
0000
0000
0000
0101
0000
0000
0000
0000
0000
0100
0000
0000
0001
,
0000
0000
1000
0000
0000
0010
0000
0000
0100
0000
0000
0000
0000
0000
0110
0000
,
0000
0000
0000
0000
0000
0001
0000
0000
,
1001
0000
0000
0000
0000
0000
0000
0000
0000
0000
0000
0000
1000
0000
0000
0100
,
0000
0000
0010
0000
0000
0001
0000
0000
0100
0000
0000
0000
0000
0000
0101
0000
,
0000
0000
0000
0000
0000
0100
0000
0000
,
0110
0000
0000
0000
0000
0000
0000
0000
0000
0000
0000
0000
0010
0000
0000
1000
,
0000
0000
0100
0000
0000
0010
0000
0000
0001
0000
0000
0000
0000
0000
0011
0000
,
0000
0000
0000
0000
0000
0010
0000
0000
,
0110
0000
0000
1001
,
0000
0000
0110
0000
,
0000
1001
0000
0000
;

//---------------dance-single - Renard----------------
#NOTES:
     dance-single:
     Renard:
     Hard:
     9:
     0.662,0.656,0.078,0.000,0.000:
0000
0000
0000
0000
,
0000
0000
0000
0000
,
0000
0000
0000
0000
,
0000
0000
0000
0000
,
0000
0000
0000
0000
,
0000
0000
0000
0000
,
0000
0000
0000
0000
,
0000
0000
0000
0000
,
1000
0100
0010
0001
,
0100
0010
1000
0100
,
0010
0001
0100
0010
,
1000
0100
0010
0010
,
0001
0010
0100
1000
,
0010
0100
0001
0010
,
0100
0000
0100
0000
,
1000
1000
1000
1000
,
0010
0100
0001
0100
,
0010
1000
1000
1000
,
0100
0010
0001
1000
,
0001
0100
0100
0100
,
0001
0010
0100
1000
,
0010
0010
0010
0010
,
0100
0001
0010
0100
,
1000
0001
0001
0001
,
1000
0100
0010
0001
,
1000
0010
0010
0010
,
0100
0001
0010
0100
,
1000
0001
0001
0001
,
0100
0010
1000
0100
,
0010
0100
0100
0100
,
1000
0010
0100
0001
,
0010
0000
0100
0000
,
1000
0010
1000
0010
,
1000
0001
1000
0001
,
0100
0001
0100
0001
,
0010
0001
0010
0001
,
0010
0100
0000
0100
,
1000
0010
0100
0001
,
0010
0100
0000
0100
,
1000
0100
0010
0001
,
1000
0010
0000
0010
,
0000
0100
0000
0100
,
0001
0010
0000
0010
,
0100
1000
0010
0100
,
0001
0010
0000
0010
,
0100
1000
0000
1000
,
0010
0100
0001
0010
,
0100
0100
1000
1000
,
0001
0010
0001
1000
,
0001
0100
0010
1000
,
0100
0010
0001
1000
,
0010
0010
0010
0010
,
0100
0001
0010
0100
,
1000
0100
0010
0001
,
0100
0010
1000
0100
,
0010
0010
0010
0010
,
0100
1000
0010
0100
,
0001
0010
0100
1000
,
0100
0010
0001
0100
,
0010
0010
0010
0010
,
1000
0100
0010
0001
,
0100
0010
1000
0100
,
0010
0001
0010
0100
,
1000
0001
0100
0000
,
0001
1000
0100
0010
,
0001
0000
0011
0000
,
0010
0100
1000
0010
,
0100
0000
0101
0000
,
0001
0100
0010
1000
,
0100
0000
0110
0000
,
0010
0001
0010
0100
,
1000
0000
1100
0000
,
1000
0100
0010
0001
,
1000
0000
1001
0000
,
0001
0100
0010
1000
,
0100
0000
1100
0000
,
1000
0100
0010
0001
,
1000
0000
1001
0000
,
0001
0010
0100
1000
,
0100
0010
0001
1000
,
0100
0010
0001
0010
,
0100
0100
0100
0100
,
1000
0010
0100
0001
,
0010
0010
0010
0010
,
0001
1000
0010
0100
,
0001
0001
0001
0001
,
0010
0100
0010
0001
,
1000
1000
1000
1000
,
0100
0010
0001
1000
,
0010
0010
0010
0010
,
0100
0001
0010
0100
,
1000
0100
0100
0100
,
1000
0010
0100
0001
,
0010
0010
0010
0010
,
0001
0010
0100
1000
,
0010
0010
0010
0000
,
0100
0001
0100
0000
,
0010
0000
0010
0000
,
1000
0100
0010
0000
,
0100
0000
0100
0000
,
1000
0010
0100
0000
,
0001
0000
0001
0000
,
0010
0001
1000
0000
,
0100
0000
0100
0000
,
1000
0100
0010
0000
,
0001
0000
0001
0000
,
0010
0100
0010
0000
,
0100
0000
1000
0000
,
0010
1000
0001
0000
,
0100
0000
0010
0000
,
0100
0000
0100
1000
,
0000
0000
0000
0000
,
0010
1000
0010
1000
,
0001
1000
0001
1000
,
0001
0100
0001
0100
,
0001
0001
0010
0010
,
0100
1000
0010
0100
,
0001
0010
0100
1000
,
0010
0100
0001
0010
,
0100
0100
1000
1000
,
0010
0100
0001
0100
,
0010
1000
0100
1000
,
0010
1000
0100
1000
,
0001
0001
0001
0001
,
0010
0100
1000
0010
,
0100
0001
0010
0100
,
1000
0010
0100
0001
,
1000
0000
1001
1000
,
0000
0000
0001
0000
,
0000
0000
0100
0000
0000
0010
0000
0000
,
1000
0000
0000
0100
0000
0000
0010
0000
,
0000
0000
0001
0000
,
0000
0000
0010
0000
0000
0100
0000
0000
,
1000
0000
0000
0010
0000
0000
0100
0000
,
0000
0000
0001
0000
,
0000
0000
0010
0000
0000
0100
0000
0000
,
1000
0000
0000
0010
0000
0000
0100
0000
,
0000
0000
0001
0000
,
0000
0000
0010
0000
0000
0001
0000
0000
,
1000
0000
0000
0100
,
0000
0000
0010
0000
,
0000
0000
0001
0000
0000
1000
0000
0000
,
0010
0000
0000
0100
0000
0000
0001
0000
,
0000
0000
0010
0000
,
0000
0000
0100
0000
0000
1000
0000
0000
,
0100
0000
0000
0010
0000
0000
0001
0000
,
0000
0000
0010
0000
,
0000
0000
0100
0000
0000
1000
0000
0000
,
0010
0000
0000
0100
0000
0000
0001
0000
,
0000
0001
0010
0000
,
0010
0100
0000
0000
;

//---------------dance-single - Renard----------------
#NOTES:
     dance-single:
     Renard:
     Medium:
     6:
     0.391,0.510,0.010,0.019,0.000:
0000
0000
0000
0000
,
0000
0000
0000
0000
,
0000
0000
0000
0000
,
0000
0000
0000
0000
,
0000
0000
0000
0000
,
0000
0000
0000
0000
,
0000
0000
0000
0000
,
0000
0000
0000
0000
,
0000
0000
0000
0000
,
0000
0000
0000
0000
,
0000
0000
0000
0000
,
0000
0000
0000
0000
,
0000
0000
0000
0000
,
0000
0000
0000
0000
,
0000
0000
0000
0000
,
0000
0000
0000
0000
,
1000
0000
0001
0000
,
0100
0000
0010
0000
,
1000
0000
0100
0000
,
0010
0000
0001
1000
,
0001
0000
0010
0000
,
0100
0000
1000
0000
,
0010
0000
0100
0000
,
0001
0000
1000
0001
,
1000
0000
0100
0000
,
0010
0000
0001
0000
,
1000
0000
0010
0000
,
0100
0000
0001
1000
,
0001
0000
0010
0000
,
0100
0000
1000
0000
,
0001
0000
0100
0000
,
0010
0000
0000
0000
,
1000
0000
1000
0000
,
0010
0000
0100
0000
,
0001
0000
1000
0000
,
0100
0010
0100
0010
,
0001
0000
1000
0000
,
0010
0000
0100
0000
,
0001
0000
1000
0000
,
1000
0001
1000
0001
,
1000
0000
0001
0000
,
0100
0000
0010
0000
,
1000
0000
0100
0000
,
1000
0001
1000
0001
,
0000
0000
0010
0000
,
0100
0000
1000
0000
,
0010
0000
0100
0000
,
0001
1000
0001
1000
,
0000
0000
0100
0000
,
0010
0000
0001
0000
,
1000
0000
0010
0000
,
0100
0001
0100
0001
,
0000
0000
0010
0000
,
0100
0000
1000
0000
,
0100
0000
0010
0000
,
0001
1000
0001
1000
,
0000
0000
0001
0000
,
0010
0000
0100
0000
,
1000
0000
0010
0000
,
0100
0001
0100
0001
,
0000
0000
0100
0000
,
0010
0000
1000
0000
,
0100
0000
0000
0000
,
0000
0000
0000
0000
,
0010
0000
0001
0000
,
1000
0000
0000
0001
,
0000
0000
0000
0000
,
0100
0000
0000
0010
,
0000
0000
0000
0000
,
1000
0000
0000
0100
,
0000
0000
0000
0000
,
0010
0000
0000
0001
,
0010
0000
0010
0000
,
0100
0000
0100
1000
,
0010
0000
0100
0000
,
0001
0000
0001
0010
,
0100
0000
0100
0000
,
1000
0000
1000
0010
,
0200
0000
0000
0000
,
0000
0000
0000
0000
,
0301
0000
0001
0100
,
0001
0000
0001
0100
,
0001
0000
0001
0100
,
0001
0000
0001
0000
,
1000
0000
1000
0100
,
1000
0000
1000
0100
,
1000
0000
1000
0100
,
1000
0000
1000
0000
,
0001
0000
0001
0010
,
0001
0000
0001
0010
,
0001
0000
0001
0010
,
0001
0000
0001
0010
,
0001
0000
1000
0010
,
1000
0000
0001
0100
,
0010
1000
0100
0010
,
0002
0000
0000
0000
,
0013
0000
0010
0000
,
0100
0000
0100
0000
,
1000
0000
1000
0000
,
0010
0100
0010
0000
,
0100
0000
0100
0000
,
0001
0000
0001
0000
,
0010
0000
0010
0000
,
0100
1000
0100
0000
,
0010
0000
0010
0000
,
0001
1000
0001
0000
,
0010
0000
0010
0000
,
0100
1000
0100
0000
,
1000
0000
1000
0000
,
0010
0100
0010
0000
,
0100
0000
0001
0000
,
0010
0000
0000
0000
,
0100
0000
0100
0000
,
1000
0000
1000
0000
,
0100
0000
0100
0000
,
0010
0001
0010
0001
,
0010
0000
0100
0000
,
1000
0000
0001
0000
,
0100
0000
0010
0000
,
1000
0010
1000
0010
,
1000
0000
0001
0000
,
0100
0000
0010
0000
,
1000
0000
0100
0000
,
0010
0001
0010
0001
,
0010
0000
0100
0000
,
1000
0000
0010
0000
,
0100
0000
0001
0000
,
0100
0000
0000
0010
,
0000
0000
1000
0000
,
0000
0100
0000
0000
,
0010
0000
0000
0001
,
0000
0000
0010
0000
,
0000
0100
0000
0000
,
1000
0000
0000
0010
,
0000
0000
0100
0000
,
0000
0001
0000
0000
,
1000
0000
0000
0100
,
0000
0000
0010
0000
,
0000
0001
0000
0000
,
0010
0000
0000
0100
,
0000
0000
1000
0000
,
0000
0010
0000
0000
,
0100
0000
0000
0001
,
0000
0000
0010
0000
,
0000
0100
0000
0000
,
1000
0000
0000
0010
,
0000
0000
0100
0000
,
0000
0001
0000
0000
,
1000
0000
0000
0001
,
0000
0000
1000
0000
,
0000
1001
0000
0000
;

//---------------dance-single - Renard----------------
#NOTES:
     dance-single:
     Renard:
     Easy:
     4:
     0.291,0.364,0.010,0.019,0.000: // measure 1
0000
0000
0000
0000
,  // measure 2
0000
0000
0000
0000
,  // measure 3
0000
0000
0000
0000
,  // measure 4
0000
0000
0000
0000
,  // measure 5
0000
0000
0000
0000
,  // measure 6
0000
0000
0000
0000
,  // measure 7
0000
0000
0000
0000
,  // measure 8
0000
0000
0000
0000
,  // measure 9
1000
0000
1000
0000
,  // measure 10
0001
0000
0000
0000
,  // measure 11
0001
0000
0001
0000
,  // measure 12
1000
0000
0000
0000
,  // measure 13
0001
0000
0000
0000
,  // measure 14
1000
0000
0000
0000
,  // measure 15
0001
0000
1000
0000
,  // measure 16
0001
0000
1000
0000
,  // measure 17
0100
0000
0100
0000
,  // measure 18
0010
0000
0010
0000
,  // measure 19
0001
0000
0001
0000
,  // measure 20
1000
0000
0001
0000
,  // measure 21
0100
0000
0100
0000
,  // measure 22
0010
0000
0010
0000
,  // measure 23
1000
0000
1000
0000
,  // measure 24
0100
0000
0010
0000
,  // measure 25
0001
0000
0001
0000
,  // measure 26
0010
0000
0010
0000
,  // measure 27
0100
0000
0100
0000
,  // measure 28
1000
0000
1000
0000
,  // measure 29
0001
0000
0100
0000
,  // measure 30
0001
0000
0100
0000
,  // measure 31
0010
0000
1000
0000
,  // measure 32
0100
0000
0000
0000
,  // measure 33
0010
0000
0010
0000
,  // measure 34
0001
0000
0000
0000
,  // measure 35
1000
0000
0000
0000
,  // measure 36
0100
0000
0000
0000
,  // measure 37
0010
0000
0010
0000
,  // measure 38
0001
0000
0000
0000
,  // measure 39
1000
0000
0000
0000
,  // measure 40
0010
0000
0000
0000
,  // measure 41
0100
0000
0100
0000
,  // measure 42
0001
0000
0000
0000
,  // measure 43
1000
0000
0000
0000
,  // measure 44
0100
0000
0000
0000
,  // measure 45
0010
0000
0010
0000
,  // measure 46
0001
0000
0000
0000
,  // measure 47
1000
0000
0010
0000
,  // measure 48
0100
0000
0001
0000
,  // measure 49
1000
0000
1000
0000
,  // measure 50
0100
0000
0000
0000
,  // measure 51
0010
0000
0010
0000
,  // measure 52
0001
0000
0000
0000
,  // measure 53
1000
0000
1000
0000
,  // measure 54
0010
0000
0000
0000
,  // measure 55
0100
0000
0100
0000
,  // measure 56
0001
0000
0000
0000
,  // measure 57
1000
0000
1000
0000
,  // measure 58
0100
0000
0000
0000
,  // measure 59
0010
0000
0010
0000
,  // measure 60
0001
0000
0000
0000
,  // measure 61
1000
0000
1000
0000
,  // measure 62
0010
0000
0000
0000
,  // measure 63
0100
0000
0001
0000
,  // measure 64
1000
0000
0100
0000
,  // measure 65
1000
0000
0000
0000
,  // measure 66
0001
0000
0000
0001
,  // measure 67
0000
0000
0000
0000
,  // measure 68
1000
0000
0000
1000
,  // measure 69
0000
0000
0000
0000
,  // measure 70
0001
0000
0000
0001
,  // measure 71
0000
0000
0000
0000
,  // measure 72
1000
0000
0000
1000
,  // measure 73
0000
0000
0000
0000
,  // measure 74
0001
0000
0000
0001
,  // measure 75
0000
0000
0000
0000
,  // measure 76
1000
0000
0000
1000
,  // measure 77
0000
0000
0000
0000
,  // measure 78
0001
0000
0000
0002
,  // measure 79
2000
0000
0000
0000
,  // measure 80
0000
0000
0000
3003
,  // measure 81
1000
0000
1000
0000
,  // measure 82
0001
0000
0001
0000
,  // measure 83
1000
0000
1000
0000
,  // measure 84
0001
0000
0001
0000
,  // measure 85
1000
0000
1000
0000
,  // measure 86
0001
0000
0001
0000
,  // measure 87
1000
0000
1000
0000
,  // measure 88
0001
0000
0001
0000
,  // measure 89
1000
0000
1000
0000
,  // measure 90
0001
0000
0001
0000
,  // measure 91
1000
0000
1000
0000
,  // measure 92
0001
0000
0001
0000
,  // measure 93
1000
0000
1000
0000
,  // measure 94
0001
0000
0001
0000
,  // measure 95
1000
0000
0001
0000
,  // measure 96
1000
0000
0000
0000
,  // measure 97
0010
0000
0010
0000
,  // measure 98
0100
0000
0100
0000
,  // measure 99
0010
0000
0010
0000
,  // measure 100
0100
0000
0100
0000
,  // measure 101
0010
0000
0010
0000
,  // measure 102
0100
0000
0100
0000
,  // measure 103
0010
0000
0010
0000
,  // measure 104
0100
0000
0100
0000
,  // measure 105
0010
0000
0010
0000
,  // measure 106
0100
0000
0100
0000
,  // measure 107
0010
0000
0010
0000
,  // measure 108
0100
0000
0100
0000
,  // measure 109
0010
0000
0010
0000
,  // measure 110
0100
0000
0100
0000
,  // measure 111
0010
0000
1000
0000
,  // measure 112
0001
0000
0000
0000
,  // measure 113
1000
0000
0000
0000
,  // measure 114
1000
0000
0000
0000
,  // measure 115
0001
0000
0000
0000
,  // measure 116
1000
0000
0001
0000
,  // measure 117
0010
0000
0000
0000
,  // measure 118
0100
0000
0000
0000
,  // measure 119
1000
0000
0000
0000
,  // measure 120
0001
0000
0100
0000
,  // measure 121
0010
0000
0000
0000
,  // measure 122
1000
0000
0000
0000
,  // measure 123
0100
0000
0000
0000
,  // measure 124
0010
0000
0001
0000
,  // measure 125
1000
0000
0000
0000
,  // measure 126
0001
0000
0000
0000
,  // measure 127
0010
0000
0000
0000
,  // measure 128
0100
0000
0000
1000
,  // measure 129
0000
0000
0000
0000
,  // measure 130
0000
0001
0000
0000
,  // measure 131
0000
0000
0000
1000
,  // measure 132
0000
0000
0000
0000
,  // measure 133
0000
0100
0000
0000
,  // measure 134
0010
0000
0000
0001
,  // measure 135
0000
0000
0000
0000
,  // measure 136
0000
0010
0000
0000
,  // measure 137
0000
0000
0000
0100
,  // measure 138
0000
0000
0000
0000
,  // measure 139
0000
1000
0000
0000
,  // measure 140
0001
0000
0000
0100
,  // measure 141
0000
0000
0000
0000
,  // measure 142
0000
0001
0000
0000
,  // measure 143
0000
0000
0000
1000
,  // measure 144
0000
0000
0000
0000
,  // measure 145
0000
0100
0000
0000
,  // measure 146
0010
0000
0000
0001
,  // measure 147
0000
0000
0000
0000
,  // measure 148
0000
0010
0000
0000
,  // measure 149
0000
0000
0000
1001
,  // measure 150
0000
0000
1000
0000
,  // measure 151
0000
0001
0000
0000
;
