#TITLE:Origin;
#ARTIST:Sigma;
#LYRICSPATH:;
#MUSIC:origin.ogg;
#OFFSET:0.575;
#SAMPLESTART:9.512;
#SAMPLELENGTH:12.000;
#SELECTABLE:YES;
#DISPLAYBPM:411.000;
#BPMS:0.000=410.6080,212.000=102.652,220.000=410.612,573.667=205.304;
#NOTES:
     dance-single:
     Renard:
     Challenge:
     14:
     1.000,1.000,0.428,0.000,0.180: // measure 1
0000
0000
0000
0000
,  // measure 2
0000
0000
0000
0000
,  // measure 3
0000
0000
0000
0000
,  // measure 4
0000
0000
0000
0000
,  // measure 5
0000
0000
0000
0000
,  // measure 6
0000
0000
0000
0000
,  // measure 7
0000
0000
0000
0000
,  // measure 8
0000
0000
0000
0000
,  // measure 9
0000
0000
0000
0000
,  // measure 10
1001
0101
0010
1001
,  // measure 11
0100
1010
0100
1001
,  // measure 12
0100
0000
1000
0010
0100
0001
0100
0000
,  // measure 13
0001
1000
0101
0000
,  // measure 14
0001
0000
0001
0100
0000
0100
0010
0000
,  // measure 15
0010
1000
0000
1000
0001
1000
0010
0100
,  // measure 16
0101
0000
0000
0000
,  // measure 17
0000
0000
0000
0000
,  // measure 18
1001
0000
0100
0000
0010
0000
1000
0001
,  // measure 19
0010
0000
0001
1000
0001
0000
1000
0000
,  // measure 20
1001
0000
0010
0100
0001
0100
0010
0000
,  // measure 21
1001
0000
1010
0000
,  // measure 22
0101
0010
1000
0100
,  // measure 23
1000
0000
0100
0001
0100
0001
0100
0000
,  // measure 24
1000
0010
0100
0001
0100
0000
0010
0000
,  // measure 25
1001
0000
0100
0010
1000
0000
1000
0000
,  // measure 26
0001
0000
1000
0010
0000
0100
0001
0100
,  // measure 27
0001
0000
1000
0010
0000
0100
0001
0100
,  // measure 28
0001
0000
1000
0010
0000
0100
0001
1000
,  // measure 29
0010
0100
0001
1000
,  // measure 30
1001
0000
0100
0000
0010
1000
0100
0000
,  // measure 31
0100
1000
0100
0000
1000
0100
0010
0000
,  // measure 32
0100
0000
1000
0000
0100
0010
0001
0000
,  // measure 33
0001
0100
0010
1000
0001
0000
0100
0010
,  // measure 34
1000
0000
0100
0000
0010
0100
1000
0000
,  // measure 35
0010
0100
0001
0100
0010
0000
0100
0000
,  // measure 36
0010
1000
0100
1000
,  // measure 37
0001
0010
0001
0100
0001
0000
0010
0000
,  // measure 38
0001
0000
0100
0010
0000
1000
0010
1000
,  // measure 39
0010
0000
0100
0001
0000
1000
0010
1000
,  // measure 40
0010
0000
0100
0001
0000
1000
0100
0010
,  // measure 41
0001
0000
0010
0100
1000
0000
0001
0000
,  // measure 42
1000
0000
0010
0000
0100
0000
0001
1000
,  // measure 43
0001
0100
0010
0000
1000
0000
0001
0000
,  // measure 44
0001
0000
0000
0010
0000
0000
0001
0000
0000
0100
0001
0100
,  // measure 45
0001
0000
1000
0100
1000
0000
0100
0000
,  // measure 46
1000
0000
0100
0000
1000
0000
1100
0000
0000
0000
0100
0000
,  // measure 47
1000
0000
0010
0000
0100
0000
0101
0000
0000
0000
0000
0000
,  // measure 48
0001
0000
0010
0000
0001
0000
0011
0000
0000
0000
0001
0000
,  // measure 49
0100
0000
0010
0000
1000
0000
1010
0000
0000
0000
0000
0000
,  // measure 50
1000
0000
0100
0000
0010
0000
1010
0000
0100
0000
0001
0000
,  // measure 51
0010
0000
0001
0000
0100
0000
0101
0000
0010
0000
1000
0000
,  // measure 52
0100
1000
0010
0100
0001
1000
0010
0100
,  // measure 53
0001
1000
0001
0100
0010
0000
0110
0000
,  // measure 54
1001
0000
0000
0000
,  // measure 55
0000
0000
0000
0000
,  // measure 56
1001
0000
1000
0100
1000
0000
0010
0000
,  // measure 57
0100
0001
0010
0001
,  // measure 58
0100
0001
1000
0010
0100
0000
0001
0000
,  // measure 59
1000
0000
0100
1000
0100
1000
0100
0000
,  // measure 60
1010
0000
0100
0001
0010
0000
0001
0000
,  // measure 61
0100
0010
1000
0010
,  // measure 62
0100
0001
0100
0001
0100
0000
0010
0000
,  // measure 63
1000
0100
1000
0100
0010
0100
1000
0000
,  // measure 64
0001
0000
0001
0010
0001
0000
0100
0000
,  // measure 65
0010
1000
0100
1000
,  // measure 66
0010
1000
0001
0100
0010
0000
1000
0000
,  // measure 67
0001
0000
0010
0001
0010
0001
0010
0000
,  // measure 68
1001
0000
0010
1000
0100
0000
1000
0000
,  // measure 69
0010
0000
0100
0000
0001
0100
0001
0000
,  // measure 70
1010
0000
0010
0110
0000
0100
0101
0000
,  // measure 71
1001
0000
0000
0000
,  // measure 72
1000
0000
0100
1000
0100
0000
0010
0001
,  // measure 73
0010
0100
1000
1000
,  // measure 74
0010
0000
0100
0001
0100
0000
0010
1000
,  // measure 75
0100
0000
1000
0000
0010
0100
0010
0000
,  // measure 76
0100
0000
0010
0100
0001
0000
0100
0010
,  // measure 77
1000
0100
1000
1000
,  // measure 78
0010
0000
0100
0001
0100
0000
0010
1000
,  // measure 79
0010
0000
0000
0100
0010
0100
0001
0000
0000
0100
0010
0100
,  // measure 80
0010
0000
1000
0100
1000
0000
0010
0100
,  // measure 81
0010
1000
0001
0001
,  // measure 82
0010
0000
0100
0010
0100
0000
1000
0001
,  // measure 83
0010
0000
0001
0000
1000
0001
1000
0000
,  // measure 84
0001
0000
0010
0000
0100
0000
1000
0000
0100
0000
0010
0000
,  // measure 85
1001
0000
0100
0000
0010
0000
1001
0000
0010
0000
0100
0000
,  // measure 86
0010
0000
0000
0000
,  // measure 87
0000
0000
0000
0000
,  // measure 88
1000
0000
0100
0000
1000
0010
1000
0000
,  // measure 89
0010
0100
0001
0000
0100
0000
0010
0000
,  // measure 90
1000
0000
0100
0000
0010
0100
0010
0000
,  // measure 91
0100
1000
0100
0000
1000
0000
0001
0100
,  // measure 92
0001
0000
0100
0000
0010
1000
0010
0000
,  // measure 93
0100
0001
0100
0000
0010
0000
1000
0000
,  // measure 94
0100
0000
1000
0001
0100
0000
0010
1000
,  // measure 95
0100
0000
0010
0100
1000
0001
0100
0001
,  // measure 96
0100
0000
0100
0010
0000
1000
0010
1000
,  // measure 97
0010
0000
0100
0001
0000
0010
0100
1000
,  // measure 98
0010
0000
0100
0001
0000
1000
0010
1000
,  // measure 99
0010
1000
1010
1001
,  // measure 100
0101
0000
0010
0000
0100
0000
0001
0100
,  // measure 101
0010
0000
1000
0010
1000
0000
0001
0100
,  // measure 102
0001
0000
0100
0000
0010
0000
1000
0100
,  // measure 103
0010
0000
0100
1000
0001
0000
0010
0001
,  // measure 104
0100
0000
0010
0000
1000
0000
0100
1000
,  // measure 105
0100
0000
1000
0010
1000
0000
0001
0100
,  // measure 106
0001
0100
0010
1000
,  // measure 107
0001
0100
0001
1000
0100
0000
0010
0000
,  // measure 108
1001
0000
0010
0100
0000
0001
0010
0001
,  // measure 109
0010
0000
0001
0100
0000
0010
1000
0010
,  // measure 110
1000
0000
0010
0100
0000
0001
0100
0010
,  // measure 111
1000
0100
1001
0000
,  // measure 112
0100
0000
1000
0100
1000
0000
0100
1000
,  // measure 113
0100
1000
0010
0100
,  // measure 114
0001
0010
0001
0010
0001
0000
0010
0001
,  // measure 115
0100
0010
1000
0100
0010
0001
0010
0100
,  // measure 116
1000
0000
0010
0100
0001
0000
1000
0100
,  // measure 117
0010
0001
1001
0100
,  // measure 118
0010
1000
0010
1000
0010
0000
0100
0001
,  // measure 119
0100
0010
1000
0100
,  // measure 120
0010
0000
0001
0010
0001
0000
0010
0100
,  // measure 121
1000
0010
0100
0001
,  // measure 122
0100
0000
0010
1000
0010
0000
1000
0100
,  // measure 123
0010
0000
0100
1000
0100
1000
0100
0000
,  // measure 124
1000
0000
0010
0100
0001
0000
1000
0100
,  // measure 125
0010
0001
0010
0000
0100
0000
1000
0000
,  // measure 126
0010
0100
0001
0100
0010
0000
1000
0100
,  // measure 127
0010
0001
0010
0000
1001
0000
0010
0000
,  // measure 128
1000
0010
1000
0010
1000
0000
0001
0000
,  // measure 129
0100
0000
0100
0010
0000
0010
1000
0000
,  // measure 130
0100
0010
0001
0010
0100
0000
0010
0000
,  // measure 131
0100
0000
0100
1000
0000
1000
0010
0000
,  // measure 132
0100
0001
0100
0001
0100
0000
0010
0000
,  // measure 133
1000
0100
0010
0100
1000
0000
0010
0000
,  // measure 134
1000
0100
1000
0100
1000
0000
0010
0000
,  // measure 135
0100
0001
0100
0001
0100
0000
0001
0000
,  // measure 136
0100
0010
1000
0100
0010
0000
0100
0000
,  // measure 137
1000
0000
1000
0001
0000
0001
0100
0000
,  // measure 138
0010
1000
0010
1000
0001
0000
0100
0000
,  // measure 139
0010
0000
1000
0000
0100
1000
0100
0000
,  // measure 140
1000
0000
0001
0100
0001
0000
0100
0000
,  // measure 141
0010
0000
0010
1000
0000
1000
0100
0000
,  // measure 142
0010
0001
0010
0100
1000
0100
1000
0010
,  // measure 143
0100
0001
0010
0001
0100
0010
1000
0100
;
