#TITLE:Option (MGD Edit);
#SUBTITLE:;
#ARTIST:Virt;
#TITLETRANSLIT:;
#SUBTITLETRANSLIT:;
#ARTISTTRANSLIT:;
#CREDIT:;
#BANNER:option.png;
#BACKGROUND:option-bg.png;
#LYRICSPATH:;
#CDTITLE:;
#MUSIC:option.ogg;
#OFFSET:0.000;
#SAMPLESTART:7.625;
#SAMPLELENGTH:12.000;
#SELECTABLE:YES;
#BPMS:0.000=157.385;
#STOPS:;
#BGCHANGES:;

//---------------dance-single - Renard----------------
#NOTES:
     dance-single:
     Renard:
     Challenge:
     9:
     0.800,0.895,0.267,0.019,1.000:
0000
0000
0000
0000
,
0000
0000
0000
0000
,
0000
0000
0000
0000
,
0000
0000
0000
0000
,
0001
1000
0001
1000
0100
1000
0001
0010
0001
1000
0000
0000
,
1001
0000
0000
0101
0000
0000
0010
0000
1000
0000
0100
0000
,
1000
0000
1000
0010
0000
0000
0100
0000
0001
0000
0010
0000
,
0100
0000
1000
0100
1000
0000
0010
0000
0100
0010
0100
0000
,
0001
0000
1000
0000
0000
0000
0001
1000
0100
0010
0001
0010
,
0100
0000
0100
1000
0000
0000
0110
0000
0101
0000
1010
0000
,
1001
0000
1000
0100
0000
0010
0001
0000
0010
0000
0100
0000
,
1000
0000
0010
1000
0010
0000
1000
0000
0001
0100
0001
0000
,
0100
0000
0001
0010
0100
1000
0001
0000
1000
0000
0001
0000
,
0100
0000
0100
0010
0000
0010
1000
0000
1000
0100
0010
0001
,
0010
0000
0100
0000
1000
0000
0010
0000
0100
0001
0100
0000
,
0010
0000
0010
1000
0000
1000
0100
0000
0100
0010
0001
0010
,
0100
0000
0100
1000
0010
0000
0100
0000
0100
0001
0100
0000
,
0010
0000
0010
1000
0000
1000
0100
0000
0100
1000
0001
0010
,
0100
0000
1000
0000
0010
0000
0100
0001
0100
0000
0010
0000
,
1000
0000
1000
0010
0000
0010
0100
0001
0010
0100
1000
0001
,
0010
0100
1000
0010
0100
0001
0100
0001
0100
0001
0100
0001
,
0100
0010
1000
0100
0010
0001
0010
0100
1000
0010
0100
0001
,
0010
0100
1000
0001
1000
0010
1000
0010
1000
0100
1000
0100
,
1000
0001
0010
0100
1000
0001
0010
0001
0010
0001
0100
0001
,
0100
0010
1000
0100
0010
0001
0010
0100
1000
0010
0100
0001
,
1000
0010
1000
0100
1000
0001
0010
0100
1000
0001
0100
0010
,
1000
0100
1000
0001
0010
0001
1000
0001
1000
0001
1000
0001
,
1000
0000
0010
0000
0100
0000
0001
0000
0000
0001
0100
0010
,
1000
0000
0100
0000
0010
0000
0001
0000
0010
0000
0100
0000
,
1000
0000
1000
0010
0100
0001
0100
0000
0010
0000
1000
0000
,
1010
0000
1000
0100
0000
0010
0001
0010
0100
1000
0001
0010
,
0100
0000
1000
0000
0010
0000
1010
0000
0000
0010
1000
0001
,
0100
0000
0001
0000
1000
0000
1100
0000
0100
1000
0010
0100
,
0001
0000
0001
0100
0010
0000
0010
0000
1000
0100
0010
0000
,
0001
0000
0001
0010
0100
1000
0001
0000
0001
0100
0010
1000
,
0010
0000
0010
1000
0000
1000
0100
0000
0010
0000
0001
0000
,
0011
0000
0001
0010
0000
0100
1000
0000
0010
0100
0000
0001
,
0100
0000
0000
1001
0000
0000
0100
0000
1000
0000
0010
0000
,
1010
0000
0000
0010
0000
0000
1000
0001
0100
0010
1000
0100
,
0010
0000
0000
0110
0000
0000
0100
0000
1000
0010
0100
0001
,
0100
0000
0000
0001
0000
0100
0010
0000
0010
1000
0100
0010
,
0001
0010
0100
1000
0001
0010
0100
1000
0010
0100
0001
0010
,
0100
1000
0010
0100
0001
0010
0100
1000
0001
1000
0001
1000
,
0001
0000
0001
1000
0000
1000
0010
0000
0010
0100
0000
0100
,
0001
0000
0001
1000
0000
1000
0100
0000
0100
1000
0000
1000
,
0001
0010
0001
0010
0001
0010
0100
0010
0100
0010
0100
1000
,
0100
1000
0100
1000
0010
1000
0010
1000
0001
1000
0001
1000
,
0001
0000
0001
0100
0000
0100
0010
0000
1000
0100
0010
0001
,
0010
0000
0100
0000
1000
0000
0010
0000
0100
0001
0100
0000
,
0010
0000
1000
0010
1000
0000
0100
0000
1000
0001
0010
0100
,
1000
0001
0100
0010
1000
0001
1000
0100
1000
0001
0010
0001
,
1000
0000
1000
0001
0000
0100
0010
0000
1010
0000
1001
0000
,
1100
0000
0100
1000
0000
0010
0100
0000
0001
0010
0001
1000
,
0001
0000
0001
0100
0010
1000
0100
0000
0100
0010
0001
1000
,
0010
1000
0010
1000
0001
0100
0001
0100
0010
1000
0010
1000
0001
0100
0001
0100
,
0001
0000
0110
0000
1010
0000
1000
0000
1100
0000
0110
0000
,
0011
0000
0001
0010
0000
0100
1000
0000
0010
0100
0000
0001
,
0100
0000
0010
1000
0000
1000
0010
0000
0100
0001
0000
0010
,
0100
1000
0001
1000
0010
1000
0001
1000
0100
1000
0010
1000
,
0010
0000
0010
1000
0000
1000
0001
0000
0101
0000
0011
0000
,
1001
0000
0001
0100
0000
0100
0010
1000
0100
0010
0001
0010
,
0100
0000
0100
1000
0010
0000
0100
0000
0100
0001
0100
0010
,
1000
0000
0010
0000
0000
0000
1000
0100
0010
0001
0010
0100
,
1000
0000
1000
0001
0000
0001
0100
0000
0110
0000
1001
0000
,
1100
0000
0100
1000
0000
1000
0010
0100
0001
0010
0100
1000
,
0001
0100
0010
1000
0100
0010
0001
0010
0100
1000
0010
0100
,
2002
0000
0000
0000
,
3003
0000
0000
0000
;

//---------------dance-single - Renard----------------
#NOTES:
     dance-single:
     Renard:
     Hard:
     9:
     0.671,0.724,0.219,0.000,1.000:
0000
0000
0000
0000
,
0000
0000
0000
0000
,
0000
0000
0000
0000
,
0000
0000
0000
0000
,
0001
1000
0001
1000
0001
1000
0001
1000
0001
1000
0000
0000
,
0001
0000
0000
0100
0000
0000
0010
0000
1000
0000
0010
0000
,
1000
0000
1000
0100
0000
0000
1000
0000
0001
0000
0010
0000
,
0100
0000
1000
0000
0010
0000
0100
0000
0000
0001
0000
0000
,
0100
0000
0010
0000
0000
0000
1000
0010
1000
0001
1000
0001
,
1000
0000
1000
0100
0000
0000
0010
0000
0001
0000
0010
0000
,
0100
0000
0000
1000
0000
0000
0010
0000
0100
0000
0001
0000
,
0100
0000
0001
1000
0100
0000
1000
0000
0001
0100
0001
0000
,
1000
0000
1000
0100
0000
1000
0010
0000
0100
0000
0001
0000
,
1000
0000
0000
0001
0000
0000
0100
0000
0010
1000
0000
0010
,
1000
0000
0100
0000
0010
0000
0001
0000
0010
0000
0100
0000
,
1000
0000
1000
0001
0000
0001
0100
0000
0100
0010
0000
0010
,
1000
0000
0100
0000
0010
0000
0001
0000
0010
0000
0100
0000
,
1000
0000
1000
0010
0000
0010
0100
0000
0100
0001
0000
0001
,
0100
0000
0010
0000
1000
0000
0100
0000
0010
0000
0001
0000
,
1000
0001
1000
0001
1000
0001
0100
0001
0100
0001
0100
0001
,
0010
0001
0010
0001
0010
0001
1000
0000
1000
0001
0000
0001
,
1000
0100
1000
0100
1000
0100
1000
0010
1000
0010
1000
0010
,
1000
0001
1000
0001
1000
0001
1000
0000
1000
0001
0000
0001
,
0100
0001
0100
0001
0100
0001
0100
0010
0100
0010
0100
0010
,
0100
0001
0100
0001
0100
0001
0100
0000
0100
0010
0000
0010
,
1000
0100
1000
0100
1000
0100
0010
0100
0010
0100
0010
0100
,
1000
0100
1000
0100
1000
0001
1000
0000
1000
0001
0000
0001
,
0100
0000
0010
0000
1000
0000
0100
0000
0000
1000
0100
1000
,
0010
0000
0100
0000
0001
0000
0010
0000
0001
0000
1000
0000
,
0001
0000
0001
0100
0000
0000
0010
0000
1000
0000
0100
0000
,
1100
0000
0000
1000
0000
0000
0010
1000
0010
1000
0001
1000
,
0001
0000
0100
0000
0001
0000
0100
0000
0000
0001
1000
0100
,
1000
0000
0001
0000
0100
0000
0001
0000
1000
0000
0100
0000
,
0010
0000
0010
0000
0001
0000
0010
0000
0100
0000
1000
0000
,
0010
0000
0000
0100
0000
0000
0001
0000
0100
0010
0000
1000
,
0010
0000
0000
1000
0000
0000
0100
0000
0010
0000
0001
0000
,
0011
0010
0110
0100
,
1100
0000
0000
1000
0000
0000
0010
0000
0100
0000
0001
0000
,
0101
0000
0000
0001
0000
0000
1000
0100
1000
0001
1000
0001
,
1000
0000
0000
1001
0000
0000
0001
0000
0100
0000
0010
0000
,
0110
1010
1001
1000
,
0100
0000
0100
1000
0000
1000
0010
0000
0010
0100
0000
0100
,
0001
0100
0001
0100
0001
0100
0001
1000
0001
1000
0001
1000
,
0001
1000
0001
1001
,
1000
0001
1000
1001
,
0001
0000
0001
1000
0000
1000
0001
0000
0000
1001
0000
0000
,
1000
0000
1000
0001
1000
0001
1000
0001
1000
0001
1000
0001
,
1000
0000
1000
0001
0000
0001
0100
0000
0000
0010
1000
0010
,
1000
0000
0100
0000
1000
0000
0001
0000
0010
0000
0001
0000
,
1000
0000
1000
0001
0000
0001
0100
0000
0100
0010
0000
0010
,
1000
0000
1000
0100
0000
0100
0010
0001
0010
0001
0010
0001
,
0010
0000
0010
0100
0000
0100
1000
0000
0010
0000
0100
0000
,
0001
0000
0001
0100
0000
0100
0010
0000
1000
0000
0100
0000
,
1000
0001
0100
0010
,
1000
0010
1000
0001
0100
0001
1000
0001
1000
0100
1000
0100
,
1000
0000
1000
0001
0000
0001
0100
0000
0100
0001
0000
0001
,
1000
0000
1000
0100
0000
0100
0010
0000
0010
0001
0000
0001
,
1000
0000
1000
0010
0000
0010
0100
0000
0100
0001
0000
0001
,
1000
0001
1000
0100
1000
0001
1000
0001
1000
0001
1000
0001
,
0100
0000
0000
0101
0000
0000
1001
0000
1100
0000
1001
0000
,
1010
0000
1000
0100
0000
0010
0001
0000
0010
0000
0100
0000
,
1000
0000
0010
0100
0010
0000
0100
0000
0001
0100
0001
0000
,
0010
0000
0001
0010
0000
0000
0100
1000
0001
1000
0010
1000
,
0001
0000
0000
1100
0000
0000
1010
0000
1001
0000
1100
0000
,
1001
0000
0000
1100
0000
0000
1000
0100
0010
0001
0010
0100
,
1000
0001
0100
0001
1000
0100
1000
0001
0010
0001
1000
0001
,
1000
0000
0000
0000
;

//---------------dance-single - Renard----------------
#NOTES:
     dance-single:
     Renard:
     Medium:
     7:
     0.341,0.441,0.038,0.038,0.234:
0000
0000
0000
0000
,
0000
0000
0000
0000
,
0000
0000
0000
0000
,
0000
0000
0000
0000
,
0000
0000
0000
0000
,
1000
0000
0000
0100
0000
0000
0010
0000
0001
0000
0010
0000
,
0100
0000
0000
0100
0000
0000
1000
0000
0010
0000
1000
0000
,
0010
0000
0100
0000
0001
0000
0010
0000
0000
0001
0000
0000
,
1000
0000
0100
0000
0000
0000
0010
0000
0000
0001
0000
0000
,
1000
0000
0000
0100
0000
0000
1000
0000
0001
0000
1000
0000
,
0001
0000
0000
0100
0000
0000
0010
0000
1000
0000
0010
0000
,
0100
0000
0100
0001
,
1000
0000
0000
0000
0000
0000
0100
0000
0010
0000
0001
0000
,
0020
0000
0000
0000
,
0130
0100
1000
0010
,
0200
0000
0000
0000
,
0301
0001
0010
0100
,
2000
0000
0000
0000
,
3001
0001
0010
0100
,
1000
1000
0001
0001
,
0100
0010
1000
0100
,
0010
0010
0001
0001
,
1000
0010
0100
0001
,
0100
0100
0010
0010
,
1000
1000
0100
0010
,
0001
0001
0010
0010
,
0200
0000
0000
0000
,
1300
1000
0001
0100
,
0010
0000
0000
0010
0000
0000
1000
0000
0100
0000
0010
0000
,
0001
0000
0000
0010
0000
0000
0100
0000
1000
0000
0001
0000
,
0010
0001
1000
1000
,
0001
0000
0100
0000
0010
0000
1000
0000
0000
0000
0000
0000
,
0010
0000
1000
0000
0001
0000
0100
0000
0000
0001
0000
0000
,
1000
1000
0100
0010
,
0001
1000
0001
0010
,
0100
0000
0000
0000
0000
0000
0100
0000
0100
0000
0100
0000
,
0100
0000
0100
0000
,
0010
0000
0000
0000
0000
0000
0010
0000
0010
0000
0010
0000
,
0010
0000
0000
0000
,
0001
0000
0000
0000
0000
0000
0001
0000
0001
0000
0001
0000
,
0001
0000
0001
0000
,
1000
1000
0001
0001
,
1000
1000
0001
1000
,
0010
0010
0010
0010
,
0010
0010
0100
0010
,
1000
1000
1000
1000
,
0001
1000
0001
1000
,
0010
0100
0001
1000
,
0001
0000
0000
0100
0000
0000
0010
0000
0100
0000
0010
0000
,
0100
0001
1000
0100
,
0010
0001
0010
0110
,
0100
0000
0000
1000
0000
0000
0010
0000
0100
0000
0001
0000
,
0100
0000
0000
0010
0000
0000
1000
0000
0100
0000
0010
0000
,
0001
0010
0100
1000
,
0100
0010
0001
1000
,
0100
0000
0000
1000
0000
0000
0001
0000
0010
0000
0001
0000
,
1000
0000
0000
0010
0000
0000
0100
0000
0001
0000
0100
0000
,
0010
1000
0100
1000
,
0001
0000
0000
0010
0000
0000
0100
1000
0100
1000
0100
1000
,
0100
0000
0000
1000
0000
0000
0100
0000
0100
0000
0100
0000
,
0100
0000
0000
0100
0000
0000
0010
0000
0010
0000
0010
0000
,
0010
0000
0001
0000
,
1000
0000
0101
0110
,
0010
0000
0000
1000
0000
0000
0010
0000
0010
0000
0010
0000
,
0010
0000
0000
0000
0000
0000
0100
0000
0100
0000
0100
0000
,
0100
0001
1000
0100
,
0110
0000
0000
0000
;

//---------------dance-single - Renard----------------
#NOTES:
     dance-single:
     Renard:
     Easy:
     2:
     0.290,0.315,0.010,0.286,0.000: // measure 1
0000
0000
0000
0000
,  // measure 2
0000
0000
0000
0000
,  // measure 3
0000
0000
0000
0000
,  // measure 4
0000
0000
0000
0000
,  // measure 5
0000
0000
0000
0000
,  // measure 6
1000
1000
0001
1000
,  // measure 7
0001
0002
0000
0000
,  // measure 8
0103
0000
0002
0000
,  // measure 9
1003
0000
0200
0310
,  // measure 10
0001
0001
0010
0100
,  // measure 11
2000
0000
3002
0000
,  // measure 12
0103
0001
1000
0100
,  // measure 13
0020
0000
0031
1000
,  // measure 14
0020
0000
0000
0000
,  // measure 15
0230
0000
0302
0000
,  // measure 16
2003
0000
0000
0000
,  // measure 17
3200
0000
0320
0000
,  // measure 18
0032
0000
0000
0000
,  // measure 19
1003
0001
0100
0010
,  // measure 20
1000
1000
1000
1000
,  // measure 21
0001
1000
0001
0001
,  // measure 22
1000
1000
1000
1000
,  // measure 23
0001
1000
0001
0001
,  // measure 24
0100
0100
0010
0010
,  // measure 25
1000
1000
0001
0010
,  // measure 26
0100
0100
1000
1000
,  // measure 27
0002
0000
0000
0000
,  // measure 28
0013
0100
1000
0001
,  // measure 29
0100
0010
1000
1000
,  // measure 30
0002
0000
0203
0000
,  // measure 31
0320
0000
0000
0000
,  // measure 32
1030
1000
0020
0000
,  // measure 33
0130
0100
0002
0000
,  // measure 34
1003
0100
0010
0001
,  // measure 35
2000
0000
3002
0000
,  // measure 36
0103
0000
0100
0010
,  // measure 37
2000
0000
3020
0000
,  // measure 38
0230
0000
0301
0010
,  // measure 39
0200
0000
0000
0000
,  // measure 40
2300
0000
3002
0000
,  // measure 41
0203
0000
0320
0000
,  // measure 42
1030
0010
0100
0001
,  // measure 43
1000
0100
0010
0001
,  // measure 44
2000
0000
0000
0000
,  // measure 45
0000
0000
0000
0000
,  // measure 46
3001
0001
0001
0001
,  // measure 47
1000
0001
1000
0001
,  // measure 48
0100
0000
0100
0001
,  // measure 49
1000
0000
0100
0010
,  // measure 50
0001
0010
0100
1000
,  // measure 51
0001
0010
0100
0000
,  // measure 52
1000
0000
1000
0001
,  // measure 53
0010
0000
0001
1000
,  // measure 54
0010
0000
0100
0000
,  // measure 55
0001
1000
0100
0010
,  // measure 56
0001
0010
0100
1000
,  // measure 57
0001
0100
0001
1000
,  // measure 58
0100
0000
0010
0000
,  // measure 59
0001
1000
0001
1000
,  // measure 60
0001
0001
1000
1000
,  // measure 61
0001
0001
1000
1000
,  // measure 62
0001
0000
0100
0000
,  // measure 63
0010
0000
1000
0100
,  // measure 64
0010
0010
0100
0100
,  // measure 65
1000
1000
0001
0001
,  // measure 66
0100
0001
1000
0100
,  // measure 67
0110
0000
0000
0000
;
