#TITLE:One With the Beat;
#SUBTITLE:;
#ARTIST:Gammer & Marc Smith;
#TITLETRANSLIT:;
#SUBTITLETRANSLIT:;
#ARTISTTRANSLIT:;
#CREDIT:;
#BANNER:beat.png;
#BACKGROUND:beat-bg.png;
#LYRICSPATH:;
#CDTITLE:;
#MUSIC:beat.ogg;
#OFFSET:0.000;
#SAMPLESTART:74.668;
#SAMPLELENGTH:12.000;
#SELECTABLE:YES;
#BPMS:0.000=179.900;
#STOPS:;
#BGCHANGES:;

//---------------dance-single - Renard----------------
#NOTES:
     dance-single:
     Renard:
     Hard:
     9:
     0.578,0.604,0.158,0.158,0.030:
0000
0000
0000
0000
,
0000
0000
0000
0000
,
0000
0000
0000
0000
,
0000
0000
0000
0000
,
0000
0000
0000
0000
,
0000
0000
0000
0000
,
0000
0000
0000
0000
,
0000
0000
0000
0000
,
1000
1000
0000
0001
0001
0000
0100
0100
,
0000
0010
0010
0000
1000
1000
0000
0100
,
0100
0000
0010
0010
0000
0001
0001
0000
,
1000
0001
0000
0100
0010
0000
0110
0000
,
0010
1000
0010
1000
0010
1000
0010
1000
,
0001
1000
0001
1000
0001
1000
0001
1000
,
0001
0100
0001
0010
0100
0010
0100
1000
,
0010
0000
0100
0000
0001
0000
1000
0000
0000
0000
1000
0000
0001
1000
0001
0000
,
1000
0100
0000
0100
0010
0001
0000
0001
,
0010
0100
1000
0010
0000
0100
0001
0100
,
0010
1000
0000
1000
0001
0010
0000
0010
,
0001
1000
0010
0100
0000
0100
0001
0000
,
1000
0100
0010
0000
0001
0010
0100
0000
,
1000
0010
1000
0010
0000
1000
0001
0100
,
0001
0010
0000
0010
0100
1000
0000
1000
,
0001
0100
0001
1000
0001
0001
1000
1000
,
0001
0200
0000
0000
2000
0300
0000
0020
,
3000
0000
0002
0030
0000
0200
0000
0003
,
0000
1300
0100
0000
0102
0M00
0M03
0000
,
0010
1000
0010
0002
0000
2003
0001
0000
,
3002
0200
0003
0000
2000
0000
0300
0002
,
3000
0000
2000
0003
0000
0200
3000
0000
,
0301
0000
0001
0010
0000
0010
1000
0000
,
0000
0001
1000
0010
0001
0000
1001
0000
,
1000
0001
0000
0000
1001
0000
0000
1001
,
0000
1000
1001
0000
1000
0001
0000
0000
,
1000
0000
0001
1000
0001
0000
1000
0000
0001
0000
0000
0000
0000
0000
0000
0000
,
1001
0001
0001
0001
0000
0001
0001
0000
,
0001
1000
0000
0000
1000
0000
1000
1001
,
0000
0000
0001
0000
1001
0000
0000
0000
0000
0000
1000
0000
0000
0000
1000
0001
,
1000
0000
0001
0100
0001
0100
0001
1000
,
0100
0000
0010
0000
0100
0000
0010
0000
0000
0000
0001
1000
0002
0000
0000
0000
,
1003
0000
0001
0100
0000
0010
1000
0000
,
0100
0000
0010
0001
0000
1000
0001
0100
,
0010
0000
0000
0010
0000
0000
0010
0000
0000
0000
0100
0000
0001
0000
0000
0000
,
1001
0000
0000
1001
0000
0000
1001
0000
0000
0000
0100
0000
1000
0000
0000
0000
,
0001
0000
0010
0001
0000
1000
0001
0000
,
0100
0000
0010
1000
0002
0000
0000
0000
,
1003
0000
0100
0010
0000
0001
0010
0000
,
0100
1000
0000
0010
0100
0001
0010
0100
,
1000
0001
0000
0001
0100
0000
0100
0010
,
0000
0010
1000
0000
1000
0100
0000
0100
,
0010
0000
0010
0001
0000
0001
1000
0000
,
1000
0010
0000
0010
0100
0000
0001
0000
,
0010
0100
1000
0100
0010
0001
0100
0010
,
1000
0100
0010
0001
0100
0010
1000
0100
,
0010
0001
0010
0100
1000
0001
0100
0010
,
1000
0001
1000
0001
0000
0000
1001
0000
,
0001
1000
0000
1000
0100
0000
0100
0010
,
0000
0010
0001
0010
0100
1000
0010
0100
,
0001
0000
0001
0010
0000
0010
0100
0000
,
0100
1000
0010
0100
0001
0000
1001
0000
,
1000
0100
0000
0100
0010
0000
0010
0001
,
0000
0001
0010
0100
1000
0001
0100
0010
,
1000
0000
1000
0010
0000
0010
0100
0000
,
0100
0001
0010
0100
1000
0000
1001
0000
,
1000
0100
0010
1000
0010
0100
1000
0010
,
0100
0001
0100
0001
0000
1000
0000
1000
,
0001
0100
0010
0001
0010
0100
0001
0010
,
0100
0001
0100
0010
0000
0010
0000
0010
,
0001
1000
0010
1000
0100
1000
0001
1000
,
0010
1000
0001
1000
0000
0001
0000
1000
,
0001
0100
0000
0100
0010
1000
0100
0010
,
0001
1000
0010
0100
0001
0001
1000
1000
,
0110
0000
0000
0000
;

//---------------dance-single - Renard----------------
#NOTES:
     dance-single:
     Renard:
     Medium:
     6:
     0.340,0.497,0.049,0.010,0.000:
0000
0000
0000
0000
,
0000
0000
0000
0000
,
0000
0000
0000
0000
,
0000
0000
0000
0000
,
0000
0000
0000
0000
,
0000
0000
0000
0000
,
0000
0000
0000
0000
,
0000
0000
0000
0000
,
1000
0000
0000
0001
0000
0000
0100
0000
,
0000
0001
0000
0000
1000
0000
0000
0100
,
0000
0000
0010
0000
0000
0001
0000
0000
,
1000
0000
0000
0001
0000
0000
0100
0000
,
0010
0010
0010
0010
,
0100
0100
0100
0100
,
0001
0001
1000
1000
,
0001
1000
0001
1000
0000
0000
0001
0000
,
1000
0100
1000
0001
,
0010
0001
0010
0001
0000
0000
0000
0000
,
1000
0001
0100
0010
,
1000
0010
1000
0010
0000
0000
0000
0000
,
1000
0100
0010
0001
,
1000
0001
1000
0001
0000
0000
0000
0000
,
0100
0010
1000
0100
,
0010
0100
0010
0100
0000
0000
0010
0000
,
0001
0000
0000
0000
1000
0000
0000
0001
,
0000
0000
0100
0000
0000
0010
0000
0000
,
0000
1000
0010
0000
,
0100
0000
0000
0001
0000
0000
1000
0000
,
0000
0001
0000
0000
0100
0000
0000
0001
,
0000
0000
1000
0000
0000
0001
0000
0000
,
1000
0000
0000
0100
0000
0000
0010
0000
,
0000
0001
0000
0000
1000
0000
0001
0000
,
0100
0000
0000
0000
1001
0000
0000
0001
,
0000
1000
0010
0000
1001
0000
0000
0000
,
1000
0100
0010
0000
,
0001
0000
1000
0000
,
0001
0000
0000
0000
1001
0000
0000
0100
,
0000
0010
0100
0000
1001
0000
0000
0000
,
1000
0100
0010
0001
,
1000
0001
1000
0001
0000
0000
1000
0000
,
0001
0000
1000
0000
0000
0001
0100
0000
,
0001
0000
1000
0000
0000
0001
0100
0000
,
0001
0000
1000
0000
0000
0100
1000
0000
,
0001
0100
0010
1000
,
0001
0000
1000
0000
0000
0100
1000
0000
,
0001
0100
0002
0000
,
1003
0001
0010
0001
,
1000
0010
0000
0100
0001
0000
1000
0000
,
0001
0000
0001
0000
,
1000
0000
1000
0000
,
0010
0010
0000
0010
,
0100
0100
0000
0100
,
0001
0001
1000
1000
,
0010
0010
0100
0100
,
0001
1000
0001
1000
0001
1000
0001
1000
,
0001
1000
0001
1000
0000
0000
0001
0000
,
1000
0001
1000
0001
,
0100
0010
0100
0010
,
1000
0001
1000
0100
,
0010
0001
1000
1000
,
0001
0010
0100
1000
,
0001
0001
1000
1000
,
0100
0010
0001
1000
,
0001
0000
1000
0000
0010
0100
0010
0000
,
1000
0000
0001
0000
,
1000
0100
1000
0100
0000
0000
1000
0000
,
0001
0000
0010
0000
,
0001
1000
0001
1000
0000
0000
0001
0000
,
0100
0000
0010
0000
,
1000
0001
1000
0001
0000
0000
1000
0000
,
0100
0010
0001
1000
,
0001
0100
0001
0100
0000
0000
0001
0000
,
1001
0000
0000
0000
;

//---------------dance-single - Renard----------------
#NOTES:
     dance-single:
     Renard:
     Easy:
     2:
     0.269,0.320,0.069,0.089,0.000: // measure 1
0000
0000
0000
0000
,  // measure 2
0000
0000
0000
0000
,  // measure 3
0000
0000
0000
0000
,  // measure 4
0000
0000
0000
0000
,  // measure 5
0000
0000
0000
0000
,  // measure 6
0000
0000
0000
0000
,  // measure 7
0000
0000
0000
0000
,  // measure 8
0000
0000
0000
0000
,  // measure 9
1000
0000
1000
0000
,  // measure 10
0001
0000
0001
0000
,  // measure 11
2000
0000
0000
0000
,  // measure 12
0001
0001
3001
0000
,  // measure 13
0001
0000
0001
0000
,  // measure 14
1000
0000
1000
0000
,  // measure 15
0001
0100
0010
2000
,  // measure 16
0002
0000
0000
3003
,  // measure 17
1000
1000
0001
0001
,  // measure 18
0100
0100
0000
0000
,  // measure 19
0001
0001
1000
1000
,  // measure 20
0010
0010
0010
0000
,  // measure 21
1000
1000
0001
0001
,  // measure 22
0010
0010
0000
0000
,  // measure 23
0001
0001
1000
1000
,  // measure 24
0100
0100
0100
0000
,  // measure 25
2002
0000
0000
0000
,  // measure 26
0000
0000
0000
0000
,  // measure 27
0000
0000
0000
0000
,  // measure 28
0000
0000
0000
0003
,  // measure 29
0001
0001
0001
0001
,  // measure 30
0001
0001
0001
0001
,  // measure 31
0001
0001
0001
0001
,  // measure 32
0001
0001
0001
3001
,  // measure 33
1000
0000
1001
0000
,  // measure 34
0000
0000
0110
0000
,  // measure 35
0000
0000
1001
0000
,  // measure 36
0000
0000
0110
0000
,  // measure 37
0001
1000
0001
0000
,  // measure 38
1000
0001
1000
0000
,  // measure 39
0010
0100
0010
0100
,  // measure 40
0001
1000
0001
0000
,  // measure 41
1000
0100
0000
0100
,  // measure 42
0010
0001
0000
0001
,  // measure 43
1000
0010
0000
0010
,  // measure 44
0100
0001
0000
0001
,  // measure 45
1000
0100
0000
0100
,  // measure 46
0010
0001
0000
0001
,  // measure 47
1000
0001
0000
0001
,  // measure 48
0100
0010
1000
0001
,  // measure 49
2000
0000
0001
0000
,  // measure 50
0001
0000
0001
0000
,  // measure 51
3002
0000
1000
0000
,  // measure 52
1000
0000
1000
0000
,  // measure 53
1003
0001
0100
0001
,  // measure 54
1000
0010
1000
0100
,  // measure 55
0010
0001
1000
0001
,  // measure 56
2002
0000
0000
3003
,  // measure 57
1000
0001
1000
0001
,  // measure 58
0100
0100
0100
0100
,  // measure 59
0001
1000
0001
1000
,  // measure 60
0010
0010
0010
0010
,  // measure 61
1000
0001
1000
0001
,  // measure 62
0100
0100
0100
0100
,  // measure 63
0001
1000
0001
1000
,  // measure 64
0010
0010
0010
0000
,  // measure 65
1000
0000
1000
0000
,  // measure 66
0001
0001
0000
0000
,  // measure 67
0100
0000
0100
0000
,  // measure 68
0010
0010
1000
0000
,  // measure 69
0001
0000
1000
0000
,  // measure 70
0100
0100
0000
0000
,  // measure 71
0010
0000
0001
0000
,  // measure 72
1000
0001
0100
0010
,  // measure 73
1001
0000
0000
0000
;
