#TITLE:Ondecca;
#SUBTITLE:;
#ARTIST:Sigma;
#TITLETRANSLIT:;
#SUBTITLETRANSLIT:;
#ARTISTTRANSLIT:;
#CREDIT:;
#BANNER:ondecca.png;
#BACKGROUND:ondecca-bg.png;
#LYRICSPATH:;
#CDTITLE:;
#MUSIC:ondecca.ogg;
#OFFSET:0.000;
#SAMPLESTART:11.959;
#SAMPLELENGTH:12.000;
#SELECTABLE:YES;
#BPMS:0.000=80.007,16.000=320.030,400.000=160.015;
#STOPS:;
#BGCHANGES:;

//---------------dance-single - Renard----------------
#NOTES:
     dance-single:
     Renard:
     Challenge:
     11:
     0.981,1.000,0.486,0.045,0.068:
0000
0000
0000
0000
,
0000
0000
0000
0000
,
1000
0100
1000
0000
1100
0000
0010
0001
0100
0001
0100
0000
0101
0000
0001
0010
,
0100
0000
1000
0000
0100
0000
0000
0000
1100
0000
0000
0000
0001
0000
0100
0000
0001
0100
0001
0000
0100
0000
0010
1000
0010
0000
1000
0000
0100
0000
0010
0000
,
0110
0000
0100
1000
0010
0000
1000
0000
,
1010
0000
0010
1000
0001
0000
1000
0000
,
0001
0101
0010
0110
,
0110
0100
1010
0000
,
1010
0000
1000
0100
0010
0000
0001
0000
,
0011
0000
0010
0100
1000
0000
1001
0000
,
0000
1010
0000
1001
,
0000
0101
0110
0000
,
0110
0000
0010
1000
0100
0000
0010
0000
,
0110
0000
0100
1000
0010
0000
0100
0000
,
0001
0101
0000
0110
,
1010
0100
1001
0000
,
1100
0000
0100
1000
0100
0000
0010
0000
,
0011
0000
0001
0010
0100
0000
0010
0000
,
0100
0000
1000
0010
0100
0000
0001
0000
,
1000
0010
0100
0001
0010
0100
1000
0010
,
0100
0001
0100
0001
0100
0001
0100
0000
,
0001
0000
1000
0010
1000
0000
0001
0010
,
0001
0000
1000
0100
1000
0000
0001
0100
,
0001
0100
1000
0100
,
0010
0001
0010
1000
,
0100
0001
0100
0010
,
0001
0010
1000
0010
,
0100
1000
0010
0001
,
0010
1000
0010
1000
0010
1000
0010
0000
,
1000
0000
0001
0100
0001
0000
1000
0100
,
1000
0000
0001
0010
0001
0000
1000
0010
,
1000
0010
0001
0010
,
0100
1000
0100
0001
,
0010
1000
0010
0100
,
1000
0100
0010
0001
0011
0000
0001
0010
,
0100
1000
0001
0000
1001
0000
1001
0000
,
0001
0000
0001
0100
0010
0000
1000
0000
,
0000
0000
1000
0100
0010
0000
0001
0000
,
0010
0000
0100
1000
0001
0000
1000
0000
,
0010
0000
1000
0010
1000
0000
0010
0000
,
1000
0000
0100
0010
0001
0000
0010
0100
,
1000
0000
0001
0010
0100
0000
1000
0010
,
0100
0000
0001
0100
0010
0000
1000
0010
,
1000
0010
1000
0000
0010
0000
1000
0000
,
0100
0000
0010
0001
0010
0000
0100
0000
,
1000
0000
0010
1000
0010
0000
1000
0000
,
0001
0000
0100
0001
0100
0000
0001
0000
,
0010
0000
0100
1000
0001
0000
1000
0000
,
0010
0000
1000
0001
1000
0000
0100
0000
,
1000
0001
0010
0100
,
1000
0000
0001
1000
0001
0000
1000
0000
,
0001
1001
0000
1001
,
1000
0000
0001
0100
0010
0000
1000
0000
,
0100
0010
0001
0100
0010
0000
1000
0000
,
0000
0000
0100
1000
0100
0000
1000
0001
,
0100
0010
1000
0000
0100
0000
0010
0000
,
0001
0010
0100
1000
0010
0100
0001
0010
,
0100
1000
0010
0100
0001
0000
0100
0000
,
0000
0000
0010
1000
0010
0000
0100
0000
,
0001
0010
0100
1000
0010
0100
0001
0010
,
0100
0100
0100
0100
,
1000
0001
0100
0010
1000
0000
0100
0000
,
0000
0000
1000
0001
0100
0010
1000
0000
,
0100
0010
0001
0010
0100
1000
0001
0000
,
0001
0100
0001
0100
0010
0100
0010
0100
,
0010
1000
0010
1000
0010
1000
0100
0010
,
0001
0010
0100
1000
0010
0100
0001
0010
,
0100
1000
0002
2000
0010
0000
3003
0000
,
0001
0100
0001
0000
0100
0000
0010
1000
,
0100
0010
0001
0010
0100
1000
0010
0000
,
0100
0001
0100
0000
0010
0000
1000
0100
,
0010
0001
0010
0100
1000
0001
1000
0000
,
0100
1000
0001
0000
1000
0000
0010
1000
,
0100
1000
0001
0010
0100
1000
0001
0000
,
1000
0010
1000
0000
0001
0000
0100
0010
,
1000
0100
0010
0001
0010
0100
1000
0000
,
0001
0100
0001
0000
0100
0000
0010
1000
,
0100
0010
0001
0100
0010
1000
0100
0000
,
1000
0100
1000
0000
0010
0000
0100
0001
,
0010
0100
1000
0010
0100
0001
0100
0000
,
0010
1000
0010
0000
1000
0000
0100
0010
,
0001
0010
0100
1000
0001
0100
0010
0000
,
0100
0001
0100
0000
0001
0000
0010
0001
,
0010
0001
1000
0100
1000
0001
1000
0000
,
0001
0100
0010
1000
0100
0010
0001
0010
,
0100
1000
0010
0100
0001
0100
0010
0000
,
1000
0100
0010
0001
0010
0100
1000
0001
,
0100
0010
1000
0100
1000
0001
1000
0000
,
0001
0010
0100
1000
0001
0100
0010
1000
,
0100
0010
0100
1000
0100
1000
0001
0000
,
1000
0010
0100
0001
0010
0100
1000
0001
,
0100
0010
1000
0100
1000
0000
1001
0000
,
1001
0000
0001
0100
0010
1000
0100
0000
,
1100
0000
0100
1000
0001
0010
0100
0000
,
0110
0000
0100
1000
0010
0000
0100
0000
,
0101
0110
1001
0000
,
1100
0000
0001
0010
0100
0000
1100
0000
,
1000
0010
0100
0000
0101
0000
0010
0000
,
1000
1001
0100
1000
,
0011
0000
1000
0001
1001
0000
0010
0000
,
2002
0000
0000
0000
0000
0000
0000
3003
0000
0000
0000
0000
0000
0000
0000
0000
;

//---------------dance-single - Renard----------------
#NOTES:
     dance-single:
     Renard:
     Hard:
     10:
     0.801,1.000,0.079,0.023,0.057:
0000
0000
0000
0000
,
0000
0000
0000
0000
,
1000
0000
0001
0100
0010
0000
1000
0100
0010
0001
0010
0000
0011
0000
0001
0010
,
0100
0000
0000
0000
0100
0000
1000
0000
0010
0000
0000
0000
0100
0000
0000
0000
0001
0100
0001
0000
0100
0000
0010
1000
0010
0000
1000
0000
1100
0000
0000
0000
,
0100
1000
0010
0100
,
0001
0000
0100
0001
0100
0000
0001
0000
,
0010
0000
0100
0010
0100
0000
1000
0000
,
0100
1000
0100
1000
0100
0000
1000
0000
,
0010
0100
0001
1000
,
0100
0000
1000
0100
1000
0000
0001
0000
,
0010
0000
0001
0010
0001
0000
0100
0000
,
0001
0100
0001
0100
0001
0000
0100
0000
,
0010
1000
0010
1000
,
0100
0000
1000
0100
1000
0000
0100
0000
,
0010
0000
0001
0010
0001
0000
0010
0000
,
0001
0100
0001
0100
0001
0000
0100
0000
,
0010
0000
1000
0010
1000
0000
0100
0000
,
1000
0000
0001
1000
0001
0000
1000
0000
,
0001
0100
0001
0100
0001
0000
0100
0010
,
0100
0010
1000
0010
,
1000
0000
0100
0000
0010
0000
0000
0010
,
0001
0000
0010
0000
0100
0000
0000
0100
,
1000
0000
0010
0000
0100
0000
0001
0100
,
0001
0100
0001
0100
0001
0000
0100
0000
,
0010
0000
0000
0010
1000
0000
0100
0000
,
0010
0000
0000
0010
0001
0000
0010
0000
,
0100
1000
0100
1000
0100
0000
1000
0001
,
1000
0001
1000
0000
0001
0000
0100
0000
,
0010
0000
0000
0010
1000
0000
0100
0000
,
0010
0000
0000
0010
0001
0000
0010
0000
,
0100
0000
0000
0100
1000
0000
0010
0000
,
0100
0010
0100
0010
0100
0000
0010
0000
,
1000
0000
0000
1000
0001
0000
0010
0000
,
0100
1000
0001
0100
,
0001
0100
0001
0100
0001
0000
1000
0010
,
1000
0010
1000
0000
1001
0000
0000
0000
,
0001
0000
0000
0001
0100
0000
0010
0000
,
0000
0000
1000
0100
1000
0000
0001
0000
,
0000
1000
0001
0100
,
0000
0010
1000
0100
,
0010
0010
0001
0001
,
0010
0010
0100
0100
,
1000
1000
0010
0010
,
0100
0100
0001
0001
,
0100
0000
0100
0010
0100
0000
0010
0000
,
1000
0000
0010
1000
0010
0000
1000
0000
,
0100
0000
0010
0001
0010
0000
0001
0000
,
0010
0000
0100
1000
0100
0000
1000
0000
,
0001
0100
0010
1000
,
0100
0100
0010
0010
,
0001
0010
0100
1000
,
0001
1000
0000
0001
,
1000
0000
0100
1000
0100
0000
1000
0000
,
0100
0010
0001
0010
0001
0000
1000
0000
,
0000
0000
0100
1000
0100
0000
1000
0001
,
1000
0001
1000
0000
0100
0000
0010
0000
,
0001
0010
0001
0010
0001
0010
0001
0010
,
0100
1000
0100
1000
0001
0000
0100
0000
,
0000
0000
0010
1000
0010
0000
1000
0000
,
0001
0100
0001
0100
0001
0100
0001
0100
,
0001
1000
0001
1000
,
0100
1000
0100
1000
0100
0000
1000
0000
,
0000
0000
0001
0100
0001
0100
0001
0000
,
1000
0010
1000
0010
1000
0010
1000
0000
,
0001
0100
0010
1000
,
0100
1000
0100
0000
1001
0000
0000
0000
,
0000
0000
0001
0000
0100
0000
0001
1000
,
0100
0010
0001
0000
1001
0000
0000
0000
,
1000
0000
0001
0000
0100
0010
0000
1000
,
0010
0000
1000
0001
0000
1000
0100
0000
,
1000
0000
0100
0000
0010
0001
0000
0010
,
0100
0000
1000
0100
0000
1000
0001
0000
,
1000
0000
0001
0000
0100
0010
0000
1000
,
0010
0000
1000
0001
0000
1000
0100
0000
,
1000
0000
0001
0000
0010
0100
0000
1000
,
0001
0000
0100
0010
0000
1000
0100
0000
,
1000
0000
0001
0000
1000
0001
0000
0100
,
0001
0000
0100
0010
0000
0100
0010
0000
,
1000
0000
0100
0000
1000
0001
0000
1000
,
0010
0000
1000
0001
0000
1000
0100
0000
,
0010
0000
0001
0000
0010
0100
0000
1000
,
0001
0000
0100
0010
0000
1000
0001
0000
,
0100
0001
1000
0100
,
0010
0001
1000
0000
,
0001
0010
0100
1000
,
0010
0001
0010
1000
,
0100
0001
0100
0010
,
0001
0010
1000
0010
,
0100
1000
0100
0001
,
0100
1000
0010
0001
,
0010
0001
0010
0001
0010
0000
0001
0000
,
0010
1000
0010
1000
0010
0000
1000
0000
,
0100
0000
0010
0001
0010
0000
0001
0000
,
0010
0000
0100
0000
1000
0000
0001
1000
,
0001
0000
1000
0100
1000
0000
0001
0010
,
0001
1000
0001
1000
,
0010
0000
1000
0010
1000
0000
0010
0000
,
1000
0000
0001
0100
0001
0000
0100
0000
,
0001
1000
0100
0010
0001
0000
0010
0100
,
1000
0000
1001
0010
,
2002
0000
0000
0000
0000
0000
0000
3003
0000
0000
0000
0000
0000
0000
0000
0000
;

//---------------dance-single - Renard----------------
#NOTES:
     dance-single:
     Renard:
     Medium:
     7:
     0.546,0.739,0.136,0.023,0.000:
0000
0000
0000
0000
,
0000
0000
0000
0000
,
0100
0110
0010
0110
,
1000
1001
0001
1001
,
1000
0100
0010
0001
,
1000
0100
0010
0001
,
1000
0010
0100
0001
,
1000
0000
1001
0000
,
0001
0010
0100
1000
,
0100
0010
0001
1000
,
0010
0100
0001
1000
,
0001
0000
1001
0000
,
1000
0100
0010
0001
,
0010
0100
1000
0001
,
0100
0010
1000
0001
,
1000
0000
1001
0000
,
1000
0100
0010
0001
,
0000
0011
0000
0110
,
0000
1100
0000
1000
,
0001
0100
0010
0000
,
1000
0010
1000
0010
,
0000
1000
0000
0010
,
0000
0100
0000
0001
,
0000
0010
0100
1000
,
0100
0010
0001
0010
,
0000
0100
0000
1000
,
0000
0010
0000
0100
,
0000
0001
0100
0010
,
1000
0100
0010
0001
,
0000
1000
0000
0001
,
0000
0010
0000
0100
,
0000
1000
0000
0010
,
0100
0001
0100
0010
,
0000
1000
0000
0100
,
0010
0000
0001
0000
,
1000
0010
0000
0010
,
1000
0000
1010
0000
,
1000
0010
0100
0001
,
0000
0001
0010
0000
,
0010
0100
1000
0010
,
0100
0000
0100
0001
,
0010
0100
1000
0000
,
0001
0010
0100
1000
,
0100
0010
0001
0000
,
1000
0000
1000
0001
,
0000
0010
0100
1000
,
0000
0001
0000
0100
,
0000
0010
1000
0010
,
1000
0000
0001
0000
,
0100
0001
0100
0000
,
0001
1000
0100
0010
,
0001
1000
0000
1000
,
0001
0000
0100
0000
,
0010
0100
0010
0000
,
0000
1000
0100
0010
,
0001
0010
0100
1000
,
0001
0100
0001
1000
,
0100
1000
0001
0010
,
0000
0001
1000
0010
,
0100
0001
0010
0100
,
1000
0001
0100
0001
,
1000
0100
1000
0001
,
0000
0010
0001
1000
,
0010
0100
0001
1000
,
0100
0010
0001
0010
,
0100
1000
0001
0100
,
0010
1000
0100
0010
,
0001
0000
1000
0000
,
0001
0100
0010
0100
,
0010
0000
1000
0000
,
0100
0010
0001
1000
,
0010
0100
0001
0000
,
0010
0100
1000
0001
,
0010
0001
1000
0000
,
0001
0010
0100
1000
,
0001
0100
0010
1000
,
0100
0010
0100
0010
,
0001
0010
0001
0000
,
1000
0001
1000
0000
,
0010
1000
0010
0000
,
1000
0001
1000
0000
,
0001
0100
0001
0000
,
1000
0000
0100
0000
,
0010
0000
0001
0000
,
1000
0100
0010
0001
,
0010
0100
1000
0001
,
0100
0010
1000
0100
,
0010
0001
1000
0100
,
0010
0100
1000
0001
,
0010
0100
0010
0001
,
1000
0010
0100
0001
,
0010
0100
1000
0100
,
0010
0001
0100
0010
,
1000
0100
1000
0001
,
0010
0001
1000
0010
,
1000
0001
0100
0001
,
1000
0100
0010
0001
,
0010
0100
1000
0001
,
0100
0010
1000
0100
,
0010
0001
1000
0010
,
2002
0000
3003
0000
;

//---------------dance-single - Renard----------------
#NOTES:
     dance-single:
     Renard:
     Easy:
     4:
     0.357,0.511,0.068,0.023,0.000: // measure 1
0000
0000
0000
0000
,  // measure 2
0000
0000
0000
0000
,  // measure 3
1000
1000
0001
0001
,  // measure 4
0100
0100
0010
0010
,  // measure 5
1000
0000
0010
0000
,  // measure 6
1010
0000
0000
0000
,  // measure 7
1000
0000
0010
0000
,  // measure 8
0100
0000
0001
0000
,  // measure 9
0010
0000
0001
0000
,  // measure 10
0011
0000
0000
0000
,  // measure 11
0010
0000
0100
0000
,  // measure 12
1000
0000
0001
0000
,  // measure 13
0100
0000
0010
0000
,  // measure 14
0110
0000
0000
0000
,  // measure 15
0010
0000
0000
0000
,  // measure 16
1000
0000
0001
0000
,  // measure 17
1000
0000
0100
0000
,  // measure 18
1100
0000
0000
0000
,  // measure 19
1000
0000
0100
0000
,  // measure 20
0010
0000
0001
0000
,  // measure 21
1000
0000
1000
0000
,  // measure 22
0001
0000
0001
0000
,  // measure 23
0100
0000
0100
0000
,  // measure 24
0010
0000
0010
0000
,  // measure 25
1000
0000
1000
0000
,  // measure 26
0100
0000
0100
0000
,  // measure 27
0010
0000
0010
0000
,  // measure 28
0001
0000
0001
1000
,  // measure 29
0001
0000
0001
0000
,  // measure 30
0010
0000
0010
0000
,  // measure 31
0100
0000
0100
0000
,  // measure 32
1000
0000
1000
0000
,  // measure 33
0010
0000
0010
0000
,  // measure 34
0100
0000
0100
0000
,  // measure 35
0001
0000
0001
0000
,  // measure 36
0000
1000
0000
0001
,  // measure 37
1000
0000
1000
0000
,  // measure 38
0001
0000
0001
0000
,  // measure 39
0100
0000
0100
0000
,  // measure 40
0010
0000
0010
0000
,  // measure 41
1000
0000
1000
0000
,  // measure 42
0100
0100
0100
0000
,  // measure 43
0010
0000
0010
0000
,  // measure 44
0001
0001
0001
0000
,  // measure 45
1000
0000
0010
0000
,  // measure 46
0100
0000
0001
0000
,  // measure 47
0010
0000
0100
0000
,  // measure 48
1000
0000
0001
0000
,  // measure 49
0100
0000
0100
0000
,  // measure 50
0010
0010
0010
0000
,  // measure 51
1000
0000
1000
0000
,  // measure 52
0100
0000
0100
0000
,  // measure 53
0010
0000
0010
0000
,  // measure 54
0010
0000
0010
0000
,  // measure 55
0000
0000
0001
0000
,  // measure 56
1000
0000
0001
0000
,  // measure 57
1000
0000
0010
0000
,  // measure 58
0100
0000
0001
0000
,  // measure 59
0000
0000
1000
0000
,  // measure 60
0001
0000
1000
0000
,  // measure 61
0001
0000
0001
0000
,  // measure 62
1000
0000
1000
0000
,  // measure 63
0001
0000
0001
0000
,  // measure 64
1000
0000
1000
0000
,  // measure 65
0010
0000
0100
0000
,  // measure 66
0001
0000
0010
0000
,  // measure 67
0100
0000
1000
0000
,  // measure 68
0001
0000
1001
0000
,  // measure 69
1000
0000
0100
0000
,  // measure 70
0010
0001
0010
0100
,  // measure 71
1000
0000
0100
0000
,  // measure 72
1000
0000
0000
0000
,  // measure 73
0001
0000
0010
0000
,  // measure 74
0100
1000
0100
0010
,  // measure 75
0001
0000
1000
0000
,  // measure 76
0001
0000
0100
0000
,  // measure 77
0010
0000
1000
0000
,  // measure 78
0010
0100
0001
0100
,  // measure 79
0010
0000
1000
0000
,  // measure 80
0010
0000
0100
0000
,  // measure 81
0001
0000
1000
0000
,  // measure 82
0100
1000
0001
1000
,  // measure 83
0100
0000
1000
0000
,  // measure 84
0001
0000
0010
0000
,  // measure 85
0001
0000
1000
0000
,  // measure 86
0010
0100
0001
0100
,  // measure 87
0010
0000
1000
0000
,  // measure 88
0010
0000
1000
0000
,  // measure 89
0100
0000
0010
0000
,  // measure 90
0001
0010
0100
1000
,  // measure 91
0001
0000
0100
0000
,  // measure 92
0010
0000
1000
0000
,  // measure 93
0001
0000
1000
0000
,  // measure 94
0100
0000
0010
0001
,  // measure 95
0010
0000
0001
0000
,  // measure 96
1000
0000
0010
0100
,  // measure 97
0010
0000
1000
0000
,  // measure 98
0100
0000
0010
0001
,  // measure 99
0010
0000
0100
0000
,  // measure 100
1000
0001
0100
0000
,  // measure 101
2002
0000
3003
0000
;
