#TITLE:On and On;
#SUBTITLE:;
#ARTIST:Brisk;
#TITLETRANSLIT:;
#SUBTITLETRANSLIT:;
#ARTISTTRANSLIT:;
#CREDIT:;
#BANNER:on.png;
#BACKGROUND:on-bg.png;
#LYRICSPATH:;
#CDTITLE:;
#MUSIC:on.ogg;
#OFFSET:0.000;
#SAMPLESTART:44.612;
#SAMPLELENGTH:12.000;
#SELECTABLE:YES;
#BPMS:0.000=172.075;
#STOPS:192.000=0.015
;
#BGCHANGES:;

//---------------dance-single - Renard----------------
#NOTES:
     dance-single:
     Renard:
     Challenge:
     11:
     0.933,0.868,0.098,0.022,0.797:
0000
0000
0000
0000
,
0000
0000
0000
0000
,
0000
0000
0000
0000
,
0000
0000
0000
0000
,
1000
0000
0001
0000
0100
0000
0010
1000
0000
0001
0000
1000
0000
0001
0100
0010
,
1000
0000
0001
0000
1000
0000
0100
1000
0000
0001
0000
0010
0000
0100
1000
0001
,
0010
0000
0001
0000
1000
0000
0100
1000
0000
0010
0000
0100
0000
0001
1000
0010
,
0100
0000
0001
0000
1000
0000
0001
0100
0202
0000
0000
0003
0310
0000
0000
0000
,
0001
0000
0100
0000
0010
0000
1000
0000
0100
0000
0010
0000
0001
0010
0100
0000
,
1000
0000
0010
0000
0100
0000
0001
0000
0100
0000
0010
0000
1000
0010
0100
0000
,
0001
0000
0100
0000
0010
0000
1000
0000
0100
0000
0010
0000
0001
0010
0100
0000
,
1000
0000
0001
0000
0010
0000
0100
0000
1000
0000
0010
0000
0100
0010
0100
0000
,
0010
0000
1000
0000
0001
0000
0100
0000
0010
0000
1000
0000
0001
1000
0001
0000
,
1000
0000
0100
0000
0010
0000
0001
0000
0010
0000
0100
0000
1000
0001
1000
0000
,
0010
0000
0100
0000
0001
0000
0100
0000
0010
0000
1000
0000
0010
0100
0001
0000
,
0001
0100
0010
0000
1000
0000
0010
0100
0001
0000
0100
0000
0110
0000
1001
0000
,
0001
0000
0100
0000
0010
0000
1000
0000
0010
0000
0100
0000
0001
0100
0010
0000
,
1000
0000
0100
0000
0010
0000
0001
0000
0010
0000
0100
0000
1000
0001
0010
0000
,
0100
0000
1000
0000
0001
0000
0100
0000
0010
0000
1000
0000
0001
0100
0010
0000
,
1000
0000
0001
0000
1000
0000
0100
0000
0010
0000
0001
0000
0010
0100
1000
0000
,
0001
0000
1000
0000
0010
0000
0100
0000
0001
0000
0100
0000
0010
1000
0010
0000
,
0100
0000
0001
0000
0100
0000
0010
0000
1000
0000
0100
0000
0010
0001
0010
0000
,
0100
0000
0010
0000
0001
0000
1000
0000
0010
0000
0100
0000
0001
0100
0010
0000
,
1000
0010
0100
0001
1000
0010
0100
0001
1000
0000
0010
0000
0101
0000
1010
0000
,
1001
0000
0100
0000
0010
0000
1000
0010
0000
0010
0100
0000
0001
0000
1000
0001
,
1000
0000
0010
0000
0010
0000
0100
0001
0000
1000
0010
0000
0100
0000
0001
0100
,
0001
0000
0100
0000
0010
0000
1000
0010
0000
0100
0001
0000
0100
0000
0010
1000
,
0001
0000
0100
0000
0010
0000
1000
0100
0000
0010
0001
0000
0010
0000
0100
1000
,
0001
0000
0010
0000
0100
0000
1000
0001
0000
0100
0010
0000
1000
0000
0001
0100
,
0010
0000
1000
0000
0001
0000
0100
0010
0000
1000
0001
0000
0100
0000
0001
1000
,
0100
0000
0010
0000
0001
0000
0010
0100
0000
1000
0001
0000
0010
0000
0100
1000
,
0001
0000
0100
0000
0010
0000
1000
0001
0000
0100
0010
0000
1000
0000
0001
0000
,
1000
0000
0100
0000
0010
0000
0001
0010
0000
0100
1000
0000
0010
0000
0100
0000
,
0001
0000
0100
0000
0010
0000
1000
0010
0000
0100
0001
0000
0100
0000
0010
1000
,
0001
0000
0100
0000
0010
0000
1000
0100
0000
0010
0001
0000
0010
0000
0100
1000
,
0001
0000
0010
0000
0100
0000
1000
0001
0000
1000
0010
0000
0100
0000
0001
0100
,
0010
0000
1000
0000
0010
0000
0100
0001
0000
0100
0010
0000
1000
0000
0001
0100
,
0010
0000
1000
0000
0001
0000
0100
0010
0000
1000
0001
0000
0100
0000
0010
1000
,
0001
0000
1000
0000
0010
0000
0100
0001
0000
0100
0010
1000
0001
0100
0010
1000
,
0001
0000
0001
0000
1000
0000
1000
0000
0001
0100
0010
1000
0001
0100
0010
1000
,
0001
0100
0010
1000
0100
0010
0001
0010
0100
0000
1000
0000
0001
0000
0100
0000
,
0010
1000
0001
0100
0010
1000
0001
0100
0010
0000
1000
0000
0100
0000
0010
0000
,
0001
0010
0100
1000
0001
0010
0100
1000
0001
0000
1000
0000
0010
0000
0100
0000
,
0001
0100
0010
1000
0001
0000
0100
0000
0010
1000
0001
0100
0010
0000
1000
0000
,
0001
0100
0010
1000
0100
0010
0001
0010
0100
0000
1000
0000
0001
0000
0010
0000
,
0100
1000
0001
1000
0010
0100
0001
0100
0010
0000
1000
0000
0001
0000
0100
0000
,
0010
1000
0001
0100
0010
1000
0100
0010
0001
0000
0010
0000
0100
0000
1000
0000
,
0001
0000
0010
0100
1000
0000
0001
0100
0010
0000
1000
0000
0001
0100
0010
1000
,
0001
0000
0100
0000
0010
0000
1000
0000
0001
0000
0010
0000
0100
1000
0001
0000
,
0010
0000
0100
0000
1000
0000
0001
0000
0100
0000
0010
0000
1000
0010
1000
0000
,
0001
0000
0100
0000
0010
0000
1000
0000
0100
0000
0010
0000
0001
0010
0100
0000
,
1000
0000
0001
0000
0010
0000
0100
0000
1000
0000
0001
0000
0100
0010
1000
0000
,
0010
0000
0100
0000
0001
0000
0100
0000
0010
0000
1000
0000
0001
0100
0010
0000
,
1000
0000
0010
0000
0100
0000
0001
0000
1000
0000
0100
0000
0010
0001
0010
0000
,
0100
0000
1000
0000
0001
0000
0100
0000
0010
0000
1000
0000
0010
1000
0010
0000
,
0101
0000
0000
0000
0000
0000
0000
0000
0001
0000
0100
0000
0010
1000
0010
0100
,
0110
0000
0001
0000
0100
0000
0010
1000
0000
0010
0100
0000
0001
0000
0100
0000
,
0010
0000
1000
0000
0010
0000
0100
0001
0000
0100
0010
0000
1000
0000
0100
0010
,
0001
0000
0010
0000
0100
0000
1000
0001
0000
0010
0100
0000
1000
0000
0001
1000
,
0010
0000
0100
0000
0001
0000
1000
0010
0000
0100
0001
0000
1000
0000
0010
0000
,
0100
0000
0001
0000
1000
0000
0010
0100
0000
0001
0100
0000
0010
0000
1000
0001
,
0100
0000
0010
0000
1000
0000
0001
0100
0000
0010
1000
0000
0100
0000
0010
0001
,
0010
0000
0100
0000
1000
0000
0001
0010
0000
0100
1000
0000
0001
0000
1000
0010
,
0100
0000
0001
0000
1000
0000
0010
0100
0000
0001
1000
0000
0010
0000
0100
0000
,
1001
0000
0000
0000
;

//---------------dance-single - Renard----------------
#NOTES:
     dance-single:
     Renard:
     Hard:
     8:
     0.559,0.590,0.011,0.000,0.000:
0000
0000
0000
0000
,
0000
0000
0000
0000
,
0000
0000
0000
0000
,
0000
0000
0000
0000
,
1000
1000
0001
0001
,
1000
1000
0001
0001
,
1000
0001
1000
0001
,
1000
0001
1000
0001
1000
0001
1000
0000
,
0001
0010
0100
1000
0010
0100
0001
0010
,
0100
1000
0010
0100
0001
0010
0100
1000
,
0100
0010
0001
0100
0010
1000
0100
0010
,
0001
0100
0010
1000
0100
0010
0001
1000
,
0001
0010
0100
1000
0010
0100
0001
0010
,
0100
1000
0010
0100
0001
0010
0100
1000
,
0100
1000
0100
0010
0001
0100
0010
1000
,
0100
0010
0001
1000
0001
0001
0001
0001
,
1000
0000
1000
0000
0100
0010
0001
1000
,
0010
0100
0000
0100
0000
0001
0010
0100
,
1000
0000
1000
0000
0010
0100
0001
0010
,
0100
1000
0000
1000
0000
0100
0010
0001
,
1000
0010
0000
0010
0000
0100
0001
0010
,
0100
0000
0100
0000
1000
0000
0001
0010
,
0100
1000
0000
1000
0010
0100
0001
0010
,
0100
1000
0100
0010
0001
0001
0001
0001
,
0010
0000
0010
0100
0000
0000
0000
0000
,
1000
0000
1000
0010
0000
0000
0000
0000
,
0100
0000
0100
0001
0000
0010
0100
1000
,
0000
0000
0010
0100
0000
0000
0001
0000
,
1000
0000
0100
0010
0000
0000
0000
0000
,
0001
0000
0010
0100
0000
0000
0000
0000
,
1000
0000
0010
0100
0000
0001
1000
0100
,
0000
0000
0010
0001
0000
0000
0010
0000
,
0100
0000
0100
0000
1000
0010
0100
0000
,
0001
0000
0001
0000
0010
0100
0000
0000
,
1000
0000
1000
0000
0010
0100
0001
0000
,
0010
0000
0010
0000
0100
0010
0001
1000
,
0010
0000
0010
0000
0100
0001
1000
0000
,
0001
0000
0001
0000
0010
0100
0000
0000
,
1000
0000
1000
0000
0010
0100
0001
0100
,
0010
0000
0000
0000
0010
1000
0100
0010
,
0001
0000
0001
0010
0100
1000
0010
0100
,
0001
0000
0001
0010
0100
1000
0010
0100
,
0001
0000
0001
0010
0100
1000
0010
0100
,
0001
0000
0001
0010
0100
1000
0100
0000
,
1000
0000
1000
0100
0010
0001
0100
0010
,
1000
0000
1000
0100
0010
0001
0100
0010
,
1000
0000
1000
0100
0010
0001
0100
0010
,
1000
0100
1000
0100
0010
0001
0010
0001
,
100M
0000
0010
0100
0001
0010
0100
1000
,
0010
0000
0100
0001
0010
0100
1000
0010
,
0100
0000
0100
0001
0010
0100
1000
0010
,
0100
0000
0100
0001
0010
0100
1000
0010
,
0100
0000
0100
0010
1000
0100
0010
0001
,
0100
0000
0100
0001
0010
0100
1000
0010
,
0100
0000
0100
0010
1000
0100
0010
0001
,
0010
0000
0010
0001
0010
0100
1000
0010
,
0100
0000
0100
0000
0010
1000
0100
0010
,
0001
0000
0001
0000
0010
0100
1000
0000
,
0010
0000
0010
0000
0100
0001
0100
0010
,
1000
1000
0010
0010
,
0100
0000
0100
0000
0001
1000
0100
0010
,
0001
0000
0001
0000
0010
0100
0010
0000
,
0100
0000
0100
0000
1000
0010
0100
0001
,
0010
0000
0010
0000
0001
1000
0010
0100
,
1001
0000
0000
0000
;

//---------------dance-single - Renard----------------
#NOTES:
     dance-single:
     Renard:
     Medium:
     6:
     0.404,0.486,0.011,0.000,0.000:
0000
0000
0000
0000
,
0000
0000
0000
0000
,
0000
0000
0000
0000
,
0000
0000
0000
0000
,
1000
0001
1000
0001
,
1000
0001
1000
0001
,
0100
0010
0100
0010
,
1000
0100
0010
0001
1000
0000
0001
0000
,
1000
0000
1000
0000
0001
1000
0001
0000
,
1000
0000
1000
0000
0001
1000
0001
0000
,
1000
0000
1000
0000
0001
1000
0001
0000
,
1000
1000
0001
0000
,
0001
0000
0001
0000
1000
0001
1000
0000
,
0001
0000
0001
0000
1000
0001
1000
0000
,
0001
1000
0001
1000
,
0001
0001
0001
0001
0001
0001
0001
0000
,
1000
0001
1000
0001
,
0100
0010
0100
0010
,
1000
0001
1000
0001
,
0100
0010
0100
0010
,
1000
0001
0100
0010
,
1000
0001
1000
0001
,
0010
0100
1000
0001
,
0100
0100
0100
0100
0100
0100
0100
0100
,
0010
0000
0010
0010
0000
0000
0000
0000
,
1000
0000
1000
1000
0000
0000
0000
0000
,
0001
0000
0001
0001
0000
0000
0000
0000
,
0100
0100
0010
0010
,
1000
0000
1000
1000
0000
0000
0000
0000
,
0001
0000
0001
0001
0000
0000
0000
0000
,
0010
0000
0010
0010
0000
0000
0000
0000
,
0100
0100
1000
1000
,
0010
0000
0010
0010
0000
0000
0100
0000
,
0001
0000
0001
0001
0000
0000
0010
0000
,
0100
0000
0100
0100
0000
0000
1000
0000
,
0010
0100
0001
0010
,
0100
0000
0100
0100
0000
0000
1000
0000
,
0010
0000
0010
0010
0000
0000
0100
0000
,
0001
0000
0001
0001
0000
0010
0100
1000
,
0100
0000
0000
0000
0010
0001
1000
0010
,
0100
0000
0100
0010
0000
0010
1000
0000
,
0100
0000
0100
0010
0000
0010
0001
0000
,
1000
0000
1000
0001
0000
0001
0010
0000
,
0100
1000
0100
0000
,
0010
0000
0010
0001
0000
0000
1000
0000
,
0010
0000
0010
0100
0000
0000
0001
0000
,
1000
0000
1000
0001
0000
0000
0010
0000
,
0100
1000
0100
0010
,
0001
0000
0001
0010
0000
0000
0100
0000
,
1000
0000
1000
0010
0000
0000
0100
0000
,
0001
0000
0001
0010
0000
0000
0100
0000
,
1000
0000
0010
0000
0100
0001
0100
0010
,
1000
0000
1000
0010
0000
0000
0100
0000
,
0001
0000
0001
1000
0000
0000
0100
0000
,
0010
0000
0010
0001
0000
0010
0100
1000
,
0001
0000
0010
0100
1000
0010
0100
0001
,
1000
1000
0001
0001
,
1000
1000
0001
0001
,
1000
1000
0001
0001
,
1000
1000
0001
0001
,
0100
0100
0010
0010
,
0100
0100
0010
0010
,
1000
1000
0001
0001
,
0010
0100
1000
0001
,
1001
0000
0000
0000
;

//---------------dance-single - Renard----------------
#NOTES:
     dance-single:
     Renard:
     Easy:
     2:
     0.380,0.382,0.119,0.412,0.000: // measure 1
0000
0000
0000
0000
,  // measure 2
0000
0000
0000
0000
,  // measure 3
0000
0000
0000
0000
,  // measure 4
0000
0000
0000
0000
,  // measure 5
1000
0000
1000
0001
,  // measure 6
1000
0000
0001
1000
,  // measure 7
0001
0000
0001
1000
,  // measure 8
0001
1000
0001
0000
,  // measure 9
2000
3001
0100
0010
,  // measure 10
2000
3001
0100
0010
,  // measure 11
2000
3001
0100
0010
,  // measure 12
2000
3001
0100
0010
,  // measure 13
2000
3001
0100
0010
,  // measure 14
2000
3001
0100
0010
,  // measure 15
2000
3001
0100
0010
,  // measure 16
1000
1000
1000
1000
,  // measure 17
0002
0013
0100
1000
,  // measure 18
0002
0013
0100
1000
,  // measure 19
0002
0013
0100
1000
,  // measure 20
0002
0013
0100
1000
,  // measure 21
0002
0013
0100
1000
,  // measure 22
0002
0013
0100
1000
,  // measure 23
0002
0013
0100
1000
,  // measure 24
0001
0100
0010
0010
,  // measure 25
2000
0000
3020
0000
,  // measure 26
0230
0000
0302
0000
,  // measure 27
2003
0000
3200
0000
,  // measure 28
0320
0000
0000
0000
,  // measure 29
0032
0000
2003
0000
,  // measure 30
3020
0000
0230
0000
,  // measure 31
0302
0000
2003
0000
,  // measure 32
3200
0000
0000
0000
,  // measure 33
0310
0010
0020
0000
,  // measure 34
0031
0001
0002
0000
,  // measure 35
1003
1000
2000
0000
,  // measure 36
3200
0000
2300
0000
,  // measure 37
3010
0010
0020
0000
,  // measure 38
0130
0100
0200
0000
,  // measure 39
0301
0001
0002
0000
,  // measure 40
2000
0000
0000
3003
,  // measure 41
1000
0001
1001
0000
,  // measure 42
0001
1000
1001
0000
,  // measure 43
1000
0001
1001
0000
,  // measure 44
0001
1000
1001
1001
,  // measure 45
0010
0100
0110
0000
,  // measure 46
0100
0010
0110
0000
,  // measure 47
0010
0100
0110
0000
,  // measure 48
0100
0010
0110
0110
,  // measure 49
0010
0100
0001
1000
,  // measure 50
0001
1000
0001
0000
,  // measure 51
1000
0001
0100
0010
,  // measure 52
0100
0010
0100
0000
,  // measure 53
0010
0100
0001
1000
,  // measure 54
0001
1000
0001
0000
,  // measure 55
1000
0100
0010
0001
,  // measure 56
2000
0000
0000
0000
,  // measure 57
3001
0001
0001
0001
,  // measure 58
1000
1000
1000
1000
,  // measure 59
0001
0001
0001
0001
,  // measure 60
1000
0001
1000
0001
,  // measure 61
1000
1000
1000
1000
,  // measure 62
0001
0001
0001
1000
,  // measure 63
0010
0010
0100
0100
,  // measure 64
0001
1000
0100
0010
,  // measure 65
1001
0000
0000
0000
;
