#TITLE:Omen;
#SUBTITLE:;
#ARTIST:Kettu feat Sonitus Vir;
#TITLETRANSLIT:;
#SUBTITLETRANSLIT:;
#ARTISTTRANSLIT:;
#CREDIT:;
#BANNER:omen.png;
#BACKGROUND:omen-bg.png;
#LYRICSPATH:;
#CDTITLE:;
#MUSIC:omen.ogg;
#OFFSET:0.000;
#SAMPLESTART:60.080;
#SAMPLELENGTH:12.000;
#SELECTABLE:YES;
#BPMS:0.000=175.000,112.000=10.938,115.750=174.995;
#STOPS:115.750=1.283
;
#BGCHANGES:;

//---------------dance-single - Renard----------------
#NOTES:
     dance-single:
     Renard:
     Challenge:
     12:
     0.843,1.000,0.607,0.065,0.542:
0000
0000
0000
0000
,
0000
0000
0000
0000
,
0000
0000
0000
0000
,
0000
0000
0000
0000
,
1000
0100
0100
0001
0100
0100
1000
0100
,
0001
0100
0100
1000
0100
0100
0001
0100
,
0001
0100
0100
1000
0100
0100
0001
0100
,
1000
0000
0100
0000
0010
0001
1000
0001
1000
0000
0001
0000
1001
0000
0000
0000
,
1000
0000
0010
0000
1010
0000
0010
0100
0001
0010
0100
0000
0110
0000
0000
0000
,
0100
0000
1000
0000
1010
0000
0010
0100
0001
0010
0100
0000
0011
0000
0000
0000
,
0010
0000
0100
0000
1100
0000
1000
0001
0100
0010
1000
0000
1001
0000
0000
0000
,
1000
0000
0010
0000
0110
0000
0010
0100
0001
0010
0100
0000
0110
0000
0000
0000
,
0100
0000
1000
0000
1001
0000
1000
0010
0100
0001
1000
0000
1010
0000
0001
0000
,
1000
0000
0001
0000
0101
0000
0010
0100
1000
0010
0100
0000
0110
0000
0001
0000
,
0100
0000
0010
0000
1010
0000
0010
0100
0001
0010
0001
0000
0011
0000
0010
0100
,
1000
0000
0001
0000
0101
0000
0001
0100
0010
1000
0010
0000
1001
0000
0001
0100
,
0001
0100
0010
0000
0110
0000
0010
1000
0100
0010
0001
0000
0011
0000
0011
0000
,
0100
1000
0001
0000
1001
0000
1000
0010
0100
0001
0100
0000
1010
0000
1001
0000
,
1000
0100
0010
0000
0011
0000
0010
0100
1000
0001
1000
0000
0110
0000
1001
0000
,
0001
0100
0010
0000
1010
0000
0001
0100
0001
1000
0100
0000
0110
0000
1100
0000
,
0001
0100
0001
0000
0101
0000
0001
1000
0100
0010
0001
0000
0011
0000
1100
0000
,
0001
0100
0010
0000
1010
0000
0001
0100
0010
1000
0001
0000
0101
0000
1010
0000
,
1000
0100
0010
0000
0011
0000
0010
0100
1000
0001
0100
0000
0101
0000
1010
0000
,
0001
0100
0010
0000
0110
0000
0010
1000
0010
0100
0001
0000
0101
0000
1010
0000
,
0101
0000
0000
0000
0110
0000
0010
0000
1000
0000
0100
0000
0010
0001
1000
0000
,
1010
0010
0110
0100
0101
0000
1001
0000
,
0001
0100
0010
1000
0001
0000
1000
0010
0100
0001
1000
0000
1001
0000
0000
0000
,
2000
0000
0001
0001
3010
0000
0101
0000
,
1000
0000
0000
0000
0000
0000
0001
0000
0000
0100
0000
0000
0001
0000
0000
0000
0000
0000
1000
0000
0000
0100
0000
0000
1000
0000
0000
0000
0000
0000
0001
0000
0000
0000
0000
0000
0100
0000
0000
0000
0000
0000
0010
0000
0000
0000
0000
0000
1000
0000
0000
0000
0000
0000
0100
0000
0000
0010
0000
0000
0001
0000
0000
0000
0000
0000
0010
0000
0000
0100
0000
0000
1000
0000
0000
0000
0000
0000
0001
0000
0000
0000
0000
0000
0100
0000
0000
0001
0000
0000
1000
0001
0000
1000
0000
0000
0001
0100
0000
0001
0000
0000
0101
0000
0000
0000
0000
0000
1000
0000
0000
0100
0000
0000
1100
0000
0000
0000
0000
0000
1000
0010
0000
1000
0000
0000
1010
0000
0000
0000
0000
0000
0001
0000
0000
0010
0000
0000
0011
0000
0000
0000
0000
0000
1000
0001
0000
0100
0000
0000
0010
0000
0000
0000
0000
0000
1000
0100
0000
0010
0000
0000
0002
0000
0000
0200
0000
0000
2020
0000
0000
0000
0000
0000
0000
0000
0000
0000
0000
0000
3333
0000
0000
0000
0000
0000
0000
0000
0000
0000
0000
0000
,
0001
0000
0100
0000
0010
0000
1000
0100
1000
0000
0100
0000
0010
0000
0001
0000
,
1000
0000
0001
0100
0001
0000
0100
0010
0100
0000
0010
0000
1000
0000
0100
0000
,
0010
0001
0011
0010
0100
1000
1100
1000
,
0010
0100
0101
0010
1000
0100
1100
1000
,
0010
0000
0100
0001
0100
0000
0010
1000
0010
0000
1000
0000
0100
0000
0010
0000
,
0001
0000
0010
0100
1000
0000
0001
0010
0100
0000
1000
0000
0010
0000
0100
0000
,
0001
0100
0010
1000
0001
0000
0100
0000
0010
1000
0001
1000
0100
0000
1000
0000
,
0001
0010
0100
1000
0001
0100
0010
1000
0001
0000
0100
0000
1010
0000
0000
0000
,
1000
0010
0101
0010
0100
1000
1001
1000
,
0010
0100
0101
0010
1000
0100
0010
0001
,
0010
0000
0100
1000
0100
0000
1000
0001
1000
0000
0010
0000
0100
0000
0001
0000
,
0100
0010
1010
1000
0001
0100
0110
0010
,
1000
0000
0100
0000
0110
0000
0010
0000
0001
0000
0010
0100
0010
0000
0001
0010
,
0100
0000
1000
0000
0001
0000
1000
0000
0010
0000
0100
0000
0001
0000
0100
0010
,
1000
0000
0001
0100
0010
0000
1000
0100
0010
0000
0001
0010
0100
0000
1000
0001
,
1000
0010
0100
0001
1000
0000
0010
0000
0100
0001
1000
0010
0100
0000
0001
0000
,
1000
0010
0100
0001
0010
1000
0010
0100
,
1000
0100
0001
0100
1000
0010
0001
0010
,
0100
1000
0100
0001
0010
0100
0010
1000
,
0010
0001
0010
0001
0100
1000
0100
1000
,
0100
0001
0010
0100
1000
0100
0001
0100
,
1000
0010
0100
0010
1000
0100
0010
0001
,
0010
0100
0001
0100
0010
0001
0100
0010
,
1000
0100
0010
1000
0010
0100
1000
0010
,
0100
0001
0100
0010
1000
0100
0010
0001
,
0010
0100
1000
0010
0001
0010
0100
1000
,
0100
0001
0010
0100
0001
0100
0010
0001
,
0100
0010
1000
0100
0010
1000
0010
0100
,
1000
0010
0100
0001
0100
1000
0100
0001
,
0100
1000
0100
0001
0010
1000
0010
0001
,
0010
0100
1000
0010
0001
0010
0100
1000
,
0100
0001
0100
0010
1000
0100
0010
0002
,
2000
0000
0000
0000
0000
3003
0000
0000
;

//---------------dance-single - Renard----------------
#NOTES:
     dance-single:
     Renard:
     Hard:
     8:
     0.561,1.000,0.177,0.028,0.201:
0000
0000
0000
0000
,
0000
0000
0000
0000
,
0000
0000
0000
0000
,
0000
0000
0000
0000
,
1000
0001
0100
0000
0001
0000
1000
0000
,
0100
0010
0000
0110
0000
0010
0001
1000
,
0010
0100
0001
0000
0101
0000
1001
0000
,
1000
0100
0000
0110
0000
0010
0001
0000
,
1000
0001
0100
0000
0010
1000
0100
0000
,
0010
0001
1000
0010
0100
0001
0010
0000
,
0100
1000
0010
0000
0100
0001
0010
0000
,
0001
0010
0100
1000
0010
0100
0001
0000
,
1000
0100
0010
0000
0010
0100
1000
0000
,
0001
0010
0100
0100
0010
0001
0100
0000
,
0010
1000
0010
0000
0100
0001
0010
0000
,
0100
1000
0100
0010
0001
0100
0010
0000
,
1000
0100
0010
0001
0010
0100
1000
0100
,
0010
0001
0100
0010
1000
0100
0010
0100
,
1000
0001
0010
0100
0010
0001
1000
0010
,
0100
0001
0010
0100
1000
0010
1000
0000
,
0010
1000
0001
0100
0010
1000
0100
0010
,
0100
1000
0001
0010
0100
0010
0001
1000
,
0010
0100
0001
0010
0100
1000
0100
0010
,
0001
0100
0010
1000
0100
0010
0001
0010
,
0100
0000
0100
1000
0010
0100
0001
0010
,
0001
0000
0001
1000
0010
0000
0010
0000
,
0100
0001
1000
0100
0010
0001
0010
0000
,
0010
0000
0100
1000
0010
0000
0100
0000
,
0001
1000
0100
0010
0001
1000
1010
0000
1000
0001
0100
0010
2000
3100
1100
0000
1000
0100
0010
0001
1000
0010
0110
0000
0100
0001
0010
0100
1000
0001
0101
0000
0001
1000
0100
0010
0001
1000
1010
0000
1000
0001
0010
0100
1000
0001
0101
0000
0001
1000
0100
0010
0001
1000
1010
0000
2002
0000
0000
0000
3013
0000
0000
0000
,
0000
0000
0000
0110
,
0100
1000
0010
0100
0001
1000
1100
0000
,
1000
0100
0010
0001
1000
0010
1010
0000
,
1000
0010
0100
0001
0010
0001
0011
0000
,
0001
0010
0100
1000
0010
0100
0101
0000
,
0001
1000
0100
0010
0001
1000
1001
0000
,
0001
0100
0010
1000
0100
0010
0110
0000
,
0010
0001
1000
0010
0100
0001
1000
0000
,
0100
0010
0001
1000
0010
0100
0001
0000
,
0001
1000
0100
0010
0001
1000
0010
0100
,
0001
1000
0100
0010
0001
1000
0010
0000
,
0010
0100
0001
0010
0100
1000
0100
0010
,
0001
1000
0010
0100
0001
0010
0100
0000
,
0100
0010
0001
1000
0010
0100
0010
1000
,
0100
0010
0001
0010
0100
1000
0001
0000
,
0001
1000
0100
0010
0100
1000
0010
0100
,
0001
0001
0100
0100
,
0010
0000
1000
0100
0010
0000
0100
0000
,
1000
1000
0010
0010
,
0100
0000
0001
1000
0001
0000
1000
0000
,
0010
0010
0100
0100
,
0001
0000
1000
0100
0010
0000
0001
0000
,
0010
0000
0100
0000
1000
0000
0010
0100
,
0001
0000
1000
0000
0100
0000
0010
0001
,
0010
0010
0100
0100
,
1000
0000
1000
0000
0010
0000
0100
0010
,
0100
0100
0001
0001
,
1000
0000
1000
0000
0100
0000
0100
0010
,
0001
0000
0001
0000
1000
0000
1000
0010
,
0100
0000
0100
0000
0001
0000
0001
0010
,
0100
0000
0100
0000
1000
0000
1000
0010
,
0100
0000
0100
0000
0001
0010
0100
1000
,
0001
0000
0000
0000
;

//---------------dance-single - Renard----------------
#NOTES:
     dance-single:
     Renard:
     Medium:
     5:
     0.344,0.712,0.009,0.121,0.019:
0000
0000
0000
0000
,
0000
0000
0000
0000
,
0000
0000
0000
0000
,
0000
0000
0000
0000
,
1000
0000
0100
0000
,
0010
0000
0001
0000
,
1000
0000
0001
0000
,
0100
0010
1000
1000
,
0100
0010
0001
0000
,
0010
0100
0010
0000
,
0100
1000
0100
0000
,
1000
0010
1000
0000
,
0001
0100
0001
0000
,
1000
0100
1000
0000
,
0001
0010
0001
0000
,
1000
0010
1000
0000
,
0001
0100
0001
0100
0001
0000
0100
0000
,
0001
1000
0001
1000
0001
0000
1000
0000
,
0100
1000
0100
1000
0100
0000
1000
0000
,
0001
0010
0001
0010
0001
0000
0010
0000
,
0001
1000
0001
0000
1000
0000
0010
0000
,
1000
0001
1000
0000
0010
0000
1000
0000
,
0001
0100
0001
0000
1000
0100
1000
0000
,
0001
0010
0001
0000
1000
0000
0010
0000
,
0100
0100
0010
0010
,
1000
0010
1000
0010
1000
0000
0010
0000
,
0100
0000
0100
0000
0001
0010
0001
0000
,
0020
0000
0130
0000
,
2000
3200
0320
0000
0032
0203
0320
0000
2030
3200
0320
0000
0032
2003
3020
0030
,
0000
0000
0000
0000
,
0100
0010
1000
0100
,
0010
0001
0010
0001
,
1000
0100
1000
0001
,
0100
0010
1000
0100
,
0010
0001
0010
0001
,
1000
0100
0010
0001
,
1000
0000
0010
0000
0100
0001
0100
0000
,
0001
1000
0001
1000
0001
0000
1000
0000
,
0010
0100
0001
1000
,
0100
0010
0100
0010
0100
0000
0010
0000
,
0001
1000
0010
0100
,
0001
1000
0001
1000
0100
0000
0010
0000
,
0001
1000
0001
0100
,
0010
1000
0010
0000
0100
0001
0100
0000
,
0001
1000
0100
0010
0001
0000
1000
0000
,
0010
0010
0010
0010
,
0010
0010
0010
0010
,
0100
0100
0100
0100
,
0001
0001
0001
0001
,
1000
1000
1000
1000
,
1000
1000
1000
1000
,
0100
0100
0100
0100
,
0010
0010
0010
0010
,
0001
0010
0001
0010
,
0100
1000
0100
1000
,
0001
0010
0001
0010
,
0100
1000
0100
1000
,
0001
0100
0001
0100
,
0010
1000
0010
1000
,
0100
1000
0001
0010
,
0100
1000
0100
0010
,
1001
0000
0000
0000
;

//---------------dance-single - Renard----------------
#NOTES:
     dance-single:
     Renard:
     Easy:
     3:
     0.284,0.399,0.000,0.019,0.000: // measure 1
0000
0000
0000
0000
,  // measure 2
0000
0000
0000
0000
,  // measure 3
0000
0000
0000
0000
,  // measure 4
0000
0000
0000
0000
,  // measure 5
1000
0001
0000
0000
1000
0000
0001
0000
,  // measure 6
0100
0010
0000
0000
0100
0000
0010
0000
,  // measure 7
1000
0001
0000
0000
1000
0000
0001
0000
,  // measure 8
0100
0010
1000
0001
,  // measure 9
1000
0100
1000
0100
,  // measure 10
0010
0001
0010
0001
,  // measure 11
1000
0010
1000
0010
,  // measure 12
0100
0001
0100
0001
,  // measure 13
1000
0100
1000
0100
,  // measure 14
0010
0001
0010
0001
,  // measure 15
1000
0010
1000
0010
,  // measure 16
0100
0001
0100
0001
,  // measure 17
1000
0100
0010
0001
,  // measure 18
1000
0000
0000
0000
0000
0000
0001
1000
,  // measure 19
0001
0010
0100
1000
,  // measure 20
0001
0000
0000
0000
0000
0000
1000
0001
,  // measure 21
1000
0001
0010
0100
,  // measure 22
1000
0000
0000
0000
0000
0000
0001
1000
,  // measure 23
0001
1000
0010
0100
,  // measure 24
0001
0000
0000
1000
,  // measure 25
1000
1000
0001
0001
,  // measure 26
1000
0001
1000
0001
,  // measure 27
1000
0001
1000
0001
1000
0001
1000
0000
,  // measure 28
0001
0000
1000
0000
,  // measure 29
0001
1000
0010
0100
0002
0000
0023
0130
,  // measure 30
0100
1000
0010
0100
,  // measure 31
0001
0100
0010
1000
,  // measure 32
0100
0010
0001
1000
,  // measure 33
0010
0100
0001
0010
,  // measure 34
0100
1000
0100
0010
,  // measure 35
0001
1000
0010
0100
,  // measure 36
0001
1000
0100
1000
,  // measure 37
0001
0010
0001
1000
,  // measure 38
0010
0100
0001
1000
,  // measure 39
0100
1000
0001
0010
,  // measure 40
0001
1000
0010
0100
,  // measure 41
0001
1000
0100
0010
,  // measure 42
0001
0010
0100
1000
,  // measure 43
0001
0010
0100
1000
,  // measure 44
0001
0100
0010
1000
,  // measure 45
0100
0010
0001
1000
,  // measure 46
0001
0001
1000
1000
,  // measure 47
0001
0001
1000
0000
,  // measure 48
0001
0001
1000
1000
,  // measure 49
0001
0001
1000
0000
,  // measure 50
0001
0001
1000
1000
,  // measure 51
0001
0001
1000
0000
,  // measure 52
0001
0001
1000
1000
,  // measure 53
0001
1000
0001
0000
,  // measure 54
0100
0000
0100
0000
,  // measure 55
0010
0000
0010
0000
,  // measure 56
0100
0000
0100
0000
,  // measure 57
0010
0100
0010
0100
,  // measure 58
0010
0000
0010
0000
,  // measure 59
0100
0000
0100
0000
,  // measure 60
0001
0000
0001
0000
,  // measure 61
1000
0000
0001
1000
,  // measure 62
0001
0000
0000
0000
;
