#TITLE:Old to the New;
#SUBTITLE:;
#ARTIST:Scott Brown;
#TITLETRANSLIT:;
#SUBTITLETRANSLIT:;
#ARTISTTRANSLIT:;
#CREDIT:;
#BANNER:old.png;
#BACKGROUND:old-bg.png;
#LYRICSPATH:;
#CDTITLE:;
#MUSIC:old.ogg;
#OFFSET:0.000;
#SAMPLESTART:62.915;
#SAMPLELENGTH:12.000;
#SELECTABLE:YES;
#BPMS:0.000=175.425,128.000=169.105,132.000=185.285,135.000=175.425;
#STOPS:;
#BGCHANGES:;

//---------------dance-single - Renard----------------
#NOTES:
     dance-single:
     Renard:
     Challenge:
     9:
     0.711,0.730,0.894,0.030,1.000:
0000
0000
0000
0000
,
0000
0000
0000
0000
,
0000
0000
0000
0000
,
0000
0000
0000
0000
,
1100
0000
0000
0011
0000
0001
0101
0000
0110
0000
0000
0000
,
0000
0000
0000
0000
0000
0000
0000
0000
0000
0000
0000
0010
,
1010
0000
0000
0101
0000
1000
1010
0000
1001
0000
0000
0001
,
0100
0000
0000
0010
0000
1000
0010
0000
0000
0000
0000
0000
,
1010
0000
0000
0101
0000
0100
0110
0000
0010
1010
0000
0000
,
1000
0100
0010
0001
,
1100
0000
0000
0110
0000
0010
0011
0000
0001
1001
0000
0000
,
0001
0000
0100
0010
0000
1000
0010
0000
0100
0001
0000
0000
,
0101
0000
0000
0110
0000
0010
1010
0000
1000
1010
0000
0000
,
0010
0000
0000
0100
0000
0000
0001
1000
0100
0010
0000
0010
,
2002
0000
0000
0000
,
0000
0000
0000
0000
0000
0000
0000
0000
0000
0003
3000
0000
,
0101
0000
0000
0110
0000
0010
1010
0000
1000
0100
0000
1000
,
0100
0000
0000
0110
0000
0010
0001
0000
1001
0000
0000
0000
,
0101
0000
0000
0110
0000
1000
0010
0000
1000
0001
0000
0000
,
0101
0000
0000
1001
0000
1000
0100
0000
0010
0000
0000
0000
,
1001
0000
0000
1010
0000
0001
0100
0000
0101
0101
0000
0000
,
0110
0000
0000
1010
0000
1000
0001
0000
1100
0000
0000
0001
,
0010
0000
0000
1100
0000
1000
0010
0000
0100
0001
0000
1000
,
0010
0000
0000
0101
0000
0000
1010
0000
1001
0000
0000
0000
,
1100
0000
0000
0110
0000
0010
0011
0000
0001
0010
0000
0000
,
0110
0000
0000
1100
0000
1000
1001
0000
1001
0000
0000
0000
,
1010
0000
0000
0101
0000
0100
0110
0000
0100
1100
0000
0000
,
0110
0000
0000
0101
0000
0100
0010
0000
1000
0100
0000
0010
,
0011
0000
0000
0110
0000
0100
1100
0000
1000
1000
0000
0000
,
0101
0000
0000
0110
0000
1000
0010
0000
0110
0000
0000
0100
,
0001
0000
0000
0110
0000
0010
1010
0000
1000
1001
0000
0000
,
1100
0000
0000
0010
0001
0010
0100
0000
0000
1001
0000
0000
,
0001
1000
0100
0010
0001
1000
0001
0010
0100
1000
0001
1000
,
0010
0100
0001
1001
0000
0000
0000
0000
0000
0000
0000
0000
,
0000
0000
0000
0000
,
0000
0000
0000
0000
,
0001
0000
0001
1000
0100
0010
0001
0000
0001
0000
0000
0010
,
0100
0000
1000
0000
0000
0001
0100
0000
0010
0000
0000
1000
,
0010
0000
0100
0001
0100
0010
1000
0000
0100
0000
0000
0010
,
0001
0000
0001
0010
0000
0010
0100
0000
0100
1000
0000
1000
,
0001
0000
0100
0010
1000
0001
0100
0000
0010
0000
0000
1000
,
0010
0000
0100
0000
0000
0001
0100
0000
0010
0000
0000
1000
,
0100
0000
0010
0001
0010
0100
1000
0000
0001
0000
0000
1000
,
1000
0000
0010
0000
0000
0100
0100
0001
0000
0000
0000
1000
,
1100
0000
0000
0000
0000
0000
0000
0000
0000
0000
0000
0001
,
0010
0000
0000
0100
0000
1000
0002
0000
0000
0000
0000
0000
,
1003
0000
0010
0110
0000
0100
0101
0000
0001
1000
0000
0100
,
0010
0000
0001
0010
0000
0100
1000
0000
0001
0010
0000
0100
,
1001
0000
1000
1010
0000
0010
0110
0000
0100
0000
0000
0001
,
0100
0000
0010
1000
0000
0100
0010
0000
0001
0010
0000
0100
,
1000
0000
0001
0010
0000
0100
1000
0000
1100
0000
0000
0100
,
0010
0000
0011
0000
0000
0001
1000
0000
1001
0000
0000
0001
,
0100
0000
0100
0010
0000
0010
1000
0000
1010
0000
0000
0010
,
0110
0000
0100
0000
0000
0100
0101
0000
0001
0000
0000
0001
,
1000
0000
1000
0100
0010
0001
0011
0000
0011
0000
0000
0010
,
0100
0000
1000
0000
0000
0001
1000
0000
0010
0000
0000
0100
,
0001
0000
0100
0010
1000
0010
1010
0000
1010
0000
0000
0010
,
1000
0000
0100
0000
0000
0010
0001
0000
0010
0100
0000
1000
,
0001
0000
0010
0001
0010
0100
1000
0000
1100
0000
0000
0100
,
1000
0000
1010
0000
0000
0010
0100
0000
0101
0000
0000
0001
,
0010
0000
0100
1000
0001
0010
0011
0000
0011
0000
0000
0010
,
0100
0000
0110
0000
0000
0100
1000
0000
0001
1000
0000
0001
,
1000
0000
0000
1000
0000
0001
0100
0000
0010
1000
0000
0010
,
0100
0000
0000
0001
0000
0100
0010
0000
1000
0000
0000
0010
,
0100
0000
0001
0100
0000
0010
1000
0000
0001
0100
0000
0010
,
1000
0000
0100
0010
0000
0001
0010
0100
1000
0001
0010
0100
,
1000
0000
1000
0001
0000
0001
0100
0000
0100
0010
0000
0010
,
1000
0000
1000
0010
0000
0010
0100
0000
0101
0000
0000
0100
,
0010
0000
1000
0100
0000
0010
0001
0000
0010
0100
0000
1000
,
0001
0000
0010
0100
1000
0001
0100
0010
1000
0001
0100
0010
,
1001
0000
0000
0000
;

//---------------dance-single - Renard----------------
#NOTES:
     dance-single:
     Renard:
     Hard:
     9:
     0.481,0.556,0.060,0.020,0.676:
0000
0000
0000
0000
,
0000
0000
0000
0000
,
0000
0000
0000
0000
,
0000
0000
0000
0000
,
0001
0000
0000
1000
0000
0001
0100
0000
0010
0000
0000
0000
,
0000
0000
0000
0000
0000
0000
0000
0000
0000
0000
0000
0010
,
1000
0000
0000
0010
0000
0100
0001
0000
0100
0000
0000
0000
,
0000
0000
0000
0000
,
0010
0000
0000
1000
0000
1000
0010
0000
0010
1000
0000
0000
,
0001
0100
0001
0010
,
0100
0000
0000
0010
0000
0001
0010
0000
0001
0010
0000
0000
,
0100
1000
0010
0100
,
0001
0000
0000
0100
0000
0001
0100
0000
0001
1000
0000
0000
,
0100
0010
0001
0010
,
2002
0000
0000
0000
,
0000
0000
0000
3003
,
1000
0000
0000
0001
0000
0001
0100
0000
0100
0010
0000
0000
,
1000
0000
0000
0100
0000
0010
0001
0000
0010
0000
0000
0000
,
0100
0000
0000
1000
0000
1000
0010
0000
0010
0100
0000
0000
,
0001
0000
0000
0100
0000
0010
1000
0000
0100
0010
0000
0000
,
0001
0000
0000
0010
0000
0100
1000
0000
0001
0010
0000
0000
,
0001
0000
0000
1000
0000
0010
0100
0000
0010
0000
0000
0000
,
0100
0000
0000
0001
0000
0000
1000
0000
1000
0100
0000
0100
,
0010
0001
0010
0110
,
0100
0000
0100
1000
0000
1000
0010
0000
0010
0100
0000
0000
,
0001
0000
0001
0100
0000
0100
0010
0000
0000
1000
0000
0000
,
0100
0000
0100
0010
0000
0010
0001
0000
0001
0010
0000
0000
,
0100
0000
1000
0100
0000
1000
0001
0000
1000
0001
0000
0000
,
0100
0000
0100
0010
0000
0010
1000
0000
1000
0010
0000
0000
,
0100
0000
0000
0001
0000
0010
0100
0000
1000
0000
0000
0000
,
0001
0000
0000
0100
0000
0010
1000
0000
0001
0100
0000
0000
,
0010
0000
1000
0100
0000
0000
0011
0000
0000
0010
0000
0000
,
0100
1000
0100
0010
0001
0010
0100
1000
0100
0010
0001
0010
,
0100
1000
0001
0100
0000
0000
0000
0000
0000
0000
0000
0000
,
0000
0000
0000
0000
,
0000
0000
0000
0000
,
0001
0000
0001
0100
0000
0100
0001
0000
0001
0000
0000
0000
,
0100
0000
0010
0000
0000
0000
1000
0000
0010
0000
0000
0000
,
1000
0000
1000
0100
0000
0100
1000
0000
1000
0000
0000
0000
,
0100
0000
1000
0000
0000
0000
0001
0000
0010
0000
0000
0000
,
0001
0000
0001
0100
0000
0100
0010
0000
0010
0000
0000
0000
,
1000
0000
0010
0000
0000
0000
1000
0000
0010
0000
0000
0000
,
0100
0000
0100
0001
0000
0001
1000
0000
1000
0000
0000
0000
,
0100
0000
1000
0000
0000
0000
0001
0000
0010
0001
0000
1000
,
0001
0000
0000
0000
,
0000
0000
0000
0000
,
1000
0000
0000
1000
0100
0010
0001
0000
0001
0000
0000
0000
,
0010
0000
0010
0000
0000
0000
0100
0000
0100
0000
0000
0000
,
1000
0000
0000
1000
0001
0100
0010
0000
0010
0000
0000
0000
,
1000
0000
1000
0000
0000
0000
0010
0000
0010
0000
0000
0000
,
0100
0000
0000
0001
1000
0001
1000
0000
0001
0000
0000
0000
,
1000
0000
0100
0000
0000
0000
0010
0000
0001
0000
0000
0000
,
1000
0000
0000
0010
0100
0001
1000
0000
0001
0000
0000
0000
,
1000
0000
0100
0000
0000
0000
0010
0000
0001
0000
0000
0000
,
1000
0000
0000
0010
1000
0010
1000
0000
0010
0000
0000
0100
,
0001
0000
0100
0000
0000
0001
1000
0000
0001
0000
0000
1000
,
0100
0000
0000
0010
0001
0010
0100
0000
0100
0000
0000
0000
,
1000
0000
0010
0000
0000
0100
0001
0000
0100
0010
0000
1000
,
0001
0000
0000
1000
0100
0010
0001
0000
0001
0000
0000
0010
,
0100
0000
1000
0001
0000
0100
0010
0000
1000
0100
0000
0000
,
0010
0000
0000
0001
0010
0100
1000
0000
0001
0000
0000
0100
,
0010
0000
1000
0000
0000
0010
0100
0000
0001
0100
0000
0010
,
1000
0000
0000
1000
0000
0000
0010
0000
0010
0100
0000
0000
,
0001
0000
0000
0100
0000
0010
1000
0000
0001
0000
0000
0000
,
0100
0000
0000
0001
0000
0001
1000
0000
0100
0010
0000
0000
,
0001
0010
0110
1100
,
1000
0000
0000
0001
0000
0100
0010
0000
0100
0010
0000
0000
,
1000
0000
0000
0010
0000
0100
0001
0000
0100
0000
0000
0000
,
0001
0000
0000
1000
0000
0100
0010
0000
0001
0010
0000
0000
,
0100
1000
0010
0100
,
1001
0000
0000
0000
;

//---------------dance-single - Renard----------------
#NOTES:
     dance-single:
     Renard:
     Medium:
     5:
     0.352,0.417,0.417,0.010,0.000:
0000
0000
0000
0000
,
0000
0000
0000
0000
,
0000
0000
0000
0000
,
0000
0000
0000
0000
,
1000
1000
1000
0000
,
0000
0000
0000
0000
,
0001
0001
0001
0000
,
0000
0000
0000
0000
,
0100
0100
0100
0010
,
0100
0100
0100
0010
,
0100
0100
0100
0010
,
0100
0010
0100
0010
,
1000
1000
1000
0001
,
1000
1000
1000
0001
,
2000
0000
0000
0000
,
0000
0000
0000
0000
,
3001
0101
0101
0101
,
0001
1000
1100
0000
,
1000
0100
1100
1100
,
1000
0001
0101
0000
,
0001
1000
1010
1010
,
1000
0001
0011
0000
,
0001
1000
1010
1010
,
1000
0001
0011
0000
,
0001
1000
0001
0001
,
0100
0010
0100
0100
,
0010
1000
0010
0010
,
1000
0100
0010
0001
,
1000
0001
0010
0010
,
0100
1000
0010
0010
,
0100
0001
1000
1000
,
0100
0010
0001
1000
,
1001
0000
0000
0000
,
0000
0110
0000
0000
,
0000
0000
0000
0000
,
0000
0000
0000
0000
,
0010
0010
0010
0000
,
0100
0000
0001
0000
,
1000
1000
1000
0000
,
0100
0000
0010
0000
,
0001
1000
0010
0000
,
0100
0000
0001
0000
,
1000
0100
0010
0000
,
0011
0000
0110
0000
,
1100
0000
0000
0000
,
0000
0000
0000
0000
,
1000
0001
1001
0010
,
0100
0001
1000
1100
,
1000
0001
0010
0011
,
0001
1000
0010
0100
,
0001
1000
1001
1000
,
0100
0010
0001
1001
,
0001
0100
0010
1010
,
1000
0001
0100
1001
,
1000
0100
0110
0010
,
0001
1000
0110
0000
,
0100
0001
0011
0010
,
0100
1000
1010
0000
,
1000
0010
0110
0100
,
0001
0010
0011
0000
,
0010
0100
0110
0100
,
1000
0010
0100
0100
,
0010
1000
0010
1000
,
0001
0100
1001
1001
,
1000
0100
1000
0100
,
0010
0001
1001
0000
,
0001
0100
0101
0101
,
0100
0010
1010
0000
,
1000
0100
0010
0001
,
1001
1001
0110
0000
,
1001
0000
0000
0000
;

//---------------dance-single - Renard----------------
#NOTES:
     dance-single:
     Renard:
     Easy:
     3:
     0.227,0.278,0.050,0.020,0.000: // measure 1
0000
0000
0000
0000
,  // measure 2
0000
0000
0000
0000
,  // measure 3
0000
0000
0000
0000
,  // measure 4
0000
0000
0000
0000
,  // measure 5
1000
1000
1000
0000
,  // measure 6
0000
0000
0000
0000
,  // measure 7
0001
0001
0001
0000
,  // measure 8
0000
0000
0000
0000
,  // measure 9
1000
1000
1000
0000
,  // measure 10
0001
0001
0001
0000
,  // measure 11
1000
1000
1000
0000
,  // measure 12
0001
1000
0001
0000
,  // measure 13
0001
0001
0001
0000
,  // measure 14
1000
1000
1000
0000
,  // measure 15
2002
0000
0000
0000
,  // measure 16
0000
0000
0000
3003
,  // measure 17
1000
0001
1000
0000
,  // measure 18
0001
1000
0001
0000
,  // measure 19
1000
0001
1000
0000
,  // measure 20
0001
1000
0001
0000
,  // measure 21
0100
0010
0100
0000
,  // measure 22
0010
0100
0010
0000
,  // measure 23
0010
0100
0010
0000
,  // measure 24
0100
0010
0100
0010
,  // measure 25
1000
0000
0001
0000
,  // measure 26
1000
0001
1000
0000
,  // measure 27
0001
0000
0100
0000
,  // measure 28
0001
0000
1000
0000
,  // measure 29
0001
1000
0001
0000
,  // measure 30
0010
0000
0010
0000
,  // measure 31
0001
1000
0001
0000
,  // measure 32
1000
0000
0010
0000
,  // measure 33
1001
0000
0000
0000
,  // measure 34
0000
0110
0000
0000
,  // measure 35
0000
0000
0000
0000
,  // measure 36
0000
0000
0000
0000
,  // measure 37
0010
0000
0010
0000
,  // measure 38
1000
0000
1000
0000
,  // measure 39
0100
0000
0100
0000
,  // measure 40
0010
0000
0010
0000
,  // measure 41
0001
0000
0001
0000
,  // measure 42
0100
0000
0100
0000
,  // measure 43
0010
0000
0010
0000
,  // measure 44
1000
0000
0001
0000
,  // measure 45
1001
0000
0000
0000
,  // measure 46
0000
0000
0000
0000
,  // measure 47
1000
0001
1000
0000
,  // measure 48
0001
0000
1000
0000
,  // measure 49
0001
1000
0001
0000
,  // measure 50
1000
0000
0001
0000
,  // measure 51
1000
0001
1000
0000
,  // measure 52
0001
0000
1000
0000
,  // measure 53
0001
1000
0001
0000
,  // measure 54
1000
0000
0001
0000
,  // measure 55
0100
0010
0100
0000
,  // measure 56
0010
0000
0100
0000
,  // measure 57
0010
0100
0010
0000
,  // measure 58
0100
0000
0010
0000
,  // measure 59
0100
0010
0100
0000
,  // measure 60
0010
0000
0100
0000
,  // measure 61
0010
0100
0010
0000
,  // measure 62
0100
0010
1000
0001
,  // measure 63
1000
1000
1000
0000
,  // measure 64
0001
0000
1000
0000
,  // measure 65
0001
0001
0001
0000
,  // measure 66
1000
0000
0001
0000
,  // measure 67
0100
0001
0100
0000
,  // measure 68
0001
0100
0001
0000
,  // measure 69
1000
0100
1000
0000
,  // measure 70
0100
1000
0001
0000
,  // measure 71
1001
0000
0000
0000
;
