#TITLE:Odysee;
#SUBTITLE:;
#ARTIST:Scarf!;
#TITLETRANSLIT:;
#SUBTITLETRANSLIT:;
#ARTISTTRANSLIT:;
#CREDIT:;
#BANNER:odysee.png;
#BACKGROUND:odysee-bg.png;
#LYRICSPATH:;
#CDTITLE:;
#MUSIC:odysee.ogg;
#OFFSET:0.000;
#SAMPLESTART:59.200;
#SAMPLELENGTH:12.000;
#SELECTABLE:YES;
#BPMS:0.000=150.000;
#STOPS:;
#BGCHANGES:;

//---------------dance-single - Renard----------------
#NOTES:
     dance-single:
     Renard:
     Challenge:
     10:
     0.727,0.882,0.491,0.000,0.464:
0000
0000
0000
0000
,
0000
0000
0000
0000
,
0000
0000
0000
0000
,
0000
0000
0000
0000
,
1000
0000
0000
0000
1000
0000
0000
0000
1000
0000
0000
0000
0001
0100
0001
0100
,
0001
0000
0000
0000
0001
0000
0000
0000
0001
0000
0000
0000
0010
0100
0010
0100
,
0010
0000
0000
0000
0010
0000
0000
0000
0010
0000
0000
0000
0100
1000
0100
1000
,
0100
0000
0000
0000
0100
0000
0100
0000
1000
0010
1000
0000
0010
0000
0010
0000
,
0100
0000
0000
0000
0100
0000
0001
0000
1000
0000
0001
0000
1000
0001
1000
0001
,
1000
0000
0000
0000
1001
0000
0000
0000
0110
0000
0000
0000
0010
1000
0100
0010
,
0001
0000
0000
0000
0011
0000
0000
0000
0110
0000
0000
0000
0100
1000
0010
0100
,
0001
0000
0000
0000
0101
0000
0000
0000
1001
0000
0000
0000
1000
0100
0010
0001
,
1000
0000
1001
0000
0001
0100
0010
1000
,
0100
0000
0000
0000
1100
0000
0000
0000
0011
0000
0000
0000
0001
1000
0010
0100
,
0001
0000
0000
0000
0101
0000
0000
0000
1001
0000
0000
0000
1000
0100
0010
0001
,
1000
0000
0000
0000
1001
0000
0000
0000
1010
0000
0000
0000
0010
1000
0001
0100
,
0010
0000
0000
0000
0110
0000
0000
0000
0010
1000
0100
0000
0010
0000
0001
0000
,
0010
0001
0010
0000
0001
0000
0010
0000
0100
0010
0100
0000
0010
0000
0100
0000
,
1000
0100
1000
0000
0100
0000
1000
0000
0010
0000
0100
0000
0001
0000
0010
0000
,
0001
0000
0000
0000
0001
0000
1000
0001
1000
0000
0001
0000
0100
0000
0010
0000
,
0000
0000
1000
0010
1000
0000
0100
1000
0100
0000
1000
0000
0001
0000
0010
0000
,
0000
0000
0000
0000
0010
0000
0100
1000
0100
0000
1000
0000
0010
0000
0100
0000
,
0000
0000
0001
0100
0001
0000
0100
0001
1000
0000
0001
0000
1000
0000
0100
0000
,
0010
0000
0000
0000
0110
0000
0100
1000
0010
0000
0100
0000
0001
0000
0100
0000
,
0000
0000
0001
1000
0001
0000
1000
0100
0010
0000
0001
0000
0010
0000
0100
0000
,
1000
0000
0000
0000
0001
0000
0100
0001
0100
0000
0001
0000
1000
0000
0100
0000
,
0000
0000
0000
0100
1000
0000
0010
0000
0100
0001
0100
0000
0001
0000
1000
0000
,
0100
0000
0000
0000
1100
0000
1000
0001
0010
0000
0100
0000
1000
0000
0001
0000
,
0100
0000
0000
0000
0101
0000
0001
0100
0010
0000
1000
0000
0100
0000
0000
0000
,
1100
0000
0000
0000
1000
0000
0001
0010
0100
0000
1000
0000
0001
0000
0100
0000
,
0101
0000
0000
0000
0001
0000
0100
0010
1000
0000
0100
0000
1000
0000
0001
0000
,
1001
0000
0000
0000
0001
0000
0100
0001
0100
0000
0001
0000
1000
0000
0000
0000
,
1100
0000
0000
0000
0011
0000
0010
0100
1000
0000
0001
0000
0100
0000
0001
0000
,
1000
0100
0010
0001
0010
0100
1000
0001
0010
0100
1000
0100
0010
0001
0010
0100
,
1000
0001
0100
0010
1000
0010
0100
0001
0100
0010
1000
0100
0010
0001
0010
0100
,
1000
0001
0100
0010
1000
0100
1000
0001
0010
0000
0010
0000
0010
0000
0010
0000
,
0001
0000
0001
0000
1000
0001
1000
0000
0001
0000
0100
0000
0001
1000
0001
0000
,
1001
0000
0000
0000
0110
0000
0010
1000
0100
0000
0010
0000
0001
0000
0010
0000
,
0000
0000
0100
0000
1000
0000
0001
0010
0001
0000
1000
0000
0010
0000
0100
0000
,
0101
0000
0000
0000
0110
0000
0010
1000
0100
0000
0010
0000
0001
0000
0010
0000
,
0011
0000
0000
0000
0110
0000
0100
1000
0010
0000
0100
0000
0001
0000
0100
0000
,
0110
0000
0000
0000
1010
0000
1000
0100
0010
0000
0001
0000
0010
0000
0001
0000
,
0011
0000
0000
0000
0110
0000
0100
1000
0010
0000
0100
0000
0001
0000
0100
0000
,
0110
0000
0000
0000
1010
0000
1000
0100
0010
0000
0001
0000
0010
0000
0001
0000
,
0011
0000
0000
0000
0110
0000
0100
1000
0010
0000
0100
0000
0001
0000
0010
0000
,
0100
0000
0000
0000
0110
0000
0100
1000
0010
0000
0100
0000
0001
0000
1000
0000
,
0000
0000
0000
0000
1001
0000
0001
0100
0010
0000
0100
0000
0010
0000
1000
0000
,
1100
0000
0000
0000
1001
0000
1000
0001
0100
0000
0010
0000
1000
0000
0010
0000
,
0000
0000
1000
0000
0010
0000
0100
0001
0100
0000
0001
0000
1000
0000
0100
0000
,
0110
0000
0000
0000
0110
0000
0010
0100
1000
0000
0010
0000
0100
0000
0001
0000
,
0000
0000
0000
0000
1001
0000
1000
0100
0010
0000
0001
0000
0010
0000
0100
0000
,
0110
0000
0000
0000
0110
0000
0010
0100
1000
0000
0010
0000
0100
0000
0001
0000
,
0100
0000
0000
0000
0001
0000
0000
0000
1000
0100
1000
0000
0001
0000
0010
0000
,
0100
0000
0000
0000
0100
0000
0000
0000
0100
0000
0000
0000
1000
0100
0010
0001
,
0010
0000
0000
0000
0010
0000
0000
0000
0010
0000
0000
0000
0001
0010
0100
1000
,
0001
0000
0000
0000
0001
0000
0000
0000
0001
0000
0000
0000
0100
0010
1000
0001
,
1000
0000
1000
0000
0100
0010
0001
0010
,
1001
0000
0000
0000
;

//---------------dance-single - Renard----------------
#NOTES:
     dance-single:
     Renard:
     Hard:
     8:
     0.567,0.548,0.342,0.000,0.123:
0000
0000
0000
0000
,
0000
0000
0000
0000
,
0000
0000
0000
0000
,
0000
0000
0000
0000
,
1000
0000
1000
0000
1000
0000
0001
0100
,
0001
0000
0000
0000
0001
0000
0000
0000
0001
0000
0000
0000
1000
0100
1000
0000
,
0100
0000
1000
0000
0001
0000
0100
0001
,
0100
0000
0000
0000
0001
0000
0000
0000
1000
0100
1000
0000
0100
0000
1000
0000
,
0001
0000
0100
0000
0001
0000
0100
0000
0001
1000
0001
0000
1000
0000
0001
0000
,
1000
0000
0000
0000
1100
0000
0000
0000
1001
0000
0000
0000
1000
0001
1000
0000
,
0001
0000
0000
0000
0101
0000
0000
0000
1001
0000
0000
0000
1000
0100
1000
0000
,
0001
0000
0000
0000
1100
0000
0000
0000
1001
0000
0000
0000
1000
0001
1000
0000
,
0001
0000
0100
0000
0010
1000
0100
0010
,
0001
0000
0000
0000
0011
0000
0000
0000
0110
0000
0000
0000
0100
1000
0100
0000
,
1000
0000
0000
0000
0110
0000
0000
0000
0101
0000
0000
0000
0001
1000
0001
0000
,
1000
0000
0000
0000
1100
0000
0000
0000
0011
0000
0000
0000
0001
1000
0001
0000
,
0100
0000
0010
0000
1000
0010
0100
0001
,
0100
0000
0001
1000
0100
0000
1000
0001
,
0010
0000
0001
1000
0010
0100
0001
0100
,
0010
0000
0010
1000
0010
1000
0001
0100
,
0000
0000
0001
1000
0100
0010
0001
1000
,
0001
0000
1000
0000
0010
0100
0001
0100
,
0000
0000
0010
0000
1000
0100
0010
0001
,
1000
0000
0000
0000
1000
0000
0001
0100
0001
0000
0100
0000
0010
0000
1000
0000
,
0000
0000
0000
0000
0100
0000
0010
0001
0010
0000
0100
0000
1000
0000
0001
0000
,
0100
0000
0000
0000
0010
0000
1000
0010
1000
0000
0010
0000
0100
0000
0001
0000
,
0000
0000
0000
0000
1000
0000
0100
0000
0010
0001
0010
0000
0100
0000
1000
0000
,
0001
0000
0101
0000
0001
1000
0100
0000
,
1100
0000
1001
0000
0001
0100
0010
0000
,
0110
0000
1001
0000
1000
0100
0010
0000
,
0110
0000
1001
0000
0010
0100
0001
0000
,
0100
0001
0100
0001
0100
0010
0100
0010
,
1000
0010
1000
0010
1000
0100
1000
0100
,
0010
0001
0010
0100
1000
0010
0100
0001
,
0010
0100
1000
0100
0010
0001
1000
0001
,
0100
0010
1000
0100
0010
0001
1000
0001
,
0100
0000
0000
0000
0000
0010
0010
0010
,
0100
0000
0110
0000
0100
0001
1000
0100
,
0000
0000
1100
0000
1000
0001
0100
0010
,
0100
0000
0110
0000
0010
1000
0001
0010
,
0000
0000
0011
0000
0010
0100
1000
0010
,
0100
0000
0000
0000
0001
0000
0100
0001
0100
0000
0010
0000
1000
0000
0100
0000
,
0000
0000
0100
0000
1000
0000
0100
1000
0100
0000
1000
0000
0001
0000
0010
0000
,
0001
0000
0000
0000
1000
0000
0001
0100
0001
0000
0100
0000
0010
0000
1000
0000
,
0100
0000
0010
0000
0001
0010
0100
1000
,
0001
0101
1001
1100
,
1000
0000
0100
0000
0010
0000
0001
0010
0001
0000
0010
0000
0100
0000
1000
0000
,
0001
0101
1010
1001
,
1000
0000
0100
0000
0010
0000
0001
0010
0001
0000
0010
0000
0100
0000
1000
0000
,
0001
0101
1001
1010
,
1000
0000
0100
0000
0010
0000
0001
0010
0001
0000
0010
0000
0100
0000
1000
0000
,
0001
0000
0100
0000
0010
1000
0100
0010
,
0000
0000
0000
0000
0001
0000
0010
0000
0100
1000
0100
0000
1000
0000
0001
0000
,
0100
0000
0000
0000
0100
0000
0000
0000
0100
0000
0000
0000
0010
0100
0010
0000
,
1000
0000
0000
0000
1000
0000
0000
0000
1000
0000
0000
0000
0001
1000
0001
0000
,
0010
0000
0000
0000
0010
0000
0000
0000
0010
0000
0000
0000
0100
1000
0100
0000
,
1000
0000
0010
0000
0100
0001
1000
0100
,
0010
0000
0000
0000
;

//---------------dance-single - Renard----------------
#NOTES:
     dance-single:
     Renard:
     Medium:
     6:
     0.403,0.365,0.000,0.000,0.000:
0000
0000
0000
0000
,
0000
0000
0000
0000
,
0000
0000
0000
0000
,
0000
0000
0000
0000
,
1000
0000
1000
0000
1000
0000
1000
0100
,
0010
0000
0010
0000
0010
0000
0010
0001
,
0100
0000
0100
0000
0100
0000
0010
1000
,
0100
0000
1000
0000
0001
1000
0001
1000
,
0001
0000
0000
0000
1000
0010
1000
0001
,
0100
0000
0100
0000
0100
0000
0001
1000
,
0100
0000
0100
0000
0100
0000
1000
0001
,
0100
0000
0100
0000
0100
0000
0001
1000
,
0100
0000
0100
0000
1000
0001
1000
0001
,
0010
0000
0010
0000
0010
0000
0001
1000
,
0010
0000
0010
0000
0010
0000
1000
0001
,
0010
0000
0010
0000
0010
0000
0001
1000
,
0010
0000
0010
0000
0100
0001
1000
0100
,
1000
1000
0001
0001
,
0100
0000
0100
0000
0010
0000
1000
0100
,
0010
0000
0010
0000
0001
0000
0010
0100
,
0000
0000
0100
0000
1000
0010
0100
0001
,
0000
0000
0100
0000
0010
0000
1000
0100
,
0000
0000
0010
0000
0001
0000
0010
0100
,
1000
0000
1000
0000
0100
0010
0001
1000
,
0000
0000
0001
0000
0010
0001
1000
0001
,
0100
0000
0001
0000
1000
0000
0100
1000
,
0000
0000
0001
0000
0010
0001
1000
0001
,
0100
0000
0100
0000
0010
0100
0010
0000
,
1000
0000
1000
0000
0001
1000
0001
0000
,
0100
0000
0100
0000
0010
1000
0010
0000
,
0100
0000
0100
0000
0001
0010
0001
0000
,
0010
0000
0010
0000
0100
0010
0100
0000
,
1000
0000
1000
0000
0001
1000
0001
0000
,
0100
0100
0010
0010
,
1000
0100
0010
0001
,
1000
0001
0100
0010
,
1000
0000
0000
0000
0000
1000
0010
1000
,
0010
0000
0010
0000
0100
0000
0001
1000
,
0000
0000
1000
0000
0100
0010
0001
0010
,
0000
0000
0100
0000
1000
0000
0001
0100
,
0000
0000
0001
0000
1000
0000
0100
0010
,
0001
0000
0001
0000
0010
0000
0100
1000
,
0000
0000
0001
0000
0100
0010
0100
0010
,
0000
0000
1000
0000
0100
0000
1000
0001
,
0000
0000
0010
0000
0100
1000
0001
0100
,
0001
0000
1000
0000
0001
1000
0001
1000
,
0000
0000
0010
0000
0100
0010
0100
0010
,
0000
0000
1000
0000
0010
1000
0010
1000
,
0000
0000
0001
0000
0100
0001
0100
0001
,
1000
0000
0100
0000
1000
0100
1000
0100
,
0000
0000
0010
0000
0001
0010
0001
0010
,
0001
0000
1000
0000
0010
1000
0010
0000
,
0100
0000
0001
0000
1000
0100
1000
0001
,
1000
0000
1000
0000
1000
0000
0001
1000
,
0001
0000
0001
0000
0001
0000
1000
0001
,
1000
0000
1000
0000
1000
0000
0001
1000
,
0001
0000
1000
0000
0001
1000
0001
1000
,
0010
0000
0000
0000
;

//---------------dance-single - Renard----------------
#NOTES:
     dance-single:
     Renard:
     Easy:
     2:
     0.224,0.335,0.032,0.075,0.000: // measure 1
0000
0000
0000
0000
,  // measure 2
0000
0000
0000
0000
,  // measure 3
0000
0000
0000
0000
,  // measure 4
0000
0000
0000
0000
,  // measure 5
1000
0001
1000
0101
,  // measure 6
0001
1000
0100
1100
,  // measure 7
1000
0001
0010
0011
,  // measure 8
0001
1000
0010
1000
,  // measure 9
0001
0000
0000
0000
,  // measure 10
1000
0000
1000
0000
,  // measure 11
0001
0000
0001
0000
,  // measure 12
0100
0000
0100
0000
,  // measure 13
0010
0000
1000
0010
,  // measure 14
1000
0000
0001
0000
,  // measure 15
1000
0000
0001
0000
,  // measure 16
1000
0001
1000
0000
,  // measure 17
0001
0000
0100
0000
,  // measure 18
0020
0000
0000
0000
,  // measure 19
0000
0000
0000
0000
,  // measure 20
1030
0000
1000
0010
,  // measure 21
1000
0000
0010
0000
,  // measure 22
1000
0000
1000
0010
,  // measure 23
1000
0000
0010
0000
,  // measure 24
0100
0000
0001
0100
,  // measure 25
0001
0000
0100
0000
,  // measure 26
0001
0000
0100
0000
,  // measure 27
0001
0000
0001
0000
,  // measure 28
1000
1000
1000
0000
,  // measure 29
0001
0001
0001
0000
,  // measure 30
1000
1000
1000
0000
,  // measure 31
0001
0001
0001
0000
,  // measure 32
1000
1000
1000
1000
,  // measure 33
0001
0001
0001
0001
,  // measure 34
1000
1000
0001
0001
,  // measure 35
1000
1000
0001
0001
,  // measure 36
2000
0000
0000
0000
,  // measure 37
0002
0000
0000
3003
,  // measure 38
1000
0001
1000
0000
,  // measure 39
0001
0000
1000
0000
,  // measure 40
0010
0100
0010
0000
,  // measure 41
0100
0000
0010
0000
,  // measure 42
1000
0001
1000
0000
,  // measure 43
0001
0000
1000
0000
,  // measure 44
0002
0000
2003
0000
,  // measure 45
3200
0000
0320
0000
,  // measure 46
0031
0000
1000
0001
,  // measure 47
1000
0000
0001
0000
,  // measure 48
1000
0000
0001
0000
,  // measure 49
1000
0001
1000
0000
,  // measure 50
0001
0000
1000
0001
,  // measure 51
1000
0000
0001
0000
,  // measure 52
0100
0000
0001
0000
,  // measure 53
1000
0000
0100
0000
,  // measure 54
0010
0000
0010
0010
,  // measure 55
0010
0000
0010
0010
,  // measure 56
0010
0000
0010
0010
,  // measure 57
0010
0001
1000
0001
,  // measure 58
0100
0000
0000
0000
;
