#TITLE:Odysee in 3D;
#SUBTITLE:;
#ARTIST:Blümchen;
#TITLETRANSLIT:;
#SUBTITLETRANSLIT:;
#ARTISTTRANSLIT:;
#CREDIT:;
#BANNER:3d.png;
#BACKGROUND:3d-bg.png;
#LYRICSPATH:;
#CDTITLE:;
#MUSIC:3d.ogg;
#OFFSET:0.000;
#SAMPLESTART:68.667;
#SAMPLELENGTH:12.000;
#SELECTABLE:YES;
#BPMS:0.000=180.000;
#STOPS:;
#BGCHANGES:;

//---------------dance-single - Renard----------------
#NOTES:
     dance-single:
     Renard:
     Hard:
     9:
     0.585,0.634,0.047,0.253,0.080:
0000
0000
0000
0000
,
0000
0000
0000
0000
,
0000
0000
0000
0000
,
0000
0000
0000
0000
,
0000
0000
0000
0000
,
0000
0000
0000
0000
,
0000
0000
0000
0000
,
0000
0000
0000
0000
,
0001
0100
0010
0100
1000
0100
0010
0000
,
0110
0100
0001
2000
,
0M02
0000
00M0
3000
M100
0000
M203
0000
,
001M
0000
M020
0300
203M
0000
0M01
0000
,
00M2
3M03
100M
01M0
,
M010
0M10
M001
00M2
,
2M00
0000
0003
3000
100M
0000
0001
0000
,
01M0
0000
M010
0100
001M
0000
1M00
0000
,
00M1
M000
M100
00M1
,
1000
0001
0100
0010
0000
0010
1000
0000
,
0001
0100
0010
1000
0000
1000
0100
0000
,
0010
0001
0010
0100
1000
0001
0100
0000
,
0010
0100
0001
0100
0000
0100
0001
0000
,
1000
0100
0010
0001
0000
0001
1000
0000
,
0001
1000
0100
0010
0000
0010
0100
0000
,
1000
0001
0100
0010
1000
0001
1000
0000
,
20M2
0M00
00M0
0M00
00M0
0M00
00M0
0M00
00M0
0M00
00M0
0M00
30M3
0000
0000
0000
,
1000
0001
1000
0000
0001
0000
0100
0000
0000
0000
0010
0000
0000
0000
1000
0000
,
0100
1000
0100
0000
1000
0000
0001
0000
0000
0000
0010
0000
0001
0000
1000
0000
,
0010
0100
0010
0000
0100
0000
0010
0000
0000
0000
0100
0000
0000
0000
0001
0000
,
1000
0100
1000
0000
0001
0000
0010
0000
0000
0000
0001
0000
1000
0000
0010
0000
,
0100
0010
0100
0000
0010
0000
0100
0000
0000
0000
0001
0000
0000
0000
0010
0000
,
0001
0010
0001
0000
0010
0000
0100
0000
0000
0000
1000
0000
0001
0000
0100
0000
,
0010
0100
0010
0000
0100
0000
0010
0000
0000
0000
1000
0000
0000
0000
0001
0000
,
0100
0001
1000
0100
0010
0001
1000
0001
,
0100
0M00
0M00
0M00
0M00
0M00
0M00
0M00
,
0220
0000
0000
0330
,
2001
0000
0001
0000
3001
0000
0010
0010
,
1000
0000
1000
0001
0000
0001
0100
0001
,
1000
0100
0010
0100
0000
0100
1000
0010
,
0100
0001
0100
0001
0000
0001
1000
0100
,
1000
0000
0000
0001
0000
0000
1000
0000
0000
0001
0000
0000
1000
0000
0010
0000
,
0100
0000
0100
0010
0000
1000
0100
1000
,
0001
0010
0001
1000
0000
1000
0001
0100
,
0010
1000
0100
0010
0001
0010
0100
1000
,
0010
0100
0001
1000
0100
0010
0001
1000
,
0M01
0000
0M02
0000
01M0
0000
02M0
0003
,
M010
0000
M020
0300
1M00
0000
2M00
0030
,
01M0
0000
02M0
3000
001M
0000
032M
0000
,
M001
M032
1M00
1M00
,
01M0
02M3
M010
M320
,
1M00
1M00
010M
023M
,
00M1
03M2
M010
M010
,
1M00
01M0
M103
M11M
,
0010
1000
0001
0100
0001
1000
0100
1000
,
0001
0010
0001
1000
0010
1000
0001
0000
,
0001
0100
0001
1000
0100
1000
0001
0010
,
0001
1000
0010
0100
0001
1000
0100
0000
,
0100
1000
0001
0010
0001
1000
0010
1000
,
0001
1000
0100
0010
0001
1000
0001
0000
,
0001
1000
0001
0100
0010
1000
0100
1000
,
0001
0010
0100
1000
0001
1000
0001
0000
,
1000
0001
1000
0001
0100
0001
0100
0001
,
0100
0010
0100
0010
1000
0010
1000
0010
,
1000
0100
1000
0100
0010
0001
0010
0001
,
1000
0100
1000
0100
0010
0001
0010
0001
,
1000
0010
0100
0001
0100
0001
1000
0100
,
1000
0001
0010
0001
1000
0010
1000
0010
,
0100
0001
0100
0001
1000
0100
1000
0100
,
1000
0000
0000
0001
0000
1000
0001
0000
1000
0000
0001
0000
1000
0000
0001
0000
,
1000
0100
0010
0001
0000
100M
0000
100M
,
0000
M001
0000
M001
0000
0010
0000
0100
,
1000
0001
0010
0100
0000
100M
0000
100M
,
0000
0010
0000
0100
0000
0001
0000
1000
,
0100
0010
0001
1000
0000
0M10
0000
0M10
,
0000
01M0
0000
01M0
0000
0001
0000
1000
,
0100
0010
0001
0010
0000
0100
0000
1000
,
0100
0010
0001
1000
0000
0001
0100
0010
,
2M00
00M0
000M
0M00
00M0
000M
0M00
00M0
,
000M
0M00
00M0
000M
0M00
00M0
000M
0M00
,
00M2
0M00
00M0
0M00
00M0
0M00
00M0
0M00
,
00M0
0M00
0M20
0M00
3033
0000
0000
0000
;

//---------------dance-single - Renard----------------
#NOTES:
     dance-single:
     Renard:
     Medium:
     5:
     0.339,0.447,0.028,0.197,0.000:
0000
0000
0000
0000
,
0000
0000
0000
0000
,
0000
0000
0000
0000
,
0000
0000
0000
0000
,
0000
0000
0000
0000
,
0000
0000
0000
0000
,
0000
0000
0000
0000
,
0000
0000
0000
0000
,
0000
0000
1000
0001
,
0110
0000
0010
0000
,
0200
0000
0000
0000
,
0301
0000
0001
1000
,
0200
0000
0000
0000
,
0310
0010
0010
0010
,
0020
0000
0000
0000
,
0130
0100
0100
0100
,
1000
0001
1000
0001
1000
0000
0001
0000
,
0100
0000
0100
0001
0000
0001
1000
0000
,
0100
0000
0100
1000
0000
1000
0001
0000
,
1000
0100
0010
0001
,
0001
0010
0100
1000
,
0001
0000
0001
1000
0000
1000
0001
0000
,
1000
0000
1000
0001
0000
0001
1000
0000
,
0001
0100
0010
1000
,
1001
0000
0000
0000
,
1000
0000
1000
0001
0000
0100
0000
0000
,
0001
0000
1000
0100
0000
0000
0000
0000
,
1000
0000
0001
0010
0000
0001
0000
0000
,
1000
0000
0001
0100
0000
0000
0000
0000
,
0001
0000
1000
0010
0000
1000
0000
0000
,
0001
0000
1000
0100
0000
0000
0000
0000
,
1000
0000
0001
0100
0000
0001
0000
1000
,
0001
1000
0001
1000
,
0001
0000
0000
0000
,
0200
0000
0000
0000
,
0310
0000
0000
0000
0000
0000
0010
0010
,
0100
0000
0100
0001
0000
0001
0000
1000
,
0100
0100
0010
0000
,
0001
0000
0001
1000
0000
1000
0000
0010
,
0100
0000
0001
0000
,
1000
0000
1000
0001
0000
0001
0000
0001
,
0010
0000
0100
0000
,
1000
0000
1000
0001
0000
0001
0000
0100
,
0010
1000
0010
0100
,
0002
0000
0000
1000
,
2000
0000
0003
0010
,
0020
3000
0200
0030
,
0002
0300
2000
0003
,
0002
0000
0003
0001
,
0002
0000
0003
0010
,
0020
0030
0200
0300
,
0002
0000
0000
3003
,
0001
0000
0001
0000
1000
0000
0001
1000
,
0001
0000
0100
0010
,
1000
0010
0100
0001
,
1000
0000
0001
0100
,
0010
0000
0010
0000
1000
0000
0001
1000
,
0001
0000
0100
0010
,
1000
0000
0001
0000
1000
0000
0100
1000
,
0100
0000
1000
0001
,
0010
0000
0100
1000
,
0010
0000
0100
0001
,
2000
0000
0001
0000
,
0010
0000
0000
0000
0100
0000
0100
3000
,
0100
1000
0001
0010
,
0001
1000
0010
0100
,
0002
0000
1000
0000
,
0100
0100
0010
0010
,
0103
0100
0001
0001
,
1000
1000
0100
0100
,
0010
0001
1000
0100
,
0010
0001
1000
0010
,
0100
0001
0100
0001
,
1000
0001
1000
0010
,
1000
0001
0100
0001
,
1000
0010
0100
0001
,
2002
0000
0000
0000
,
0000
0000
0000
3000
,
0200
0000
0000
0000
,
0003
0020
0330
0000
;

//---------------dance-single - Renard----------------
#NOTES:
     dance-single:
     Renard:
     Easy:
     2:
     0.260,0.374,0.028,0.159,0.000: // measure 1
0000
0000
0000
0000
,  // measure 2
0000
0000
0000
0000
,  // measure 3
0000
0000
0000
0000
,  // measure 4
0000
0000
0000
0000
,  // measure 5
0000
0000
0000
0000
,  // measure 6
0000
0000
0000
0000
,  // measure 7
0000
0000
0000
0000
,  // measure 8
0000
0000
0000
0000
,  // measure 9
0000
0000
0000
0000
,  // measure 10
0100
0000
0001
0000
,  // measure 11
2000
0000
0000
0000
,  // measure 12
3002
0000
0000
0000
,  // measure 13
0203
0000
0000
0000
,  // measure 14
0301
0000
1000
0000
,  // measure 15
0200
0000
0000
0000
,  // measure 16
0310
0000
0001
0000
,  // measure 17
1000
0000
0001
0000
,  // measure 18
0100
0000
0100
0000
,  // measure 19
0001
0000
0001
0000
,  // measure 20
1000
0000
1000
0000
,  // measure 21
0002
0000
0000
0000
,  // measure 22
1003
0000
0001
0000
,  // measure 23
0010
0000
0000
0000
,  // measure 24
0010
0000
0100
0000
,  // measure 25
1000
0000
0000
0000
,  // measure 26
0001
0000
0001
0000
,  // measure 27
0001
0001
0001
0001
,  // measure 28
1000
0000
1000
0000
,  // measure 29
1000
1000
1000
1000
,  // measure 30
0010
0000
0010
0000
,  // measure 31
0010
0010
0010
0010
,  // measure 32
0100
0000
0100
0000
,  // measure 33
0001
1000
0001
0100
,  // measure 34
0010
0000
0000
0000
,  // measure 35
2002
0000
0000
3003
,  // measure 36
0110
0000
0000
0000
,  // measure 37
0010
0010
0010
0010
,  // measure 38
0010
0010
0010
0010
,  // measure 39
0100
0100
0100
0100
,  // measure 40
0100
0100
0100
0100
,  // measure 41
0001
0001
0001
0001
,  // measure 42
0001
0001
0001
0001
,  // measure 43
1000
1000
0001
0001
,  // measure 44
1000
0001
1000
0001
,  // measure 45
1000
0000
1000
0000
,  // measure 46
0002
0000
0000
0000
,  // measure 47
0103
0000
0100
0000
,  // measure 48
0020
0000
0000
0000
,  // measure 49
1030
0000
0010
0000
,  // measure 50
1000
0000
0010
0000
,  // measure 51
0100
0000
0001
0000
,  // measure 52
1000
0000
0001
0100
,  // measure 53
0002
0000
0000
0000
,  // measure 54
2003
0000
0000
0000
,  // measure 55
3001
0100
0010
1000
,  // measure 56
0001
1000
0100
0010
,  // measure 57
0002
0000
0000
0000
,  // measure 58
2003
0000
0000
0000
,  // measure 59
3001
0010
0100
1000
,  // measure 60
0010
0100
0001
1000
,  // measure 61
0100
1000
0100
1000
,  // measure 62
0100
1000
0100
1000
,  // measure 63
0100
1000
0100
1000
,  // measure 64
0100
0000
0100
0000
,  // measure 65
0010
0001
0010
0001
,  // measure 66
0010
0001
0010
0001
,  // measure 67
0010
0001
0010
0001
,  // measure 68
0010
0000
0001
1000
,  // measure 69
0001
0000
0001
0000
,  // measure 70
0001
0000
0001
0100
,  // measure 71
0010
0000
0010
0000
,  // measure 72
0010
0000
0010
1000
,  // measure 73
0100
1000
0100
0000
,  // measure 74
1000
0000
0001
0000
,  // measure 75
0010
0001
1000
0001
,  // measure 76
0100
0010
1000
0001
,  // measure 77
2002
0000
0000
3000
,  // measure 78
0200
0000
0000
0003
,  // measure 79
0020
0000
0000
0000
,  // measure 80
0000
0000
0000
0330
;
