#TITLE:Now You're a Man;
#SUBTITLE:;
#ARTIST:DVDA;
#TITLETRANSLIT:;
#SUBTITLETRANSLIT:;
#ARTISTTRANSLIT:;
#CREDIT:;
#BANNER:man.png;
#BACKGROUND:man-bg 2x1.png;
#LYRICSPATH:;
#CDTITLE:;
#MUSIC:man.ogg;
#OFFSET:0.000;
#SAMPLESTART:0.010;
#SAMPLELENGTH:12.000;
#SELECTABLE:YES;
#BPMS:0.000=115.800;
#STOPS:;
#BGCHANGES:0.000=man-bg 2x1.png=1.000=0=0=1,
99999=-nosongbg-=1.000=0=0=0 // don't automatically add -songbackground-
;
#GENRE:Best Song Ever;

//---------------dance-single - Congratulations!----------------
#NOTES:
     dance-single:
     Congratulations!:
     Challenge:
     99:
     0.891,0.730,1.000,0.484,0.840: // measure 1
1001
0100
0010
0001
1000
0100
0010
0001
1001
0100
0010
0001
1000
0100
0010
0000
,  // measure 2
1001
0010
0100
1000
0001
0010
0100
1000
1001
0010
0100
1000
0001
0010
0100
0000
,  // measure 3
1001
0010
0100
0001
1000
0010
0100
0001
1001
0010
0100
0001
1000
0010
0100
0000
,  // measure 4
1001
0100
0010
1000
0001
0100
0010
1000
1001
0100
0010
1000
1010
0000
0000
0000
,  // measure 5
1010
0000
0000
0000
0000
0000
0010
0000
1000
0000
0010
0000
1000
0000
0000
0000
0000
0000
0001
0000
0100
0000
0001
0000
0100
0000
0000
0000
0000
0000
0001
0000
0000
0010
0000
0000
0101
0000
0000
0000
0000
0000
1000
0000
0000
0100
0000
0000
,  // measure 6
1100
0000
0000
0000
0000
0000
0001
0000
0010
0000
0001
0000
0010
0000
0000
0000
0000
0000
0100
0000
1000
0000
0100
0000
1000
0000
0000
0000
0000
0000
0001
0000
0100
0000
0010
0000
1000
0000
0000
0010
0000
0000
0100
0000
0000
0000
0000
0000
,  // measure 7
0001
0000
0000
0001
0000
0000
1000
0000
0000
0000
0000
0000
0010
0000
0000
0010
0000
0000
0100
0000
0000
0000
0000
0000
0001
0000
1000
0000
0001
0000
1000
0000
0000
0001
0000
0000
1000
0000
0000
0001
0000
0000
1000
0000
0000
0001
0000
0000
,  // measure 8
0101
0000
0110
0000
1100
0000
0110
0000
0101
0000
0110
0110
1100
0000
0110
0101
,  // measure 9
1001
0000
2000
0000
0200
0000
0020
0000
0000
0000
0031
0010
3311
0000
0000
0000
,  // measure 10
0201
0000
0010
0010
1000
0000
0002
0000
2020
0000
3333
0000
0201
0000
1000
1000
,  // measure 11
0020
0000
0002
0000
0000
0000
1003
0001
1331
0000
0000
0000
1011
0000
1001
0000
,  // measure 12
1101
1001
1011
0020
1001
1000
1100
1000
,  // measure 13
1031
0000
0000
0010
0000
0000
1111
0000
0000
0000
0000
0000
0001
0100
0001
1000
0100
1000
0001
0010
0001
1000
0010
1000
,  // measure 14
1010
0000
0000
0000
2002
0000
0100
0000
0010
0200
0020
0000
0000
0000
0000
0000
,  // measure 15
3333
0000
0000
0000
0000
0000
0000
0000
0202
0010
1313
0000
0000
0000
2200
0010
,  // measure 16
3311
0000
0000
0000
1000
0001
1000
0001
1111
0000
0000
0000
0000
0000
0000
0000
;
