#TITLE:November 13th;
#SUBTITLE:;
#ARTIST:Lollipop;
#TITLETRANSLIT:;
#SUBTITLETRANSLIT:;
#ARTISTTRANSLIT:;
#CREDIT:;
#BANNER:13.png;
#BACKGROUND:13-bg.png;
#LYRICSPATH:;
#CDTITLE:;
#MUSIC:13.ogg;
#OFFSET:0.000;
#SAMPLESTART:13.100;
#SAMPLELENGTH:12.000;
#SELECTABLE:YES;
#BPMS:0.000=140.000;
#STOPS:;
#BGCHANGES:;

//---------------dance-single - Renard----------------
#NOTES:
     dance-single:
     Renard:
     Hard:
     9:
     0.625,0.593,0.314,0.000,0.238:
0000
0000
0000
0000
,
0000
0000
0000
0000
,
0000
0000
0000
0000
,
0000
0000
0000
0000
,
0010
0001
0010
0001
0010
0001
0010
0001
,
1000
0100
1000
0100
1000
0100
0010
0100
,
0010
0001
0010
0001
0010
0001
0010
0001
,
1000
0100
1000
0100
1000
0100
0110
0000
,
0010
0000
0001
0000
0100
0010
0000
0000
1000
0000
0100
0000
0010
0000
0001
0000
,
1000
0010
0000
0101
0000
0010
1000
0100
,
0010
0000
0000
0000
0010
0001
0000
0000
0001
0000
1000
0000
0010
0000
0100
0000
,
0000
0000
0100
0001
0100
0000
0010
0000
1000
0000
0100
0000
0110
0000
0000
0000
,
0100
0000
1000
0000
0010
0100
0000
0000
0001
0000
0100
0000
0010
0000
1000
0000
,
0001
0100
0000
1010
0000
0001
0100
0010
,
1000
0000
0000
0000
0010
0100
0000
0000
0001
0000
0010
0000
0000
0000
0110
0000
,
0000
0100
1000
0001
0100
0010
1001
0000
,
0100
0000
0010
0000
1000
0000
0001
1000
0001
0000
0100
0000
0010
0000
1000
0000
,
0100
0000
0010
0000
0001
0000
0010
0001
0010
0000
0001
0000
1000
0000
0010
0000
,
0100
0000
0001
0000
1000
0000
0100
1000
0100
0000
1000
0000
0010
0000
0100
0010
,
0100
0000
0001
0000
0100
0000
0001
0010
0001
0000
0010
0000
0100
0000
1000
0000
,
0001
0100
0010
1000
0010
0100
0001
0100
,
0010
1000
0100
0010
0001
1000
0101
0010
,
1000
0100
0010
0001
0010
0100
1000
0010
,
0100
0000
0001
0000
0100
0000
0010
0000
1000
0001
1000
0001
1000
0000
0001
0000
,
1000
0010
0100
0001
0011
0010
0110
0100
,
1100
1000
0010
0100
0001
0100
0010
1000
,
0001
0000
0100
0000
0000
0000
0010
0000
0000
0000
0010
0000
1000
0000
0100
1000
,
0000
0010
0100
0001
0010
0100
1000
0001
,
0100
0000
0010
0000
1000
0000
0001
0100
0001
0000
0100
0000
0010
0000
1000
0000
,
0100
1000
0100
0000
0010
0000
0001
0000
1000
0000
0100
0000
0011
0000
0100
0000
,
1000
0000
0010
0000
0100
0000
0001
0100
0001
0000
0100
0000
0010
0000
1000
0010
,
1000
0000
0010
0000
1000
0000
0100
1000
0100
0000
0010
0001
0010
0000
0001
0000
,
0001
0000
0010
0000
0100
0000
1000
0000
0000
0001
0000
0000
0100
0000
0000
0010
0000
0000
1000
0000
0000
0001
0000
0000
,
0110
0000
1000
0010
0110
0000
0100
0001
,
0010
0000
0000
0000
0100
0000
0000
0000
1000
0000
0000
0000
0001
0000
0000
0000
0000
0000
0000
0000
0000
0000
0000
0000
0010
0000
0000
0000
0000
0000
0100
0000
0000
0000
0000
0000
1000
0000
0000
0010
0000
0000
1000
0000
0000
0000
0000
0000
,
0010
0000
0100
0000
0001
0000
0100
0010
1000
0000
0001
0000
0100
0000
0010
0000
,
1000
0000
0000
0000
0010
0000
0000
0000
0100
0000
0000
0000
0001
0000
0000
0000
0000
0000
1000
0000
0000
0010
0000
0000
1000
0000
0000
0000
0000
0000
0010
0000
0000
0000
0000
0000
0100
0000
0000
0000
0000
0000
0001
0000
0000
0000
0000
0000
,
0010
0000
0010
0001
1000
0000
1000
0010
,
0100
0000
0100
0001
0010
0000
0011
0000
,
0110
0000
0000
0000
0100
0000
1000
0000
0010
0000
0100
0000
0001
0100
0001
0100
,
0001
0000
0000
0000
0100
0000
0000
0000
0010
0000
0000
0000
1000
0000
0000
0000
0000
0000
0001
0000
0000
0000
0000
0000
0100
0000
0000
0000
0000
0000
0010
0000
0000
1000
0000
0000
0010
0000
0000
0000
0000
0000
1000
0000
0000
0000
0000
0000
,
0010
0100
0001
0010
0001
0000
1001
0000
,
1000
0000
0000
0000
0010
0000
0000
0000
0100
0000
0000
0000
0001
0000
0000
0000
0000
0000
0000
0000
0000
0000
0000
0000
1000
0000
0000
0010
0000
0000
1000
0000
0000
0000
0000
0000
0010
0000
0000
0000
0000
0000
0100
0000
0000
0000
0000
0000
,
0001
0011
0110
1100
,
1000
0100
0010
0001
0000
0000
0001
0010
0100
1000
0000
0000
,
0001
0100
0010
0000
1010
0000
0100
0001
,
0011
0000
0010
0100
0110
0000
1100
0000
,
1001
0000
0000
0000
0001
0100
0010
0000
1000
0000
0001
0000
1001
0000
0000
0000
,
0001
0000
0100
0000
0010
1000
0000
0000
0010
0000
0100
0000
0001
0000
0010
0000
,
0100
1000
0000
0011
0000
1100
0010
0001
,
0100
0000
0000
0000
0010
1000
0000
0000
0010
0000
0100
0000
0001
0000
0010
0000
,
0100
0000
1000
0100
1000
0000
0100
0000
1000
0000
0010
0000
0100
0000
0001
0000
,
0100
0000
0010
0000
0010
1000
0000
0000
0101
0000
0010
0000
1000
0000
0100
0000
,
0010
0001
0000
0110
0000
1100
0001
0010
,
0100
0000
0000
0000
1000
0010
0000
0000
0100
0000
0001
0000
0100
0000
0010
0000
,
1000
0000
0001
0100
0001
0000
0100
0000
0010
0000
1000
0000
1100
0000
0000
0000
;

//---------------dance-single - Renard----------------
#NOTES:
     dance-single:
     Renard:
     Medium:
     5:
     0.347,0.367,0.061,0.020,0.000:
0000
0000
0000
0000
,
0000
0000
0000
0000
,
0000
0000
0000
0000
,
0000
0000
0000
0000
,
1000
0000
0100
0000
1000
0001
1000
0000
,
0001
0000
1000
0000
0001
0100
0001
0000
,
2000
3000
0001
0000
1000
0001
1000
0000
,
0002
0003
0100
0000
0001
1000
0001
0000
,
1000
0000
0100
0000
1000
0100
0010
0001
,
1000
0001
0000
0010
0000
0100
1000
0100
,
1000
0000
0001
0000
0100
0001
0000
1000
,
0000
0100
1000
0000
0001
0000
0010
0000
,
0001
0000
1000
0000
0010
0100
0010
0100
,
0010
0100
0000
0001
0000
1000
0100
1000
,
0001
0000
0010
0000
0001
1000
0000
0001
,
0000
0100
0010
0000
1000
0000
0010
0000
,
0100
0000
0001
0000
0100
0010
0100
0000
,
0010
1000
0100
0010
,
0001
1000
0000
0001
0000
0100
0000
0010
,
1000
0010
0100
0001
,
1000
0100
0010
0001
,
0010
0100
1000
0010
,
0100
0000
0001
0000
0100
0010
0100
0000
,
0010
0000
1000
0000
0100
1000
0100
0000
,
1000
0000
0001
0000
0010
0100
1000
0000
,
0001
0100
0010
1000
,
0010
0100
0000
0001
0000
0100
0000
0010
,
0000
0000
1000
0000
0100
0010
0001
0000
,
0010
0100
1000
0001
,
0100
0001
1000
0100
,
0010
0000
0001
0000
0010
0100
0010
0000
,
0100
1000
0010
0100
,
0001
1000
0001
0000
0000
0000
0000
1000
,
0100
0000
0011
0000
,
0001
0010
0100
0000
0000
0000
0000
1000
,
0010
0000
0000
0100
0001
0000
0000
0000
,
0010
0100
1000
0000
0000
0000
0000
0001
,
0100
0000
0110
0000
,
0010
0000
0000
1000
0010
0000
0100
0001
,
1000
0100
0010
0001
,
1000
0100
1000
0000
0001
0010
0001
0000
,
1000
0000
1001
0000
,
0001
0000
0000
0000
0100
0000
0001
1000
,
0100
0000
0110
0000
,
0010
0001
1000
0000
0010
0100
0001
0000
,
1000
0000
1001
0000
,
0001
0000
0000
0010
0100
0000
1000
0001
,
1000
0001
0100
0010
,
0000
0000
1000
0000
0010
1000
0001
0100
,
0001
1000
0000
0001
0000
1000
0100
1000
,
0001
0000
1000
0000
0001
0000
0000
0010
,
0000
0001
1000
0000
0010
0000
0100
0000
,
0001
0000
1000
0000
0100
0010
0001
0010
,
0100
1000
0000
0001
0000
0100
0001
1000
,
0001
0000
1000
0000
0100
1000
0000
0001
,
0000
0100
0001
0000
1000
0000
0110
0000
;

//---------------dance-single - Renard----------------
#NOTES:
     dance-single:
     Renard:
     Easy:
     2:
     0.239,0.254,0.071,0.000,0.000: // measure 1
0000
0000
0000
0000
,  // measure 2
0000
0000
0000
0000
,  // measure 3
0000
0000
0000
0000
,  // measure 4
0000
0000
0000
0000
,  // measure 5
0000
0000
0000
0000
,  // measure 6
0000
0000
0000
0000
,  // measure 7
0000
0000
0000
0000
,  // measure 8
0000
0000
0000
0000
,  // measure 9
1000
0001
1000
0001
,  // measure 10
0100
0100
0100
0010
,  // measure 11
1000
1000
0100
0000
,  // measure 12
0010
0001
1000
0101
,  // measure 13
1000
0100
0010
0010
,  // measure 14
0001
1000
0001
0000
,  // measure 15
0100
0010
1000
0000
,  // measure 16
0001
0100
0000
1010
,  // measure 17
0100
0001
0100
0100
,  // measure 18
0100
0010
1000
0100
,  // measure 19
0010
0010
0001
0001
,  // measure 20
1000
0001
0100
0010
,  // measure 21
1000
0100
1000
1000
,  // measure 22
0001
0001
0010
0110
,  // measure 23
0000
0100
1000
0100
,  // measure 24
1000
0001
0100
0010
,  // measure 25
1000
0000
0010
0010
,  // measure 26
0100
0000
0001
1000
,  // measure 27
0100
0100
0010
0010
,  // measure 28
0001
1000
0001
0010
,  // measure 29
0100
1000
0010
0010
,  // measure 30
0100
0001
1000
0100
,  // measure 31
0010
0001
1000
0001
,  // measure 32
0010
0001
1000
0001
,  // measure 33
0100
0100
0000
0010
,  // measure 34
1000
0000
0010
0000
,  // measure 35
0100
0100
0000
0001
,  // measure 36
1000
0000
0100
0000
,  // measure 37
0010
0010
0000
0001
,  // measure 38
1000
0000
0010
0000
,  // measure 39
0100
0000
0001
0010
,  // measure 40
0100
0000
1000
0000
,  // measure 41
0010
0100
0001
0010
,  // measure 42
0001
0000
0011
0000
,  // measure 43
0010
0000
0100
1000
,  // measure 44
0010
0000
1010
0000
,  // measure 45
0010
0100
0001
1000
,  // measure 46
0100
0000
1100
0000
,  // measure 47
0010
0000
0001
1000
,  // measure 48
0001
0100
0010
1000
,  // measure 49
0010
0100
0100
0010
,  // measure 50
1000
0001
1000
0001
,  // measure 51
1000
1000
0100
0000
,  // measure 52
0010
0001
0000
0000
,  // measure 53
1000
0001
0010
0001
,  // measure 54
1000
0000
1000
0000
,  // measure 55
0001
1000
0001
0000
,  // measure 56
0100
0000
0010
1001
;
