#TITLE:Nose Bleed;
#SUBTITLE:;
#ARTIST:Ethos & A.M.S.;
#TITLETRANSLIT:;
#SUBTITLETRANSLIT:;
#ARTISTTRANSLIT:;
#CREDIT:;
#BANNER:nose.png;
#BACKGROUND:nose-bg.png;
#LYRICSPATH:;
#CDTITLE:;
#MUSIC:nose.ogg;
#OFFSET:0.000;
#SAMPLESTART:71.091;
#SAMPLELENGTH:12.000;
#SELECTABLE:YES;
#BPMS:0.000=175.550,112.000=87.775,144.000=175.550;
#STOPS:;
#BGCHANGES:;

//---------------dance-single - Renard----------------
#NOTES:
     dance-single:
     Renard:
     Challenge:
     9:
     0.727,1.000,0.378,0.102,0.450:
0000
0000
0000
0000
,
0000
0000
0000
0000
,
0000
0000
0000
0000
,
0000
0000
0000
0000
,
1000
0000
1000
0001
0000
0001
0100
0000
0010
0000
0000
0000
1000
0000
0010
0000
,
0000
0100
0001
1000
0100
0000
0010
0000
,
0001
0000
1000
0002
0000
0000
0000
0000
0000
0000
0000
0000
0103
0000
0010
0000
,
0010
1000
0010
0100
0001
0100
0010
0000
,
0110
0010
1010
0010
0110
0000
0100
0001
,
0010
0100
1000
0100
1000
0001
1001
0000
,
0001
0100
0010
0100
1000
0000
0100
0010
,
0100
0001
0010
0100
1000
0100
0000
0000
,
1000
0010
0100
0001
0100
0000
0010
1000
,
0010
0100
0001
1000
0100
0000
0010
0001
,
0010
0100
1000
0001
1000
0000
1001
0000
,
0101
0000
0000
0110
0000
0000
1100
0000
0110
0000
0000
0000
0101
0000
0000
0000
,
0001
0000
0100
0000
0110
0000
0000
0000
0000
0000
0010
1000
0100
0000
0000
0000
,
0010
0000
0100
0000
0110
0000
0000
0000
0000
0000
0100
1000
0001
0000
0000
0000
,
0100
0000
0001
0000
0101
0000
0000
0000
0000
0000
0100
0010
1000
0000
0000
0000
,
0010
0000
0100
0001
0100
0000
1000
0100
1000
0000
0100
0000
0010
0100
0010
0000
,
0110
0000
0000
0110
0000
0000
1001
0000
0000
1001
0000
0000
0110
0000
0000
0000
,
0010
0000
1000
0000
1010
0000
0000
0000
0000
0000
1000
0010
0100
0000
0000
0000
,
0001
0000
0010
0000
0011
0000
0000
0000
0000
0000
0010
0100
1000
0000
0001
0000
,
0100
0000
0010
0000
0110
0000
0000
0000
0000
0000
0010
1000
0100
0000
0010
0000
,
0100
0000
1000
0000
1100
0000
0000
0000
0000
0000
0010
0001
0100
0000
0001
0000
,
1000
0000
0001
0000
1001
0000
0000
0000
0000
0000
0001
0100
0010
0000
1000
0000
,
0100
0000
1000
0000
1100
0000
0000
0000
0000
0000
0100
0010
0001
0000
1000
0000
,
2002
0000
0000
0000
0000
0000
0000
3003
,
0001
0100
0010
0100
0010
0000
0010
1000
0100
0010
0001
0010
0110
0100
0000
0100
,
1000
0010
0100
0001
0100
0000
0010
1000
0010
0100
0001
0100
1010
1000
0000
0000
,
0001
0000
0100
0001
0100
0000
0010
0000
1010
0000
0000
0000
0010
0000
1000
0000
0100
0000
0010
0000
0001
0000
0010
0000
0110
0000
0000
0000
0100
0000
1000
0000
,
0001
0000
0100
0000
0010
0000
1000
0000
1010
0000
0000
0000
0001
0000
0000
0000
1010
0000
0000
1001
0000
0000
1100
0000
1001
0000
0000
0000
1000
0000
0000
0000
,
0001
0000
0000
0100
0000
0000
0010
0000
1000
0000
0000
0000
0100
0000
0010
0100
0010
0000
0100
0000
1000
0000
0001
0000
0100
0000
0010
0000
1000
0000
0010
0000
,
0000
1000
0010
0100
0110
0000
0000
0010
1000
0100
0010
0001
0010
0100
1000
0000
,
0001
0000
0001
1000
0000
0010
0100
0000
0001
0000
0000
0000
0100
0000
0010
0000
0000
0000
1000
0000
0010
0000
1000
0000
1010
0000
0000
0000
0010
0000
0000
0000
,
0100
0000
0001
0000
0100
0000
0010
0000
1000
0000
0010
0000
0100
0000
0010
0000
0100
0000
0000
0001
0000
0000
1000
0000
0020
0000
0000
0000
0000
0000
0000
0030
,
0100
0100
0010
0010
1000
0001
1000
0001
,
0100
0100
0010
0010
1000
0001
1000
0001
,
0100
0100
0010
0010
1000
0001
1000
0001
,
0100
0100
0010
0010
1000
0001
1000
0001
,
0100
0100
0001
0001
0100
0100
1000
1000
,
0100
0100
0010
0010
0100
0100
0001
0001
,
1000
0001
1000
0001
1000
0001
1000
0001
1000
0001
1000
0001
1000
0001
1000
0002
,
2000
0000
3000
2000
0000
3000
2000
3000
2000
0000
0000
0000
3003
0000
0000
0000
,
1000
0001
0100
0010
1000
0000
0100
0010
,
0001
0010
0100
1000
1100
1000
0010
0100
,
0001
0000
0100
0000
0010
0000
1000
0000
0010
0000
0100
0000
0001
0000
0100
0010
,
0100
0010
1000
0010
0100
0001
0010
0100
,
1000
0000
0001
0000
0010
0000
0100
0000
1000
0000
0001
0000
0100
0000
0001
0100
,
0001
0100
0010
1000
0010
0100
0001
1000
,
0100
0000
1000
0000
0100
0000
0010
0100
0010
0000
0001
0000
0010
0000
0001
0010
,
0001
0010
0100
1000
0001
0000
0000
0000
,
0100
0000
0010
0000
0100
0000
0010
0000
1000
0000
0010
0000
1000
0000
0010
0100
,
0010
0100
0001
0100
0010
1000
0001
1000
,
0000
0000
0001
0000
0100
0000
0010
0000
1000
0000
0010
1000
0010
0000
0100
0000
,
0001
1000
0100
0010
0001
0010
0100
1000
,
0001
0000
0001
0010
0000
0010
0100
0000
1000
0000
0000
0000
0001
0000
0100
0000
,
0000
0000
0010
0000
1000
0000
0010
0000
1000
0000
0010
1000
0010
0000
0100
0000
,
0001
0010
0100
1000
0001
1000
0001
1000
,
0010
0000
0000
0100
0000
0000
0001
0000
0200
0000
0000
0000
0000
0000
0000
0000
,
0300
0000
0000
0000
;

//---------------dance-single - Renard----------------
#NOTES:
     dance-single:
     Renard:
     Hard:
     8:
     0.606,0.858,0.184,0.051,0.281:
0000
0000
0000
0000
,
0000
0000
0000
0000
,
0000
0000
0000
0000
,
0000
0000
0000
0000
,
0001
0000
0000
1000
0000
0000
0010
0000
0100
0000
0000
0000
0001
0000
0100
0000
,
0000
0010
1000
0001
0010
0000
0100
0000
,
1000
0000
0001
2000
0000
0000
0000
0000
0000
0000
0000
0000
3010
0000
0000
0000
,
0100
0001
0100
0010
1000
0010
0100
0000
,
0010
0100
0001
0100
0010
0000
0010
1000
,
0100
0010
0001
0010
0001
1000
0001
0000
,
1000
0010
0100
0010
0001
0000
0010
0100
,
0010
1000
0100
0010
0001
0010
0000
0000
,
0001
0100
0010
1000
0010
0000
0100
0001
,
0100
0010
1000
0001
0010
0000
0100
1000
,
0100
0010
0001
1000
0001
0000
1001
0000
,
1000
0000
0000
0010
0000
0000
0001
0000
0010
0000
0000
0000
1010
0000
0000
0000
,
1000
0000
0110
0000
0000
0100
0010
0000
,
0100
0000
0110
0000
0000
0010
1000
0000
,
0010
0000
1010
0000
0000
1000
0001
0000
,
0010
0001
0001
1000
1000
0001
0001
0000
,
1001
0000
0000
1001
0000
0000
1001
0000
0000
1001
0000
0000
1001
0000
0000
0000
,
0100
0001
0101
0000
0000
0001
0010
0000
,
0100
1000
1100
0000
0000
0100
0010
0100
,
0010
0100
0110
0000
0000
0010
0001
0000
,
0010
0001
0011
0000
0000
0010
0100
1000
,
0001
1000
1001
0000
0000
1000
0010
0100
,
0001
0010
0011
0000
0000
0010
0100
1000
,
2002
0000
0000
0000
0000
0000
0000
3003
,
1000
0010
0100
0010
0100
0000
0100
0001
0010
0100
1000
0100
0100
0010
0000
0010
,
0001
0100
0010
1000
0010
0000
0100
0001
0100
0010
1000
0010
0100
0001
0000
0000
,
1000
0010
0010
0100
0001
0000
0100
0001
0010
0100
1000
0100
0010
0000
0010
0001
,
1000
0010
0100
0001
0100
0000
0001
0000
0100
0000
0001
0010
0001
0000
0001
0000
,
1000
0000
0000
0010
0000
0000
0100
0000
0001
0000
0000
0000
0010
0000
0100
0000
0100
0000
0010
0000
0001
0000
1000
0000
0010
0000
0100
0000
0001
0000
0100
0000
,
0000
0001
0100
0010
0100
0000
0000
0100
0001
0010
0100
1000
0100
0010
0001
0000
,
1000
0000
0000
0001
0000
0000
0001
0000
1000
0000
0000
0000
0010
0000
0100
0000
0000
0000
0001
0000
0100
0000
0001
0000
0100
0000
0000
0000
0100
0000
0000
0000
,
0010
0000
1000
0000
0010
0000
0100
0000
0001
0000
0100
0000
0010
0000
0100
0000
0010
0000
0000
1000
0000
0000
0001
0000
0200
0000
0000
0000
0000
0000
0000
0300
,
0010
0000
0100
0000
0001
1000
0001
1000
,
0010
0000
0100
0000
0001
1000
0001
1000
,
0010
0000
0100
0000
0001
1000
0001
1000
,
0010
0000
0100
0000
0001
1000
0001
1000
,
0010
0000
1000
1000
0010
0000
0001
0001
,
0010
0000
0100
0100
0010
0000
1000
1000
,
0001
0000
1000
0000
0001
0000
1000
0000
0001
0000
1000
0000
0001
1000
0001
0000
,
1000
0000
0000
0001
0000
0000
1000
0000
1001
0000
0000
0000
0000
0000
0000
0000
,
0001
1000
0010
0100
0001
0000
0010
0100
,
1000
0100
0010
0001
0010
0001
0100
0010
,
1000
0010
0100
0001
0100
0010
1000
0000
,
0010
0100
0001
0100
0010
1000
0100
0010
,
0001
1000
0100
0010
0001
1000
0010
0000
,
1000
0010
0100
0001
0100
0010
1000
0001
,
0010
0001
0010
0000
0100
1000
0100
0000
,
1000
0100
0010
0001
1000
0000
0000
0000
,
0010
0100
0010
0100
0001
0100
0001
0000
,
0100
0010
1000
0010
0100
0001
1000
0001
,
0000
1000
0010
0100
0001
0000
0100
0010
,
1000
0001
0010
0100
1000
0100
0010
0001
,
1000
0000
0000
0100
0000
0000
0010
0000
0001
0000
0000
0000
1000
0000
0010
0000
,
0000
0100
0001
0100
0001
0000
0100
0010
,
1000
0100
0010
0001
1000
0001
1000
0001
,
0100
0000
0000
0010
0000
0000
1000
0000
0020
0000
0000
0000
0000
0000
0000
0000
,
0030
0000
0000
0000
;

//---------------dance-single - Renard----------------
#NOTES:
     dance-single:
     Renard:
     Medium:
     5:
     0.375,0.583,0.092,0.010,0.000:
0000
0000
0000
0000
,
0000
0000
0000
0000
,
0000
0000
0000
0000
,
0000
0000
0000
0000
,
1000
0000
0001
0000
0100
0000
0001
1000
,
0000
0100
0010
0001
,
1000
0001
0000
0100
,
0001
0000
1000
0000
0100
1000
0100
0000
,
1000
0001
0100
0010
,
0100
0001
1000
0000
,
0100
1000
0001
0010
,
0001
1000
0010
0000
,
1000
0001
0100
0001
,
1000
0000
0100
0010
0001
0000
0000
0000
,
0010
0000
0100
1000
0010
0000
1000
0000
,
0001
1000
0001
1000
,
0010
0000
0000
0100
0010
0000
0100
0000
,
0001
0000
0000
1000
0100
0000
1000
0000
,
0001
0000
0000
0010
0001
0000
1000
0000
,
0010
0100
0001
1000
,
0100
0000
0000
0100
0000
0000
0110
0000
,
0010
0001
1000
1000
,
0001
0100
0010
1000
,
0010
0000
0010
0000
0100
0001
0100
0000
,
0001
0000
1000
0100
1000
0000
1000
0000
,
0001
0000
0001
0100
0001
0000
0001
0000
,
1000
0000
1000
0100
1000
0000
0001
0000
,
0010
0000
0000
0000
,
1000
0001
1001
0001
0100
0010
0110
0000
,
0010
1000
1010
1000
0001
0100
0101
0000
,
0001
1000
1100
1000
0001
0010
0011
0000
,
0001
1000
1010
1000
0001
0100
0101
0000
,
0001
1000
0001
1000
0001
0000
1000
0001
,
1000
0010
1000
0010
1000
0000
0010
0000
,
1000
0001
0100
0001
0000
0000
1000
0100
,
1000
0001
0010
0001
0000
0000
0000
0000
,
1000
0000
1000
0000
0001
1000
0001
1000
,
0001
0000
0001
0000
1000
0001
1000
0001
,
1000
0000
1000
0000
0001
1000
0001
1000
,
0001
0000
0001
0000
1000
0001
1000
0001
,
1000
0000
1000
0001
1000
0000
1000
0001
,
1000
0000
1000
0001
1000
0000
1000
0001
,
1000
0001
1000
0001
1000
0001
1000
0001
,
1000
0000
0000
0000
,
0001
0000
0001
0000
1000
0000
0000
0001
,
0000
0100
0000
0000
0010
0000
1000
0000
,
0010
0000
0010
0000
0100
0000
0000
0001
,
0000
1000
0000
0100
0000
0000
0010
0000
,
0001
0000
0010
0000
0100
0000
0000
1000
,
0000
0001
0000
0000
0010
0000
0001
0000
,
1000
0010
0100
0001
,
1000
0000
0000
0000
,
1000
0000
1000
0000
0100
0000
1000
0100
,
0000
1000
0000
0000
0001
0000
0010
0000
,
0001
0000
1000
0000
0001
0000
0100
0001
,
0100
0001
0100
0010
,
1000
0100
1000
0001
,
0100
0001
1000
0100
,
1000
0001
0100
0010
,
2000
0000
0000
0000
,
3000
0000
0000
0000
;

//---------------dance-single - Renard----------------
#NOTES:
     dance-single:
     Renard:
     Easy:
     2:
     0.289,0.337,0.051,0.112,0.000: // measure 1
0000
0000
0000
0000
,  // measure 2
0000
0000
0000
0000
,  // measure 3
0000
0000
0000
0000
,  // measure 4
0000
0000
0000
0000
,  // measure 5
1000
0001
1000
0000
,  // measure 6
0001
0000
1000
0000
,  // measure 7
0001
1000
0000
0001
,  // measure 8
1000
0001
1000
0001
,  // measure 9
0100
0100
0100
0000
,  // measure 10
0010
0010
0010
0000
,  // measure 11
1000
0001
1000
0000
,  // measure 12
0001
1000
0001
0000
,  // measure 13
1000
0100
0010
0001
,  // measure 14
1000
0100
0010
0001
,  // measure 15
1000
0100
0010
0001
,  // measure 16
1000
0001
1000
0000
,  // measure 17
0001
0000
0100
0010
,  // measure 18
1000
0000
0010
0100
,  // measure 19
0001
0000
0100
0010
,  // measure 20
1000
0000
0000
0000
,  // measure 21
0001
0000
0000
1001
,  // measure 22
1000
0000
0100
0010
,  // measure 23
0001
0000
0010
0100
,  // measure 24
1000
0000
0001
0100
,  // measure 25
0010
0000
1000
0010
,  // measure 26
0100
0000
0001
0100
,  // measure 27
0010
0000
1000
0100
,  // measure 28
0010
0000
0000
0000
,  // measure 29
0002
1003
0100
0010
,  // measure 30
0002
1003
0100
0010
,  // measure 31
0002
1003
0100
0010
,  // measure 32
0002
1003
0100
0010
,  // measure 33
2000
3001
0010
0100
,  // measure 34
2000
3001
0010
0100
,  // measure 35
2000
3001
0010
0100
,  // measure 36
2000
0002
0000
3003
,  // measure 37
1000
1000
1000
1000
,  // measure 38
0001
0001
0001
0001
,  // measure 39
0100
0100
0100
0100
,  // measure 40
0010
0010
0010
0010
,  // measure 41
1000
1000
0001
0001
,  // measure 42
1000
1000
0001
0001
,  // measure 43
1000
0001
1000
0001
,  // measure 44
1000
0000
0000
1001
,  // measure 45
1000
0001
0100
0001
,  // measure 46
1000
0100
1001
0000
,  // measure 47
1000
0001
0100
0001
,  // measure 48
1000
0100
1001
0000
,  // measure 49
1000
0100
1000
0001
,  // measure 50
0100
0001
1001
0000
,  // measure 51
0001
0100
0001
1000
,  // measure 52
2000
0000
0000
3001
,  // measure 53
1000
0001
0010
0000
,  // measure 54
0001
1000
0010
0000
,  // measure 55
1000
0001
0100
0000
,  // measure 56
0001
1000
0100
0000
,  // measure 57
1000
0001
0010
0001
,  // measure 58
1000
0010
1000
0001
,  // measure 59
0100
0001
1000
0100
,  // measure 60
0020
0000
0000
0000
,  // measure 61
0030
0000
0000
0000
;
