#TITLE:Night Flight;
#SUBTITLE:;
#ARTIST:Sonitus Vir;
#TITLETRANSLIT:;
#SUBTITLETRANSLIT:;
#ARTISTTRANSLIT:;
#CREDIT:;
#BANNER:flight.png;
#BACKGROUND:flight-bg.png;
#LYRICSPATH:;
#CDTITLE:;
#MUSIC:flight.ogg;
#OFFSET:0.000;
#SAMPLESTART:21.903;
#SAMPLELENGTH:12.000;
#SELECTABLE:YES;
#BPMS:0.000=175.000;
#STOPS:;
#BGCHANGES:;

//---------------dance-single - Renard----------------
#NOTES:
     dance-single:
     Renard:
     Challenge:
     10:
     0.789,0.799,0.371,0.064,0.434:
0000
0000
0000
0000
,
0000
0000
0000
0000
,
0000
0000
0000
0000
,
0000
0000
0000
0000
,
1100
0000
0100
0001
0000
0001
0010
0000
,
0010
1000
0000
1000
0010
0001
0100
1000
,
0000
0011
0000
2002
0000
0000
0010
0000
,
3013
0000
0000
0000
0001
0000
0100
0010
1000
0000
0001
0100
0000
0001
1000
0000
,
0001
0000
0100
0010
0100
0000
0010
1000
0010
0000
1000
0000
0010
0000
0100
0000
,
0000
0000
0100
0001
0100
0000
0001
0010
0001
0000
0010
0000
0100
0000
1000
0000
,
0000
0000
0001
0010
0001
0000
0010
0100
0010
0000
0100
0000
1000
0000
0001
0000
,
0000
0000
1000
0010
1000
0000
0010
0100
0010
0000
0100
0000
0001
0000
0100
0000
,
0010
1000
0000
1010
0000
0101
0000
0011
,
0000
1010
0000
1100
0000
0101
0000
0011
,
0000
0001
0010
0100
1000
0010
0100
0001
,
0100
0000
0010
0000
1000
0000
0010
0100
0001
0100
0010
0000
1000
0000
0100
0010
,
0001
0000
0000
0001
0010
0000
0000
0010
0100
0000
1000
0000
0010
0100
0001
0000
,
0000
0000
1000
0001
0100
0000
0000
0100
0010
0000
1000
0000
0001
0000
0100
0000
,
0000
0000
0000
0100
0010
0000
0000
0010
1000
0000
0001
0010
0100
0000
1000
0000
,
0000
0000
1000
0001
0100
0000
0000
0100
0010
0000
1000
0000
0010
0000
0100
0000
,
0001
0100
0000
1100
0000
1010
0000
0011
,
0000
0101
0000
1010
0000
2002
0000
0020
,
0000
3033
0101
0000
1010
0000
1000
0100
,
1000
0100
1000
0100
1000
0010
1000
0010
0100
0001
0100
0001
0010
0000
0100
0000
,
1000
0000
0001
0100
0001
0000
0100
0000
0010
0000
1000
0000
0100
0000
0010
0000
,
0001
0000
0010
0100
0010
0000
0100
0000
1000
0000
0001
0000
0100
0000
0010
0000
,
1000
0000
0100
1000
0100
0000
0010
0000
0001
0000
0010
0000
0100
0000
1000
0000
,
0001
0000
0100
0001
0100
0000
0001
0000
0100
0000
0010
0000
1000
0000
0010
0000
,
1000
0000
0000
1000
0010
0000
0000
0010
0100
0000
0001
0000
0010
0000
0100
0000
,
0000
0000
0100
0000
1000
0010
0100
0001
,
0100
0000
0010
0100
0010
0000
1000
0000
0010
0000
1000
0010
1000
0000
0001
0000
,
0100
0000
0001
0100
0001
0000
1000
0000
0100
0000
0010
0000
0001
0010
0100
0000
,
1000
0000
0100
0000
0010
0001
0010
0000
0100
0000
1000
0000
0010
0100
0001
0000
,
0100
0000
0010
0000
1000
0010
0100
0000
0001
0000
0100
0000
0010
1000
0010
0000
,
1000
0000
0001
0000
0100
0001
0100
0000
0001
0000
0010
0000
0001
0010
0001
0000
,
0010
0000
0100
0000
0010
0100
0010
0000
0100
0000
1000
0000
0100
1000
0100
0000
,
1000
0000
0001
0000
0100
0000
0010
0000
1000
1000
0010
0000
1000
0010
1000
0000
,
0010
0000
0100
0000
0001
0000
0010
0000
0100
0000
0010
0000
0001
0010
0001
0000
,
0010
0000
0100
0000
1000
0100
1000
0000
0001
0000
0010
0000
0001
0010
0001
0000
,
0001
0000
1000
0100
0010
0000
0001
1000
0100
0000
0010
0001
1000
0000
0100
0010
,
0001
0010
0100
1000
0000
1001
0000
1010
,
0000
0000
0101
0000
0000
0000
0100
0010
0000
0000
0010
0000
1000
0000
0100
0000
,
0000
0000
0100
0000
0000
0100
0010
0000
0000
0000
0001
0000
0010
0000
0100
0000
,
0000
0000
0110
0000
0000
0000
1100
0000
0000
0000
0001
1000
0001
0000
0100
0000
,
0010
1000
0001
1000
0000
1100
0000
0110
,
0000
0000
0011
0000
0000
0001
0010
0000
0000
0000
0100
0000
1000
0000
0010
0000
,
0000
0000
0100
0000
0000
0001
0100
0000
0000
0000
0010
0000
1000
0000
0100
0000
,
0000
0000
0010
0000
0000
0000
0011
0000
0000
0000
0100
1000
0001
0000
0100
0010
,
0100
0010
1000
0010
0100
0001
0010
0100
,
1000
0000
0001
0000
0010
0000
0100
0000
1000
0001
0010
0100
1000
0000
0001
0000
,
0000
0100
0000
0010
0000
1000
0010
0100
,
0001
0100
0010
1000
0100
0010
0001
0010
,
0100
1000
0001
0100
0000
0100
0010
1000
,
0010
0000
0100
0000
0001
0000
0100
0000
0010
1000
0001
0100
0010
0000
1001
0000
,
0000
0100
0010
1001
0000
0000
0000
0000
;

//---------------dance-single - Renard----------------
#NOTES:
     dance-single:
     Renard:
     Hard:
     8:
     0.661,0.665,0.371,0.026,0.051:
0000
0000
0000
0000
,
0000
0000
0000
0000
,
0000
0000
0000
0000
,
0000
0000
0000
0000
,
0001
0000
0001
1000
0000
1000
0010
0100
,
0001
0000
0100
0000
0000
0010
1000
0000
0001
0000
1000
0000
0100
0000
0010
0000
,
0000
0100
0000
1000
0000
0001
0010
0100
,
1000
0000
0001
0000
1000
0000
0001
0000
1000
0000
0001
0000
1000
0001
1000
0000
,
0001
0100
0010
1000
0010
0100
0001
0100
,
0000
0100
0010
1000
0100
0010
0001
0010
,
0000
0010
0100
1000
0001
0010
0001
0011
,
0000
0000
0110
0000
0100
1000
0001
0100
,
0010
1000
0000
1010
0000
1001
0000
1100
,
0000
1001
0000
1010
0000
1100
0000
0110
,
0000
0010
0001
0000
0010
0100
1000
0001
,
0000
0010
0000
0100
1000
0001
0100
0010
,
1000
0000
1010
0000
0010
0100
0001
0010
,
0000
0000
0011
0000
0010
0100
1000
0001
,
0000
0000
0000
0000
1001
0000
0000
0000
0000
1000
0010
0000
0100
0000
0010
0000
,
0000
0000
0110
0000
0010
1000
0001
0000
,
0100
0010
0000
0110
0000
0101
0000
1100
,
0000
0110
0000
0101
0000
0110
0000
0101
,
0000
0001
0100
0010
1000
0010
0100
0001
,
0000
0110
0000
1010
0000
1001
0000
1000
,
0100
0010
0001
0010
0100
1000
0000
0001
,
0000
0010
0000
0010
0000
0100
1000
0000
,
1010
0000
0101
0000
0001
0100
0010
1000
,
0000
0000
1000
0000
0010
0000
0100
0000
0001
0000
0100
0001
0100
0000
0001
0000
,
0100
0010
1000
0100
0010
0001
0010
0100
,
0000
0100
1000
0001
0100
0010
1000
0010
,
0000
0010
0100
0001
0100
0010
1000
0100
,
0010
0000
0001
0000
0010
0000
0100
0000
1000
0000
0001
1000
0001
0000
1000
0000
,
0001
0100
0010
1000
0010
0100
0001
0100
,
0010
1000
0100
0010
0001
0010
0100
1000
,
0100
0010
0001
0010
1000
0010
0001
0010
,
0100
1000
0100
0001
0100
1000
0100
1000
,
0001
0010
0100
1000
0001
0100
1000
0100
,
0001
0010
0100
1000
0100
0010
0001
0010
,
0100
1000
0010
0100
0001
0100
0010
1000
,
0001
0000
0100
0000
0001
0000
1000
0000
0001
0000
1000
0000
0001
1000
0001
1000
,
0001
0100
0010
1000
0000
0100
0000
0010
,
0000
0001
0000
0010
0100
1000
0001
0100
,
0000
0010
1000
0010
0100
0001
0100
0010
,
0000
1000
0100
0010
0001
0010
0100
0000
,
1000
0001
0100
0010
0000
1000
0000
0010
,
0100
0001
0000
0100
0000
0010
1000
0100
,
0000
0010
0000
0001
0000
0010
0100
1000
,
0001
0100
0010
1000
0000
0010
0100
0001
,
0100
0010
1000
0010
0000
0010
1000
0100
,
0010
0001
0010
0100
1000
0001
0010
0100
,
0000
0110
0000
1100
0000
1000
0100
0010
,
0001
0000
1000
0000
0001
0000
0000
0001
0100
0000
0010
0000
1000
0000
0010
0000
,
0100
0000
0001
0100
0000
0010
1000
0100
,
0010
0001
0010
0100
1000
0001
1000
1001
,
0000
2020
0000
0001
0000
0000
3030
0000
;

//---------------dance-single - Renard----------------
#NOTES:
     dance-single:
     Renard:
     Medium:
     5:
     0.347,0.382,0.077,0.000,0.000:
0000
0000
0000
0000
,
0000
0000
0000
0000
,
0000
0000
0000
0000
,
0000
0000
0000
0000
,
1000
0000
0000
1000
0000
0000
0000
0000
,
0000
0000
0000
0000
0001
0000
0000
0100
,
0000
0010
0000
1000
0000
0000
0000
0000
,
0010
0100
0010
0100
,
0001
0000
0001
0000
1000
0000
0000
0100
,
0000
0000
0010
0000
0001
0000
0000
1000
,
0000
0000
0010
0000
0100
0000
0000
0001
,
0000
1000
0100
1000
,
0001
0010
0000
0001
0000
1000
0000
0010
,
0000
0100
0000
0001
0000
1000
0000
0100
,
0000
0000
1000
0000
0001
0000
0100
0010
,
0000
1000
0000
0010
0000
0100
0000
0001
,
1000
0000
0100
0000
0010
0000
0000
0001
,
0000
0000
0010
0000
0100
0000
0000
1000
,
0000
0000
0100
0000
0010
0000
0000
0001
,
0000
0010
0100
1000
,
0001
0000
0000
0100
0000
0010
0000
1000
,
0000
0010
0000
0100
0000
0001
0000
1000
,
0000
0000
0001
0000
1000
0000
0100
1000
,
0000
0001
0000
0010
0000
0001
0000
1000
,
0001
0000
0100
0000
0010
1000
0000
0010
,
0000
0100
0000
0100
0000
0001
0100
0000
,
0001
0000
0001
0000
0010
0000
0100
1000
,
0000
0001
1000
0010
,
0100
0000
0100
0000
0001
0000
0000
1000
,
0000
0000
0100
0000
0010
0000
0000
0001
,
0000
1000
0000
0010
0000
0000
0000
0000
,
0100
0001
1000
0100
,
0010
0000
0010
0000
0001
1000
0000
0001
,
0000
0010
0000
0010
0000
0100
1000
0000
,
0010
0000
0100
0000
0001
0000
1000
0001
,
0000
1000
0100
0010
,
0001
0000
1000
0000
0001
0100
0001
0100
,
0000
0000
0001
0000
1000
0100
1000
0001
,
0000
0010
0000
0100
0000
0000
0000
0000
,
1000
0100
0010
0001
,
1000
0000
0000
0001
0000
0100
0000
0010
,
0000
1000
0000
1000
0000
0010
0000
0100
,
0000
0001
0000
0001
0000
1000
0000
0100
,
0000
0010
0000
0010
0000
0000
0000
0000
,
0001
0000
0000
0010
0000
0100
0000
1000
,
0000
1000
0000
0010
0000
0100
0000
0001
,
0000
0100
0000
0100
0000
0010
0000
1000
,
0000
0100
0000
0100
0000
0000
0000
0000
,
1001
0000
0000
0110
0000
0000
0000
0000
,
0010
0000
1000
0000
0001
0100
0001
0100
,
0000
0001
0000
1000
0000
0000
0000
0000
,
0100
0010
0001
0010
,
0011
0000
0000
0110
0000
0000
0000
0000
,
0100
0000
1000
0000
0010
0000
0100
0001
,
0000
0110
0000
1001
0000
0000
0000
0000
;

//---------------dance-single - Renard----------------
#NOTES:
     dance-single:
     Renard:
     Easy:
     2:
     0.237,0.278,0.000,0.000,0.000: // measure 1
0000
0000
0000
0000
,  // measure 2
0000
0000
0000
0000
,  // measure 3
0000
0000
0000
0000
,  // measure 4
0000
0000
0000
0000
,  // measure 5
1000
0000
0000
0001
0000
0000
0000
0000
,  // measure 6
0000
0000
0000
0000
1000
0000
0000
0001
,  // measure 7
0000
0000
0000
1000
0000
0000
0000
0000
,  // measure 8
0001
0100
0001
1000
,  // measure 9
0100
0000
0000
0000
0100
0000
0000
0010
,  // measure 10
0000
0000
0001
0000
1000
0000
0000
0010
,  // measure 11
0000
0000
0100
0000
0001
0000
0000
1000
,  // measure 12
0000
0100
0010
0000
,  // measure 13
0001
0000
0000
1000
0000
0001
0000
1000
,  // measure 14
0000
0000
0000
0001
0000
1000
0000
0001
,  // measure 15
0000
0000
1000
0000
,  // measure 16
0001
0000
1000
0000
,  // measure 17
0001
0000
0100
0000
0001
0000
0000
1000
,  // measure 18
0000
0000
0000
0000
0100
0000
0000
0010
,  // measure 19
0000
0000
0000
0000
0001
0000
0000
1000
,  // measure 20
0000
0000
0001
0000
,  // measure 21
0100
0000
0000
0010
0000
0000
0000
1000
,  // measure 22
0000
0000
0000
0100
0000
0000
0000
0010
,  // measure 23
0000
0001
0010
0000
,  // measure 24
0100
0000
1000
0000
,  // measure 25
0001
0000
0100
0000
0001
0000
0000
1000
,  // measure 26
0000
0000
0000
0001
,  // measure 27
1000
0000
0000
0000
0100
0000
0000
0010
,  // measure 28
0000
0000
0001
1000
,  // measure 29
0001
0000
0000
0000
0010
0000
0000
0100
,  // measure 30
0000
0000
0000
0000
1000
0000
0000
0010
,  // measure 31
0000
0000
0000
0100
0000
0000
0000
0000
,  // measure 32
0001
1000
0001
1000
,  // measure 33
0001
0000
0100
0000
0010
0000
0000
1000
,  // measure 34
0000
0010
0000
1000
0000
0000
0010
0000
,  // measure 35
1000
0000
0100
0000
0010
0000
0000
0001
,  // measure 36
0000
0010
0100
1000
,  // measure 37
0001
0000
0000
0000
0100
0000
0000
0001
,  // measure 38
0000
0000
1000
0000
0100
0000
0000
0010
,  // measure 39
0000
0001
0000
0010
0000
0000
0000
0000
,  // measure 40
0100
1000
0001
0100
,  // measure 41
0010
0000
0000
1000
0000
0100
0000
0010
,  // measure 42
0000
0000
0000
0001
0000
0010
0000
0100
,  // measure 43
0000
0000
0000
1000
0000
0010
0000
0100
,  // measure 44
0000
0000
0001
0000
,  // measure 45
1000
0000
0000
0100
0000
0010
0000
0001
,  // measure 46
0000
0000
0000
1000
0000
0010
0000
0100
,  // measure 47
0000
0000
0000
0001
0000
1000
0000
0100
,  // measure 48
0000
0000
0010
0000
,  // measure 49
0001
0000
0000
0001
0000
0000
0000
0000
,  // measure 50
0000
0000
0000
0000
1000
0000
0000
1000
,  // measure 51
0000
0000
0000
0010
0000
0000
0000
0000
,  // measure 52
0100
0000
0001
0000
,  // measure 53
1000
0000
0000
0100
0000
0000
0000
0000
,  // measure 54
0010
0000
0000
0000
0001
0000
0000
1000
,  // measure 55
0000
0001
0000
0100
0000
0000
0000
0000
;
