#TITLE:Narcotic (Royal Gigolos Remix);
#SUBTITLE:;
#ARTIST:Potatoheadz;
#TITLETRANSLIT:;
#SUBTITLETRANSLIT:;
#ARTISTTRANSLIT:;
#CREDIT:;
#BANNER:narcotic.png;
#BACKGROUND:narcotic-bg.png;
#LYRICSPATH:;
#CDTITLE:;
#MUSIC:narcotic.ogg;
#OFFSET:0.000;
#SAMPLESTART:40.595;
#SAMPLELENGTH:12.000;
#SELECTABLE:YES;
#BPMS:0.000=130.000;
#STOPS:;
#BGCHANGES:;

//---------------dance-single - Renard----------------
#NOTES:
     dance-single:
     Renard:
     Challenge:
     9:
     0.698,0.668,0.552,0.030,0.778:
0000
0000
0000
0000
,
0000
0000
0000
0000
,
0000
0000
0000
0000
,
0000
0000
0000
0000
,
0001
0000
0000
1000
0000
0010
0100
0000
0001
0000
0000
0010
0000
0100
1000
0000
,
0001
0000
0000
0010
0000
0100
1000
0000
0001
0000
0100
0000
0010
1000
0010
0000
,
1000
0000
0000
0001
0000
0100
0001
0000
1000
0000
0000
0100
0000
0010
0001
0000
,
0010
0000
0000
0100
0000
1000
0001
0000
0100
0000
0001
0000
1000
0100
1000
0000
,
0001
0000
0000
0010
0000
0100
1000
0000
0001
0000
0000
0100
0000
0010
1000
0000
,
0010
0000
0000
0100
0000
0001
0010
0000
0100
0000
1000
0000
0001
0010
0100
0000
,
1000
0000
0000
0001
0000
0100
0010
0000
1000
0000
0000
0010
0000
0100
0001
0000
,
0100
0000
0000
0010
0000
1000
0010
0000
1000
0000
0001
0000
2002
0000
0000
0000
,
0000
0000
0000
0000
0000
0000
0000
3003
,
1001
0000
0000
0110
0000
0000
1001
0000
0000
0110
0000
0000
1001
0000
0110
0000
,
1001
0000
0001
0000
0101
0000
0100
0000
0110
0000
0010
0000
1010
0000
1000
0100
,
0000
0000
0100
0000
0110
0000
0010
0000
0011
0000
0001
0000
0011
0000
0010
0100
,
0000
0000
0100
0000
1100
0000
1000
0000
1010
0000
0010
0000
1010
0000
1000
0001
,
0000
0000
0001
0000
0101
0000
0100
0000
0010
1000
0001
0100
0000
0000
0010
0000
,
1000
0000
0100
0000
0110
0000
0010
0000
0011
0000
0001
0000
0011
0000
0010
0100
,
0000
0000
0100
0000
1100
0000
1000
0000
1010
0000
0010
0000
0110
0000
0100
0001
,
0000
0001
0100
0000
0010
0000
1000
0000
0100
0000
0010
0000
0001
0010
0100
1000
,
0000
0001
0010
0000
0100
0000
1000
0000
0001
1000
0001
0100
0000
0000
0001
0000
,
1000
0001
0100
0010
0000
1000
0100
0000
0010
0001
0010
0100
0000
1000
0001
0000
,
0100
0001
1000
0010
0000
0100
0001
0000
1000
0100
0010
0001
0000
0010
0100
0000
,
1000
0001
0010
0100
0000
1000
0001
0000
0100
0010
1000
0010
0000
0100
0001
0000
,
0100
0000
0010
0000
1000
0000
0100
0000
0010
0001
0010
0100
1000
0000
0001
0000
,
0100
0001
1000
0010
0000
0100
0001
0000
0100
0010
1000
0100
0000
0010
0001
0000
,
0010
0100
1000
0001
0000
0010
0100
0000
1000
0001
0010
0100
0000
1000
0001
0000
,
0100
0010
1000
0010
0000
0100
0001
0000
0100
0010
1000
0010
0000
1000
0001
0000
,
1000
0000
0000
0001
0000
1000
0001
0000
0100
0000
0000
0010
0000
0100
0010
0000
,
0110
0000
0000
0101
0000
0100
0010
0000
1010
0000
0000
1100
0000
1000
0100
0000
,
0110
0000
0000
0011
0000
0010
0001
0000
0010
0000
0100
0000
1000
0000
0001
0100
,
0001
0000
0000
0101
0000
0100
0010
0000
1010
0000
0000
1100
0000
0100
1000
0000
,
0110
0000
0000
0110
0000
0010
0001
0000
0011
0000
0010
0000
0100
0000
1000
0001
,
0010
0000
0000
0110
0000
0100
1000
0000
1001
0000
0000
0101
0000
0100
0001
0000
,
0110
0000
0000
0110
0000
0010
1000
0000
1010
0000
0010
0000
0100
0000
0001
0100
,
0001
0000
0000
0101
0000
0100
0010
0000
1010
0000
0000
1000
0000
0100
1000
0000
,
1100
0000
0000
0100
0000
0010
0001
0000
0011
0000
0010
0000
0100
0000
1000
0001
,
1000
0001
0100
0010
0000
1000
0010
0000
1000
0010
1000
0001
0000
1000
0001
0000
,
1000
0100
0010
0001
0000
0010
0001
0000
0100
0001
1000
0001
0000
0000
0100
0000
,
0001
0000
0100
0010
0000
1000
0010
0000
1000
0000
0100
0010
0000
0001
0010
0000
,
0100
0000
1000
0001
0000
0010
0100
0000
1000
0000
0001
0100
0010
1000
0001
0000
,
1000
0001
1000
0001
0000
0000
0100
0000
0010
1000
0010
1000
0000
0000
0010
0000
,
0100
0001
0100
0001
0000
0000
0010
0000
0100
0010
0100
0010
0100
0000
0010
0000
,
0100
1000
0100
1000
0000
0000
0100
0000
1000
0010
1000
0010
0000
0000
1000
0000
,
0001
0100
0001
0100
0000
0000
0001
0000
0010
0000
0100
0000
1000
0000
0001
0010
,
0011
0000
0000
0010
0000
0000
0100
0000
1000
0000
0000
0010
0000
0000
0100
0000
,
0110
0000
0000
0010
0000
0000
1000
0000
0100
0000
0010
0000
0001
0000
0010
0000
,
0011
0000
0000
0010
0000
0000
0100
0000
1000
0000
0000
0010
0000
0000
1000
0000
,
1010
0000
0000
0010
0000
0000
0100
0000
0001
0000
0010
0000
0100
0000
1000
0000
,
1001
0000
0000
0100
0000
0000
0010
0000
1010
0000
0000
0100
0000
0000
1000
0000
,
0011
0000
0000
0100
0000
0000
1000
0000
0101
0000
0010
0000
1000
0000
0100
0000
,
0110
0000
0000
0010
0000
0000
0100
0000
1000
0000
0000
0001
0000
0000
0100
0000
,
0101
0000
0000
0100
0000
0000
0010
0000
1000
0000
0001
0000
1000
0000
0200
0000
,
0010
0300
0000
0000
;

//---------------dance-single - Renard----------------
#NOTES:
     dance-single:
     Renard:
     Hard:
     7:
     0.419,0.428,0.089,0.030,0.000:
0000
0000
0000
0000
,
0000
0000
0000
0000
,
0000
0000
0000
0000
,
0000
0000
0000
0000
,
1000
0000
0001
0000
0100
0010
0100
0000
,
0010
0000
1000
0000
0100
0010
0100
0000
,
0010
0000
0001
0000
1000
0001
1000
0000
,
0001
0000
0100
0000
0010
1000
0100
0000
,
0010
0000
0011
0000
0010
0100
1000
0010
,
0100
0000
0101
0000
0100
0010
0100
0000
,
0010
0000
1010
0000
1000
0100
0010
0000
,
0100
0000
1000
0000
0001
0100
0020
0000
,
0000
0000
0000
0000
,
0130
0000
0000
0100
0000
0000
0100
0100
,
0010
1000
0001
0100
0010
1000
0100
0010
,
0001
0000
0010
0100
1000
0010
0100
0001
,
1000
0000
0001
0010
0100
1000
0010
0100
,
0001
0000
0100
0010
1000
0000
1010
0000
,
1001
0000
1000
0100
0010
0001
0010
0100
,
1000
0000
0001
0100
0010
1000
0010
0100
,
0001
0000
1000
0100
1000
0001
0010
0001
,
1000
0001
0100
1001
,
0110
0000
0010
0100
0001
0000
1000
0100
,
1000
0000
0001
0010
0001
1000
0010
0100
,
0001
0000
0100
0000
0010
1000
0100
0010
,
0000
0011
0000
0110
0000
0000
0100
1000
,
0010
0000
0100
0000
0001
0100
0010
1000
,
0010
0000
1000
0000
0100
0010
0001
0010
,
0100
0000
1000
0000
0100
0010
0001
1000
,
0001
0100
0010
1000
,
0100
0010
0001
0010
,
0100
0000
1000
0000
0010
0100
0010
0100
,
0001
0100
0010
1000
,
0100
0000
0010
0000
0001
0010
0001
0000
,
0010
0100
1000
0010
,
0100
0000
0001
0000
1000
0010
1000
0000
,
0010
0000
0100
0000
0001
0000
1000
0100
,
1000
0000
0001
0010
0001
1000
0001
0100
,
0001
0000
0001
1000
0100
0010
0001
1000
,
0001
0000
1000
0100
1000
0010
1000
0001
,
1000
0000
0001
0100
0010
1000
0100
0010
,
0001
0000
0010
0100
1000
0001
0100
0010
,
0100
0000
0001
1000
0100
1000
0001
0010
,
0001
0000
1000
0010
0100
0001
1000
0100
,
1000
0000
0001
0010
0001
1000
0010
0100
,
0001
0000
0001
0100
0010
1000
0100
0010
,
0001
0000
0001
0000
0010
0100
0010
0100
,
1000
0000
1000
0000
0010
0100
0010
0100
,
0001
0000
0001
0000
0010
0100
0010
0100
,
1000
0000
1000
0000
0010
0100
0010
0100
,
0001
0000
0001
0000
1000
0100
1000
0100
,
0010
0000
0010
0000
0001
0010
0100
0010
,
0100
0000
1000
0000
0010
0100
0010
0100
,
0001
0000
1000
0000
0100
0010
0002
2000
,
0000
3003
0000
0000
;

//---------------dance-single - Renard----------------
#NOTES:
     dance-single:
     Renard:
     Medium:
     4:
     0.317,0.321,0.000,0.020,0.000:
0000
0000
0000
0000
,
0000
0000
0000
0000
,
0000
0000
0000
0000
,
0000
0000
0000
0000
,
1000
0000
0001
0000
1000
0001
1000
0000
,
0001
0000
1000
0000
0001
1000
0001
0000
,
0100
0000
0010
0000
0100
0010
0100
0000
,
0010
0000
1000
0000
0001
0100
0001
0000
,
1000
0000
1000
0000
0100
1000
0100
0000
,
0010
0000
0010
0000
0001
0010
0001
0000
,
1000
0000
1000
0000
0001
0100
0001
0000
,
0001
0000
0001
0000
1000
0100
2000
0000
,
0000
0000
0000
0000
,
0001
0000
0000
0001
0000
0000
0001
3000
,
1000
0000
0001
0000
0100
0000
0010
0100
,
0010
0000
1000
0000
0001
0000
0100
0001
,
0100
0000
0001
0000
1000
0000
0100
0010
,
0100
0010
0001
0001
,
1000
0000
0001
0000
0100
0000
0010
1000
,
0010
0000
1000
0000
0100
0000
0010
0001
,
0010
0000
0100
0000
1000
0000
0001
0100
,
0001
0100
0010
0010
,
1000
0000
0100
0000
0010
0000
0001
1000
,
0001
0000
0010
0000
0100
0000
1000
0001
,
1000
0000
0100
0000
0010
0000
0001
1000
,
0001
0010
0100
1000
,
0001
0000
0100
0000
0010
0000
1000
0010
,
1000
0000
0001
0000
0100
0000
0001
1000
,
0001
1000
0100
0010
,
0001
1000
0001
1000
,
0010
0010
0100
0100
,
0001
0001
1000
1000
,
0010
0010
0100
0100
,
0001
0001
1000
1000
,
0100
0100
0010
0010
,
0001
0001
1000
1000
,
0010
0100
0010
0100
,
0001
1000
0100
0010
,
0001
0010
0001
0010
,
0100
1000
0100
1000
,
0010
1000
0010
1000
,
0001
0100
0001
0010
,
0100
0100
1000
1000
,
0010
0100
0001
0100
,
0010
0000
0010
0000
1000
0001
1000
0000
,
0001
0000
0100
0000
0010
1000
0001
0100
,
0001
0001
1000
1000
,
0001
0000
1000
0000
0001
1000
0001
1000
,
0001
0100
0010
0100
,
0010
0000
0100
0000
0010
0100
0010
0100
,
0010
1000
0001
1000
,
0010
0100
0001
1000
,
0010
0100
0001
1000
,
0010
0000
0100
0000
0001
1000
0100
0020
,
0000
0030
0000
0000
;

//---------------dance-single - Renard----------------
#NOTES:
     dance-single:
     Renard:
     Easy:
     2:
     0.252,0.267,0.039,0.089,0.000: // measure 1
0000
0000
0000
0000
,  // measure 2
0000
0000
0000
0000
,  // measure 3
0000
0000
0000
0000
,  // measure 4
0000
0000
0000
0000
,  // measure 5
1000
1000
1000
1000
,  // measure 6
0001
0001
0001
0001
,  // measure 7
0100
0100
0100
0100
,  // measure 8
0010
0010
0010
0010
,  // measure 9
1000
1000
1000
0000
,  // measure 10
0001
0001
0001
0001
,  // measure 11
0100
0100
0100
0000
,  // measure 12
0010
0010
0010
0020
,  // measure 13
0000
0000
0000
0000
,  // measure 14
1030
0000
1000
0000
,  // measure 15
1000
0001
1000
0001
,  // measure 16
0200
0000
0310
1000
,  // measure 17
0200
0000
0310
0001
,  // measure 18
2000
0000
3001
0100
,  // measure 19
0001
1000
0001
1000
,  // measure 20
0020
0000
0130
0001
,  // measure 21
2000
0000
3100
0010
,  // measure 22
0002
0000
1003
0001
,  // measure 23
1001
1000
0001
0000
,  // measure 24
0110
0010
0100
0000
,  // measure 25
1001
0001
1000
0000
,  // measure 26
0110
0100
0010
1000
,  // measure 27
0001
0001
1000
0001
,  // measure 28
1000
1000
0001
1000
,  // measure 29
0001
0001
1000
0001
,  // measure 30
0100
0010
1000
0100
,  // measure 31
1000
1000
0001
0001
,  // measure 32
1000
1000
0001
1000
,  // measure 33
0001
0001
1000
1000
,  // measure 34
0001
1000
0001
1000
,  // measure 35
0010
0010
0100
0100
,  // measure 36
0010
0100
0010
0100
,  // measure 37
0010
0010
0100
0100
,  // measure 38
0010
0100
0010
1000
,  // measure 39
0001
0001
0001
0000
,  // measure 40
1000
0000
1000
0000
,  // measure 41
0001
1000
0001
0000
,  // measure 42
1000
0000
1000
0000
,  // measure 43
1000
1000
1000
0000
,  // measure 44
0001
0000
1000
0001
,  // measure 45
1000
0001
1000
0000
,  // measure 46
0001
1000
0001
0000
,  // measure 47
0100
0000
0100
0000
,  // measure 48
0010
0000
0100
0010
,  // measure 49
1000
0000
0001
0000
,  // measure 50
1000
0001
0100
0010
,  // measure 51
1000
0000
0001
1000
,  // measure 52
0100
0000
0010
0001
,  // measure 53
1000
0000
0001
0100
,  // measure 54
0010
1000
0100
0020
,  // measure 55
0002
0033
0000
0000
;
