#TITLE:Naradno;
#SUBTITLE:;
#ARTIST:Kitsune²;
#TITLETRANSLIT:;
#SUBTITLETRANSLIT:;
#ARTISTTRANSLIT:;
#CREDIT:;
#BANNER:naradno.png;
#BACKGROUND:naradno-bg.png;
#LYRICSPATH:;
#CDTITLE:;
#MUSIC:naradno.ogg;
#OFFSET:0.000;
#SAMPLESTART:35.516;
#SAMPLELENGTH:12.000;
#SELECTABLE:YES;
#BPMS:0.000=162.000;
#STOPS:;
#BGCHANGES:;

//---------------dance-single - Renard----------------
#NOTES:
     dance-single:
     Renard:
     Challenge:
     11:
     0.708,0.776,0.712,0.075,0.707:
0000
0000
0000
0000
,
0000
0000
0000
0000
,
0000
0000
0000
0000
,
0000
0000
0000
0000
,
1000
0100
0011
0100
1010
0100
1001
0100
,
0000
0000
0010
1000
0010
0000
1000
0000
0110
0000
0100
0000
0101
0000
0000
0000
,
0110
1000
1010
0000
1100
0000
0011
0110
,
0000
0000
0001
1000
0010
0000
0100
0000
1001
0000
0100
0000
1010
0000
0000
0000
,
0001
0000
0000
0000
0000
0000
0100
0000
0000
0010
0000
0000
1000
0000
0000
0000
0000
0000
0000
0000
0000
0000
0000
0000
0010
0000
0000
0000
0000
0000
0100
0000
0000
0000
0000
0000
0001
0000
0000
0000
0000
0000
0010
0000
0001
0000
0010
0000
,
0001
0000
0000
0001
0000
0000
0010
0000
0000
0000
0100
1000
0001
0000
0100
0000
,
0010
0000
1000
0001
1000
0000
0000
0000
0010
0000
0000
0000
0100
0001
0100
0000
,
0010
0000
0000
1000
0000
0000
0010
0000
0000
0000
0100
0001
0100
0000
0010
0000
,
1000
0000
0010
0100
0010
0000
0100
0001
0010
0000
0100
0000
0010
0001
0010
0000
,
0100
0000
0100
1000
0000
1000
0010
0000
0000
0000
0001
0000
1001
0000
0000
0000
,
1000
0000
0001
0100
0010
0000
1000
0000
0001
0000
0100
0000
0010
0000
1000
0000
,
0101
0000
0000
1010
0000
0000
1001
0000
0000
0000
1000
0100
0010
0000
0001
0000
,
1100
0000
0000
0000
0000
0000
0010
0000
0000
0001
0000
0000
0010
0000
0000
0000
0000
0000
0000
0000
0000
0000
0000
0000
0100
0000
0000
0000
0000
0000
1000
0000
0000
0000
0000
0000
0100
0000
0000
0000
0000
0000
0010
0000
0001
0000
0010
0000
,
0001
0000
0000
1000
0000
0000
0001
0000
0000
0000
0100
0010
0100
0000
0010
0000
,
1000
0000
0010
1000
0010
0000
0000
0000
0101
0000
0000
0000
0010
1000
0100
0000
,
0010
0000
0000
0110
0000
0000
1100
0000
0000
0000
0001
1000
0010
0000
0100
0000
,
0001
0000
0100
0010
1000
0000
0001
0000
0100
0000
0010
0000
1000
0001
0100
0000
,
1010
0000
0000
1001
0000
0000
1100
0000
0000
0000
0001
0010
0100
0000
1000
0000
,
0001
0000
1000
0010
1000
0000
0001
0000
0100
0000
0010
0000
1000
0000
0001
0000
,
0001
1000
0000
0001
0100
0000
0010
1000
0000
0001
1000
0000
0001
0010
0100
1000
,
0001
0000
0001
0100
0000
0100
0010
0000
0010
1000
0010
0100
,
0001
0000
0100
0010
0000
1000
0000
0000
0010
1000
0000
0000
,
0011
0000
0000
0110
0000
0000
0100
1000
0010
0100
0001
0100
,
0010
0000
1000
0000
0000
1000
0010
0000
0000
0101
0000
0000
,
0110
0000
1001
0000
1010
0000
0101
0000
0001
0100
0000
0100
,
0010
0000
1000
0000
0000
0101
0000
0000
0001
0100
0000
0010
,
1000
1100
0011
1100
,
0001
0000
0001
0100
0010
1000
0001
0000
0001
0100
0000
0100
,
0001
0000
0000
1000
0000
0000
0110
0000
0000
0001
0010
0100
,
1000
0000
0000
1001
0000
1010
0000
0000
0001
0100
0000
0000
,
1010
0000
0000
0101
0000
0000
0001
1000
0100
0010
0001
0010
,
0100
0000
1000
0000
0000
0001
1000
0000
0000
1010
0000
0000
,
0101
0000
1010
0000
1001
0000
1100
0000
0100
1000
0000
0001
,
0010
0000
1100
0000
0000
0011
0000
0000
0001
0100
0000
0100
,
0010
1010
1001
0101
,
0001
0000
0100
0000
0010
1000
0010
0000
0000
0101
0000
0000
,
2002
0000
0000
0000
0000
0000
0000
3003
,
0000
0000
1000
0001
1000
0000
0001
0000
0100
0000
0010
0000
1000
0000
0000
0000
,
1010
0000
0101
0000
1000
0100
0010
0001
,
0000
0000
0010
0100
1000
0000
0100
0000
1000
0000
0001
0000
0100
0000
0000
0000
,
0101
0000
1001
0000
1000
0100
0010
0001
,
0000
0000
0010
0100
1000
0000
0100
0000
1000
0000
0010
0000
0100
0000
0000
0000
,
0001
0100
0010
0000
0010
0000
1000
0100
0010
0000
0010
0000
0001
1000
0001
0000
,
1000
0100
0000
0010
0001
0000
1000
0010
0000
0100
0001
0000
1001
0000
1001
0000
,
1000
0000
1000
0001
0000
0001
0100
0000
0100
0010
1000
0100
,
0010
0000
0010
0001
0000
0010
0000
0000
0010
0100
0000
0100
,
1000
0000
1000
0010
0000
0010
0100
0001
0100
0010
1000
0001
,
0100
0000
0100
0000
0000
0010
1000
0000
0000
0010
0000
0000
,
1000
0000
0010
0000
0100
0000
0001
0000
0001
0010
0000
0010
,
0100
0000
1000
0000
0000
0001
0000
0000
0000
0000
0000
0000
,
1000
0001
0100
0010
,
1000
0000
1000
0010
0100
0001
0100
0000
0010
1000
0000
0000
,
2002
3000
2000
0003
0002
0000
3013
0000
,
1010
0000
0000
0101
0000
0000
0001
0010
0100
1000
0010
0100
,
0001
0000
0100
0010
0000
1000
0000
0000
0010
1000
0000
0000
,
0101
0000
0000
1010
0000
0000
0001
1000
0100
0010
0001
0010
,
0100
0000
1000
0000
0000
0001
1000
0000
0000
1010
0000
0000
,
0101
0000
1001
0000
1100
0000
0110
0000
0100
1000
0000
0010
,
0100
0000
0101
0000
0000
1001
0000
0000
1000
0100
0000
0010
,
0001
0000
0000
0110
0000
0000
0100
0000
1000
0001
0000
0100
,
0010
0000
1000
0000
0010
0100
0001
0000
0000
0110
0000
0000
,
2002
0110
0000
0000
,
0000
0000
0000
0000
0000
0000
0000
3003
,
1001
0000
0110
0000
1000
0010
0100
0001
,
0000
0000
0010
0100
1000
0000
0001
0000
0100
0000
0010
0000
1000
0000
0000
0000
,
1001
0000
0000
0000
;

//---------------dance-single - BlueChaos----------------
#NOTES:
     dance-single:
     BlueChaos:
     Hard:
     9:
     0.700,0.688,0.112,0.496,0.632:
0000
0000
0000
0000
,
0000
0000
0000
0000
,
0000
0000
0000
0000
,
0000
0000
0000
0000
,
1001
0000
1001
0000
0001
1000
0010
0101
,
0000
0000
0001
1000
0001
0000
1000
0000
0100
0000
0100
0000
0020
0000
0000
0030
,
1100
0000
1100
0000
1000
0010
0100
0011
,
0000
0000
0001
0010
0100
0000
0010
0000
0100
0000
0100
0000
2000
0000
0000
0000
,
3001
0000
0100
0010
1000
0000
0001
0000
0010
0000
0100
0000
1000
0000
0001
0100
,
0020
0000
0000
2030
0000
0000
3002
0000
0000
0000
0103
0000
0100
0010
1000
0000
,
0001
0000
0010
0100
2000
0000
0000
0000
0002
3000
0000
0000
1003
0010
0100
0000
,
0020
0000
0000
2030
0000
0000
3200
0000
0000
0000
0310
0000
0010
0100
1000
0000
,
0001
0000
0000
0100
0010
0000
0000
0010
1000
0000
0000
1000
0001
0010
0100
0000
,
2000
0000
0000
3002
0000
0000
0023
0000
0000
0000
0130
0000
1000
0000
0001
0000
,
1000
0000
1000
0100
1000
0000
0010
0000
0100
0000
0001
0000
1000
0000
0100
0000
,
0020
0000
0000
0032
0000
0000
2003
0000
0000
0000
0000
0000
0000
0000
0000
0000
,
3001
0100
0010
0100
0001
0100
0010
0000
,
1000
0100
0010
0100
1000
0100
0010
0000
,
0001
0100
1000
0100
0001
0100
0010
0000
,
0010
1000
0100
0001
0100
1000
0010
0000
,
1000
0000
0000
0010
0100
0000
0000
0100
0001
0000
0000
0001
1000
0100
0010
0000
,
0001
0010
0100
1000
0002
0000
1003
0000
,
1000
0100
0001
0100
1000
0001
1000
0010
,
0100
0001
0000
0001
1000
0000
0001
1000
0000
1000
0100
0000
0010
0000
0001
0000
,
2000
0000
3001
0100
0000
0000
0020
0000
1030
0100
1000
0010
,
0200
0000
0301
0010
0000
0010
0100
0000
0100
1000
0000
1000
,
0002
0000
0103
0010
0000
0000
1000
0100
0010
0001
1000
0010
,
0100
0000
0001
0010
0000
0001
0200
0000
0000
0320
0000
0000
,
2030
0000
3200
0000
0320
0000
0032
0000
1003
0010
0000
0010
,
2000
0000
3010
0000
0000
0010
0100
0000
0100
0001
0000
0001
,
0020
0000
0000
0230
0000
0000
2300
0000
0000
3001
0100
0001
,
0100
0000
0100
0010
1000
0100
0020
0000
0000
0031
0000
1000
,
0010
0000
0010
1000
0000
1000
0010
0000
0010
1000
0100
0010
,
0001
0000
0001
0010
0000
0010
0001
0000
0001
0010
0000
0010
,
0002
0000
0000
0203
0000
0000
0310
1000
0001
0010
0100
1000
,
0010
0000
0010
1000
0000
1000
0002
0000
0000
2003
0000
0000
,
3010
0000
0010
0000
0010
0000
0010
0000
1000
0100
0000
1000
,
0010
0000
0010
0200
0000
0000
0302
0000
0000
1003
0000
0000
,
1010
0000
0000
1100
0000
0000
1000
0000
0000
0001
0010
0001
,
0010
0000
0010
0100
1000
0001
0200
0000
0000
0320
0000
0000
,
1030
1000
0001
0001
0010
0010
0100
0100
,
0000
0000
1000
0001
1000
0000
0001
0000
0100
0000
0100
0000
0020
0000
0000
0000
,
1030
0100
0010
0001
0001
0010
0100
1000
,
0000
0000
0001
0100
0001
0000
0100
0000
0010
0000
0010
0000
1000
0000
0000
0000
,
0001
0100
0001
1000
0001
0010
0001
0100
,
0000
0000
0010
1000
0010
0000
1000
0000
0001
0000
0001
0000
0010
0000
0000
0000
,
0010
0100
1100
0000
1000
1001
0000
0001
,
0100
0010
0000
0010
1000
0000
1000
0001
0000
0001
0100
0000
0010
0000
0010
0000
,
1000
0000
0000
0001
0000
0000
0010
0000
0000
0100
0010
0001
,
1000
0000
0000
1000
0000
0010
0200
0000
0000
0000
0000
0000
,
0310
0000
0000
1000
0000
0000
0001
1000
0010
0100
0001
0010
,
0100
0000
1000
0000
0000
0001
0200
0000
0000
0000
0000
0000
,
0310
0000
1000
0000
0001
0000
0010
0000
0010
0100
0000
0100
,
1000
0000
1000
0001
0000
0200
0000
0000
0000
0000
0000
0000
,
0301
1000
0001
1000
,
0001
0000
1000
0000
0001
0100
0010
0000
0000
1000
0000
0000
,
0200
0000
0000
1000
0000
0000
0010
0000
0000
1300
0010
0100
,
0001
0000
0001
0100
0000
0100
0010
0000
0010
1000
0100
0010
,
0001
0000
0001
0100
0000
0100
0010
0000
0010
0100
0000
0100
,
0002
0000
0000
2003
0000
0000
3100
0010
0100
1000
0001
0100
,
0010
0000
1000
0000
0000
0100
0010
0000
0000
0001
0000
0000
,
0100
0000
0010
0000
1000
0000
0001
0000
0010
0001
0000
0001
,
0100
0000
0100
0010
0000
0000
2020
0000
0000
3030
0000
0000
,
1000
0000
0001
0100
0000
0000
0001
0000
1000
0010
1000
0100
,
0010
0000
0010
0001
0100
0001
0200
0000
0000
0302
0000
0000
,
1003
0100
0010
0100
1000
0001
0100
0010
,
0000
0000
1000
0010
1000
0000
0010
0000
0100
0000
0100
0000
0001
0000
0000
0000
,
0010
0100
1000
0001
0010
0100
1000
0010
,
0000
0000
0100
0001
0100
0000
0001
0000
0100
0000
0010
0000
1000
0000
0000
0000
,
2002
0000
0000
0000
,
3003
0000
0000
0000
;

//---------------dance-single - Renard----------------
#NOTES:
     dance-single:
     Renard:
     Medium:
     5:
     0.464,0.549,0.496,0.468,0.000:
0000
0000
0000
0000
,
0000
0000
0000
0000
,
0000
0000
0000
0000
,
0000
0000
0000
0000
,
1001
1001
0000
0000
,
0000
0001
0100
0000
0001
0000
1000
0000
,
1100
1100
0000
0000
,
0000
1000
0001
0100
0001
1000
0001
0000
,
0000
1000
0100
0000
0010
0000
0001
1000
,
0001
1000
0001
0000
,
0000
0100
0010
0000
0100
0000
0001
1000
,
0001
1000
0100
0000
,
0010
0000
0001
0000
1000
0000
0001
0100
,
0001
1000
0100
0000
,
0010
0001
1000
0001
1000
0000
0001
0000
,
0100
0100
0100
0000
,
0010
1000
0010
0000
1000
0000
0001
0100
,
0001
0001
0001
0000
,
1000
0100
1000
0000
1000
0000
0001
0010
,
0001
0001
0001
0000
,
1000
0010
1000
0000
0001
0100
0001
0000
,
1000
1000
1000
0000
,
0001
0010
0001
0000
1000
0100
1000
0000
,
0020
0230
0302
0000
,
1003
1001
0001
1001
,
1000
1001
1001
0000
,
0010
0110
0100
0110
,
0010
0110
0110
0000
,
0010
1010
1000
1010
,
0010
1010
1010
0000
,
0001
0101
0100
0101
,
0001
0101
0101
0101
,
0002
0203
0320
2030
,
3100
1100
1100
0000
,
2000
3002
0203
0320
,
1030
0101
0101
0000
,
0002
2003
3200
0320
,
0031
1001
1001
0000
,
0002
0203
0320
2030
,
3002
2003
3200
0320
,
0031
0000
0010
0000
0001
0010
0001
0010
,
0000
0100
1000
0001
,
0100
0000
0010
0000
1000
0010
1000
0010
,
0000
1000
0010
0100
,
0101
0000
0110
0000
,
1100
0000
0110
0000
,
0001
0100
0010
0100
,
0010
0100
0010
0000
0100
0010
0100
0000
,
0002
2003
3200
0320
,
0032
0000
2000
0003
,
0020
3000
0230
0000
0302
0000
2003
0000
,
3200
0000
0320
0000
,
0032
2003
3020
0230
,
0302
0000
2003
0000
,
3200
0320
0032
0023
,
0230
2300
3020
0230
,
0002
0000
0000
0000
0000
0303
0000
0000
,
0001
0101
0110
0010
,
1000
1100
1100
0000
,
1000
1010
0110
0100
,
0001
0011
0110
0000
,
0110
0000
1100
0000
,
0011
0110
0110
0000
,
1100
0000
1010
0000
,
0110
0101
1001
1100
,
1000
0000
0001
0000
1000
0000
0001
1000
,
0000
0000
0001
0000
0100
0010
0100
0000
,
0110
0000
0110
0000
0000
0000
0010
1000
,
0000
0001
0100
0000
0001
1000
0100
0000
,
1001
0000
0000
0000
;

//---------------dance-single - Renard----------------
#NOTES:
     dance-single:
     Renard:
     Easy:
     2:
     0.289,0.323,0.084,0.131,0.000: // measure 1
0000
0000
0000
0000
,  // measure 2
0000
0000
0000
0000
,  // measure 3
0000
0000
0000
0000
,  // measure 4
0000
0000
0000
0000
,  // measure 5
1000
0001
0000
0000
,  // measure 6
0000
0100
0010
1000
,  // measure 7
0100
1000
0000
0000
,  // measure 8
0000
0001
0010
1001
,  // measure 9
0000
1000
0001
0100
,  // measure 10
0010
2000
3200
0000
,  // measure 11
0300
0010
0001
1000
,  // measure 12
0010
0200
0302
0000
,  // measure 13
0013
0100
1000
0010
,  // measure 14
0100
0001
0020
0000
,  // measure 15
0130
1000
0010
0100
,  // measure 16
0001
1000
0002
0000
,  // measure 17
0103
0010
1000
0010
,  // measure 18
0100
0001
0020
0000
,  // measure 19
0130
1000
0010
0100
,  // measure 20
0001
0020
0230
0000
,  // measure 21
1300
1000
0010
0010
,  // measure 22
0100
0001
0200
0000
,  // measure 23
0000
0310
0100
0001
,  // measure 24
1000
0100
1000
0000
,  // measure 25
0001
0001
0001
0001
,  // measure 26
1000
0000
1000
0000
,  // measure 27
1000
1000
1000
1000
,  // measure 28
0001
0000
0001
0000
,  // measure 29
0100
0100
0100
0100
,  // measure 30
0010
0000
0010
0000
,  // measure 31
0010
0010
0010
0010
,  // measure 32
0100
0000
0100
0000
,  // measure 33
0010
0000
0010
0000
,  // measure 34
0010
0010
0010
0000
,  // measure 35
0010
0000
0010
0000
,  // measure 36
0010
0010
0010
0000
,  // measure 37
0100
0000
0100
0000
,  // measure 38
0100
0100
0100
0000
,  // measure 39
0001
0000
0001
0000
,  // measure 40
0001
0001
0001
0001
,  // measure 41
1000
0000
1000
0000
,  // measure 42
0001
0000
1000
0000
,  // measure 43
0001
0000
0001
0000
,  // measure 44
1000
0000
0001
0000
,  // measure 45
0100
0001
0100
0000
,  // measure 46
0001
1000
0001
0000
,  // measure 47
1000
0100
1000
0001
,  // measure 48
0010
0100
1000
0001
,  // measure 49
0200
0000
0302
0000
,  // measure 50
1003
0100
0020
0000
,  // measure 51
0031
0000
0010
0000
,  // measure 52
0100
1000
0001
0000
,  // measure 53
0100
0001
1000
0100
,  // measure 54
0010
0000
0010
0000
,  // measure 55
0001
0010
0100
1000
,  // measure 56
0001
0100
0010
2000
,  // measure 57
0001
0001
3001
0000
,  // measure 58
1000
0001
1000
0001
,  // measure 59
0100
0010
0110
0000
,  // measure 60
0010
1000
0100
0010
,  // measure 61
0001
1000
1001
0000
,  // measure 62
0001
0100
0010
1000
,  // measure 63
0100
0010
0011
0000
,  // measure 64
0001
0010
0100
1000
,  // measure 65
0001
0100
0010
1010
,  // measure 66
1001
0000
0000
0000
,  // measure 67
0000
0000
0000
0000
,  // measure 68
0110
0110
0000
0000
,  // measure 69
0000
0010
1000
0100
,  // measure 70
1001
0000
0000
0000
;
