#TITLE:NaiNai69;
#SUBTITLE:;
#ARTIST:DJ Sharpnel;
#TITLETRANSLIT:;
#SUBTITLETRANSLIT:;
#ARTISTTRANSLIT:;
#CREDIT:;
#BANNER:69.png;
#BACKGROUND:69-bg.png;
#LYRICSPATH:;
#CDTITLE:;
#MUSIC:69.ogg;
#OFFSET:0.000;
#SAMPLESTART:23.447;
#SAMPLELENGTH:12.000;
#SELECTABLE:YES;
#BPMS:0.000=265.840;
#STOPS:;
#BGCHANGES:;

//---------------dance-single - Renard----------------
#NOTES:
     dance-single:
     Renard:
     Hard:
     9:
     0.855,0.921,1.000,0.108,0.000:
0000
0000
0000
0000
,
0000
0000
0000
0000
,
0000
0000
0000
0000
,
0000
0000
0000
0000
,
0000
0000
0000
0000
,
0000
0000
0000
0000
,
0000
0000
0000
0000
,
0000
0000
0000
0000
,
0000
0100
0010
0001
0010
0100
1000
0001
,
0000
1000
0001
1000
0001
0000
0110
0000
,
1001
0110
1001
0110
,
1001
0000
0010
0100
0000
1001
0000
0010
,
0100
1001
0110
1001
,
0110
0000
0001
1000
0000
0110
0000
0001
,
1000
0110
1001
0110
,
1001
0000
0010
0100
0000
1001
0000
0010
,
0100
1001
0110
1001
,
0210
0010
0310
0000
,
2010
0010
0010
3010
,
0201
0001
0001
0301
,
0021
0001
0001
0031
,
0120
0100
0100
0130
,
2100
0100
0100
3100
,
2010
0010
0010
3010
,
0101
1010
1100
0011
,
1001
1001
1001
0020
,
0130
0000
0101
0000
0110
0000
0000
1010
,
0000
1000
0000
0100
0010
0000
0000
0000
,
0011
0000
0110
0000
1100
0000
0000
1001
,
0000
0001
0000
0100
0010
0000
0000
0000
,
1010
0000
1001
0000
1001
0000
0000
1000
,
0000
0100
0010
0001
0010
0100
0000
0110
,
0000
0100
1000
0010
,
0100
0001
0000
0100
0010
0000
1000
0000
,
1010
0000
1001
0000
1001
0000
0000
1000
,
0000
0100
0000
0010
0001
0000
0011
0000
,
0110
0000
1100
0000
1001
0000
0000
0001
,
0000
0100
0000
0010
1000
0000
1010
0000
,
1001
0000
1100
0000
0110
0000
0000
0010
,
0000
0100
1000
0010
0100
0001
0000
0100
,
0000
0010
1000
0100
,
0010
0001
0010
0100
1000
0000
0001
0000
,
1001
0000
0001
0100
0000
0110
0000
0010
,
1000
0000
0100
0010
0000
0100
0010
0100
,
1000
0000
0001
1000
0000
0001
0000
0100
,
0001
0000
0100
0010
0000
1000
0100
0010
,
0001
0000
0010
0100
0000
1001
0000
1000
,
0001
0000
0100
0010
0000
1000
0100
0010
,
0021
0001
0001
0001
,
0001
0001
0001
0031
,
0001
0010
0100
1000
0001
0000
0100
0000
,
0010
0000
1000
0100
0000
0010
0000
0001
,
0010
0100
1000
0001
0100
0000
0010
0000
,
1000
0000
0100
0010
0000
0001
0000
0010
,
0100
1000
0001
0100
0010
0000
1000
0000
,
0100
0000
0010
0001
0000
0010
0000
0100
,
1000
0001
0100
0010
1000
0000
0100
0000
,
0010
0000
0001
1000
0100
1000
0100
1000
,
0001
0001
0010
0010
,
0110
0000
0100
1000
0000
0010
0000
1000
,
0010
0010
0100
0100
,
0101
0000
0001
0100
0000
0010
0000
1000
,
0100
0100
0010
0010
,
0011
0000
0010
0100
0000
1000
0000
0001
,
1000
1000
0001
0100
,
0010
0000
0100
0010
0100
0000
0010
0100
,
0010
1000
0001
0100
0010
1000
0100
0010
,
0001
0010
0100
1000
0001
0100
0010
1000
,
0100
1000
0001
0010
0001
1000
0010
1000
,
0001
0100
0001
0100
0010
1000
0100
0010
,
0001
0010
0100
1000
0001
0100
0010
1000
,
0100
0010
0100
0010
0001
0010
0100
1000
,
0001
0100
0010
1000
0001
0010
0100
0000
,
1000
0100
1000
0100
1000
0000
1100
0000
,
0011
0000
0110
0000
0110
0000
0000
0100
,
0000
1000
0000
0010
0100
0000
0110
0000
,
0101
0000
1001
0000
1100
0000
0000
1000
,
0000
0100
0000
0010
0001
0000
0011
0000
,
0110
0000
1100
0000
1001
0000
0000
1001
,
0000
0001
0100
0010
1000
0100
0000
0010
,
0000
0001
0010
0100
,
1000
0001
0100
0010
1000
0000
0100
0000
,
1100
0000
0011
0000
0110
0000
0000
0110
,
0000
0100
0000
1000
0010
0000
0100
0000
,
0001
0000
0110
0000
0110
0000
0000
1010
,
0000
1000
0000
0100
0010
0000
0001
0000
,
0011
0000
0110
0000
0110
0000
0000
0010
,
0000
0100
1000
0010
0100
0000
0001
0100
,
0000
0010
1000
0100
,
0010
0001
0010
0100
1000
0000
0001
0000
,
1001
0000
0000
0000
;

//---------------dance-single - Renard----------------
#NOTES:
     dance-single:
     Renard:
     Medium:
     8:
     0.504,0.650,0.012,0.000,0.000:
0000
0000
0000
0000
,
0000
0000
0000
0000
,
0000
0000
0000
0000
,
0000
0000
0000
0000
,
0000
0000
0000
0000
,
0000
0000
0000
0000
,
0000
0000
0000
0000
,
0000
0000
0000
0000
,
0000
1000
1000
1000
,
0000
0001
0100
0010
,
1000
1000
0010
0010
,
0100
0000
0100
0001
0000
0000
0000
0000
,
0010
0010
0100
0100
,
1000
0000
1000
0001
0000
0000
0000
0000
,
0100
0100
0001
0001
,
0010
0000
0010
0100
0000
0000
0000
0000
,
1000
1000
0010
0100
,
0001
0100
0001
0000
,
0100
0100
0100
0010
,
1000
1000
1000
0100
,
0010
0010
0010
0001
,
0100
0100
0100
0001
,
1000
1000
1000
0010
,
1000
1000
1000
0100
,
0010
0001
1000
0001
,
0100
0000
0000
0000
,
0010
0000
1000
0000
0010
0000
0000
1000
,
0000
0001
0000
0100
0001
0000
0000
0000
,
0010
0000
0100
0000
1000
0000
0000
0001
,
0000
1000
0000
0100
1000
0000
0000
0000
,
0001
0000
0010
0000
0100
0000
0000
1000
,
0000
0000
0001
0000
0100
0010
0000
1000
,
0000
0010
1000
0100
,
0010
0000
0001
0000
,
0010
0000
0100
0000
1000
0000
0000
0001
,
0000
1000
0000
0001
1000
0000
0000
0000
,
0001
0000
0100
0000
0010
0000
0000
1000
,
0000
0010
0000
1000
0010
0000
0000
0000
,
1000
0000
0100
0000
0010
0000
0000
0001
,
0000
0010
0100
1000
0100
0000
1000
0000
,
0100
0000
1000
0000
,
0010
0100
0001
0100
,
0001
0000
0000
0001
0000
0000
0001
0000
,
0100
0000
0000
0100
0000
0000
0100
0000
,
0010
0000
0000
0010
0000
0000
0010
0000
,
1000
0000
0000
1000
0000
0000
1000
0000
,
0100
0000
0000
0100
0000
0000
0100
0000
,
0010
0000
0000
0010
0000
0000
0010
0000
,
0001
0001
0001
0001
,
0001
0001
0001
0001
,
0010
0010
0100
0100
,
1000
1000
0010
0100
,
0001
0001
0010
0010
,
0100
0100
1000
0010
,
0100
0100
0010
0010
,
1000
0100
0010
0001
,
0010
0100
1000
0001
,
0100
0010
1000
0000
,
0010
0010
0100
0000
,
0001
0001
1000
0000
,
0100
0100
0010
0000
,
0001
0001
1000
0000
,
0010
0010
0100
0000
,
0001
0001
0010
0000
,
0100
1000
0001
0100
,
0010
0000
1000
0000
0001
0000
1000
0001
,
1000
1000
0100
0100
,
0010
0010
0001
0001
,
0010
0010
0100
0100
,
1000
1000
0001
0001
,
1000
0010
0100
0001
,
0010
0100
1000
0100
,
0010
0001
1000
0010
,
0100
0000
0000
0000
,
0001
0000
0100
0000
0010
0000
0000
1000
,
0000
0010
0000
1000
0010
0000
0000
0000
,
1000
0000
0100
0000
0010
0000
0000
0001
,
0000
0010
0000
0001
0010
0000
0000
0000
,
0100
0000
1000
0000
0001
0000
0000
0100
,
0000
0000
0010
0000
1000
0010
0000
1000
,
0000
0000
0100
0000
,
0010
0001
0010
0100
,
1000
0000
1000
0000
1000
0000
0000
0001
,
0000
0010
0000
0100
1000
0000
0000
0000
,
0001
0000
0001
0000
0001
0000
0000
0010
,
0000
0100
0000
1000
0001
0000
0000
0000
,
0010
0000
0010
0000
0010
0000
0000
0100
,
0000
1000
0100
0000
1000
0000
0001
0000
,
0100
0010
1000
0100
,
0010
0001
0010
0001
0010
0000
0001
0000
,
1001
0000
0000
0000
;

//---------------dance-single - Renard----------------
#NOTES:
     dance-single:
     Renard:
     Easy:
     7:
     0.389,0.434,0.108,0.000,0.000:
0000
0000
0000
0000
,
0000
0000
0000
0000
,
0000
0000
0000
0000
,
0000
0000
0000
0000
,
0000
0000
0000
0000
,
0000
0000
0000
0000
,
0000
0000
0000
0000
,
0000
0000
0000
0000
,
0000
1000
0001
1000
,
0000
0010
0100
0010
,
1000
0000
0001
0000
,
0100
0000
0001
1000
,
0100
0000
0010
0000
,
0001
0010
0100
0000
,
1000
0000
0010
0000
,
0100
0000
0001
0100
,
0001
1000
0100
0010
,
0001
0001
0001
0000
,
0010
0010
0010
0000
,
0100
0100
0100
0000
,
1000
1000
1000
0000
,
0001
0001
0001
0000
,
0100
0100
0100
0000
,
0010
0010
0010
0000
,
1000
0000
0010
0000
,
0100
0001
1000
0000
,
0001
0001
0001
0000
,
1000
0000
1000
0000
,
0100
0100
0100
0000
,
0010
0000
0010
0000
,
0001
0001
0001
0000
,
1000
0000
0010
0000
,
0100
0001
0100
0001
,
1000
0000
0000
0000
,
0100
0100
0100
0000
,
0010
0000
0010
0000
,
0001
0001
0001
0000
,
1000
0000
1000
0000
,
0010
0010
0010
0000
,
0100
0000
0100
0000
,
0001
1000
0001
0000
,
0100
0010
0100
0000
,
0010
0000
0010
0000
,
1000
0000
1000
0000
,
0001
0000
0001
0000
,
0100
0000
0100
0000
,
0001
0000
0001
0000
,
0010
0000
0010
0000
,
0100
0000
0000
0000
,
0100
1000
0100
1000
,
0100
0000
0100
0010
,
0001
0000
0001
0010
,
0100
0000
0100
0010
,
0001
0000
0000
0000
,
1000
0000
1000
0100
,
0010
0000
0010
0100
,
1000
0000
1000
0001
,
0100
0001
1000
0000
,
0001
0001
0001
0000
,
0100
0000
0100
0000
,
0010
0010
0010
0000
,
1000
0100
1000
0000
,
0001
0001
0001
0000
,
0010
0000
0010
0000
,
0100
1000
0001
0100
,
0010
0000
0010
0000
,
0100
0100
0010
0000
,
1000
0000
0100
0000
,
0010
0000
0001
0000
,
1000
0001
0100
0010
,
1000
1000
0100
0000
,
0010
0000
0001
0000
,
1000
0000
0001
0000
,
0100
0000
0000
0000
,
0010
0010
0010
0000
,
0110
0000
0110
0000
,
1000
1000
1000
0000
,
1001
0000
1001
0000
,
0100
0100
0100
0000
,
0110
0000
0110
0000
,
0001
0001
0001
0000
,
1001
0000
0110
0000
,
1000
0010
1000
0000
,
0001
0100
0001
0000
,
0010
0001
0010
0000
,
0100
1000
0100
0000
,
1000
0001
0100
0000
,
0010
1000
0100
0010
,
0001
0000
0001
0000
,
1000
0001
0100
0000
,
1001
0000
0000
0000
;

//---------------dance-single - Renard----------------
#NOTES:
     dance-single:
     Renard:
     Challenge:
     11:
     1.000,1.000,1.000,0.012,0.024: // measure 1
0000
0000
0000
0000
,  // measure 2
0000
0000
0000
0000
,  // measure 3
0000
0000
0000
0000
,  // measure 4
0000
0000
0000
0000
,  // measure 5
0000
0000
0000
0000
,  // measure 6
0000
0000
0000
0000
,  // measure 7
0000
0000
0000
0000
,  // measure 8
0000
0000
0000
0000
,  // measure 9
0000
0001
0010
0100
1000
0100
0010
0001
,  // measure 10
0000
0100
0000
0001
0100
0000
0001
0000
,  // measure 11
1000
0010
0100
0001
0010
0100
1000
0001
,  // measure 12
0100
0010
1000
0100
0010
0001
0100
1000
,  // measure 13
0001
0100
0010
1000
0100
0010
0001
0010
,  // measure 14
0100
1000
0001
0100
0010
1000
0100
0010
,  // measure 15
0001
0010
1000
0001
0100
0010
1000
0100
,  // measure 16
0010
0001
0010
0100
1000
0001
0010
1000
,  // measure 17
0100
0010
0001
0010
0100
1000
0001
0100
,  // measure 18
0010
0110
0110
0000
,  // measure 19
0010
1000
0010
1000
0010
1000
0010
1000
,  // measure 20
0001
1000
0001
1000
0001
1000
0001
1000
,  // measure 21
0100
1000
0100
1000
0100
1000
0100
1000
,  // measure 22
0001
1000
0001
1000
0001
1000
0001
1000
,  // measure 23
0001
0010
0001
0010
0100
0010
0100
0010
,  // measure 24
0100
1000
0100
1000
0001
0100
0010
1000
,  // measure 25
0100
0010
0001
0010
0100
0001
0100
0000
,  // measure 26
0110
0110
0110
1001
,  // measure 27
0100
0001
1000
0010
0100
0001
1000
0100
,  // measure 28
0010
1000
0100
0010
0001
1000
0010
0100
,  // measure 29
1000
0001
0100
0010
1000
0100
0010
0001
,  // measure 30
0100
0010
0001
1000
0010
0100
0001
0100
,  // measure 31
1000
0010
0100
0001
1000
0100
0010
0001
,  // measure 32
0100
1000
0001
0010
0100
1000
0100
0010
,  // measure 33
1000
0100
0010
0001
1000
0010
0100
0001
,  // measure 34
1000
1000
1000
1000
1000
0000
1000
0000
,  // measure 35
0001
0010
0100
1000
0001
0010
0100
0001
,  // measure 36
0010
0100
1000
0001
0010
0100
1000
0010
,  // measure 37
0100
0001
1000
0010
0100
0001
1000
0100
,  // measure 38
0010
0001
1000
0100
0010
1000
0100
0010
,  // measure 39
0001
1000
0001
0100
0010
0001
0100
0010
,  // measure 40
1000
0100
0010
0001
1000
0100
0010
1000
,  // measure 41
0010
0100
1000
0010
0100
0001
0100
0010
,  // measure 42
1000
0001
0100
0010
1000
0001
0100
0000
,  // measure 43
0110
0000
0110
1001
0000
1001
0000
1001
,  // measure 44
0110
0000
0110
1001
0000
1001
0000
1001
,  // measure 45
0110
0000
0110
1001
0000
1001
0000
1001
,  // measure 46
0110
0000
0000
0000
0110
0000
0000
0000
1000
0000
0001
1000
0001
0000
1000
0000
,  // measure 47
1001
0000
1001
0110
0000
0110
0000
1001
,  // measure 48
0110
0000
0000
0000
0110
0000
1001
0000
0000
0000
1000
0000
0001
1000
0001
0000
,  // measure 49
2001
0010
0100
0001
,  // measure 50
0010
0100
0001
3010
,  // measure 51
1000
0100
0010
0001
1000
0100
0010
0001
,  // measure 52
1000
0100
0010
0001
1000
0100
0010
0001
,  // measure 53
1000
0010
0100
0001
1000
0010
0100
0001
,  // measure 54
1000
0010
0100
0001
1000
0010
0100
0001
,  // measure 55
1000
0100
1000
0001
0010
0001
1000
0010
,  // measure 56
1000
0001
0100
0001
1000
0100
0010
0001
,  // measure 57
1000
0001
1000
0001
,  // measure 58
1000
0000
0001
0001
1000
1000
1000
1000
,  // measure 59
1001
1001
1001
1001
,  // measure 60
1001
0000
1001
0110
0000
0110
0000
0110
,  // measure 61
1001
1001
1001
1001
,  // measure 62
1001
0000
1001
0110
0000
0110
0000
0110
,  // measure 63
0110
0110
0110
0110
,  // measure 64
0110
0000
0110
1001
0000
1001
0000
1001
,  // measure 65
0110
1001
0110
1001
,  // measure 66
0110
0000
0001
1000
0001
0000
0001
0001
,  // measure 67
1000
0100
0010
0001
1000
0100
0010
1000
,  // measure 68
0100
0010
0001
1000
0100
0010
1000
0100
,  // measure 69
0010
0001
1000
0100
0010
1000
0100
0010
,  // measure 70
0001
1000
0100
0010
1000
0100
0010
0000
,  // measure 71
0001
0100
0010
1000
0001
0100
0010
0001
,  // measure 72
0100
0010
1000
0001
0100
0010
0001
0100
,  // measure 73
0010
1000
0001
0100
0010
0001
0100
0010
,  // measure 74
1000
0001
0001
0001
0001
0001
0001
0001
,  // measure 75
1001
0000
1001
0000
1001
0000
0000
0110
,  // measure 76
0000
0001
0000
1000
0010
0000
0000
0000
,  // measure 77
0110
0000
0110
0000
0110
0000
0000
1001
,  // measure 78
0000
0010
0000
0100
0001
0000
0000
0000
,  // measure 79
0110
0000
1001
0000
0110
0000
0000
0110
,  // measure 80
0000
0010
1000
0100
0010
0001
0010
0100
,  // measure 81
1000
0001
0100
0010
1000
0100
0010
0000
,  // measure 82
0000
0001
0010
0100
1000
0000
0001
0000
,  // measure 83
0110
0000
0110
0000
0110
0000
0000
1001
,  // measure 84
0000
1000
0000
0010
1000
0000
0000
0000
,  // measure 85
1001
0000
1001
0000
1001
0000
0000
0110
,  // measure 86
0000
0001
0000
1000
0010
0000
0000
0000
,  // measure 87
0010
0100
0010
0100
0010
0000
0000
0010
,  // measure 88
0000
1000
0100
0010
0001
0010
0000
0011
,  // measure 89
0000
0000
0010
0100
1000
0001
0010
0100
,  // measure 90
1000
0000
0001
0000
0100
0000
0000
0000
0001
1000
0001
1000
0001
0000
0000
0000
,  // measure 91
1111
0000
0000
0000
;
