#TITLE:My Guardian;
#SUBTITLE:;
#ARTIST:Bloomin' Nutters;
#TITLETRANSLIT:;
#SUBTITLETRANSLIT:;
#ARTISTTRANSLIT:;
#CREDIT:;
#BANNER:guardian.png;
#BACKGROUND:guardian-bg.png;
#LYRICSPATH:;
#CDTITLE:;
#MUSIC:guardian.ogg;
#OFFSET:0.000;
#SAMPLESTART:52.074;
#SAMPLELENGTH:12.000;
#SELECTABLE:YES;
#BPMS:0.000=175.000,88.000=87.500,118.000=349.999,120.000=175.000,184.000=87.500,200.000=175.000;
#STOPS:117.500=1.029
;
#BGCHANGES:;

//---------------dance-single - Renard----------------
#NOTES:
     dance-single:
     Renard:
     Challenge:
     9:
     0.628,0.661,0.173,0.052,0.442:
0000
0000
0000
0000
,
0000
0000
0000
0000
,
0000
0000
0000
0000
,
0000
0000
0000
0000
,
0000
0000
0000
0000
,
1000
0100
1000
0100
0010
0100
0010
0100
,
0001
0100
0001
0100
0010
0100
0010
0100
,
1000
0100
1000
0100
1000
0010
1000
0010
,
0001
0010
0100
0010
1000
0000
1001
0000
,
0001
0100
0010
0100
1000
0100
0010
0100
,
0001
0100
0010
0100
1000
0100
0010
0100
,
0001
1000
0100
1000
0001
1000
0010
1000
,
0001
0010
0100
0010
1000
0010
0100
0010
,
0001
1000
0100
1000
0010
1000
0001
1000
,
0100
1000
0010
1000
0001
1000
0100
1000
,
0001
1000
0001
0100
0001
0010
0001
1000
,
0001
0100
0010
0100
1000
0100
0010
0100
,
0001
0100
0001
0100
0001
0100
0001
0100
,
0010
0100
0010
0100
0010
0100
0010
0100
,
0010
1000
0010
1000
0010
1000
0010
1000
,
1001
0000
0000
0000
,
1111
0000
0000
0000
,
1000
0000
0001
0000
0101
0000
0100
0000
0010
1000
0010
0000
1010
0000
0000
0000
,
1000
0000
0100
0000
1100
0000
1000
0000
0001
0010
0100
1000
0001
0000
0000
0000
,
1000
0000
0001
0000
1001
0000
0001
0000
0100
0000
0010
0100
0010
0000
1000
0000
,
0100
0000
1000
0000
1100
0000
1000
0000
0001
0010
0100
0000
0110
0000
0000
0000
,
0100
0000
1000
0000
1010
0000
1000
0000
0001
0100
0001
0000
0011
0000
0000
0000
,
0010
0000
0100
0000
1000
0000
0001
0100
0010
0000
0100
0000
0110
0000
0010
0000
,
1000
0100
1000
0000
1100
0000
1000
0000
0001
0010
0100
0000
0110
0000
0010
0000
,
0001
0000
1000
0002
0200
0003
0020
0330
1001
0000
0000
0000
0000
0000
0000
0000
,
1000
0000
0001
0000
0000
0100
0000
0000
0010
0000
0000
0000
1000
0000
0100
0000
,
0000
0000
0010
0000
0000
0001
0000
0000
0010
0000
0000
0000
0100
0000
1000
0000
,
0000
0000
0010
0000
0000
0100
0000
0000
0001
0000
0000
0000
0100
0000
0010
0000
,
0000
0000
1000
0000
0000
0100
0000
0000
0010
0000
0000
0000
0001
0000
0010
0000
,
0000
0000
0100
0000
0000
1000
0000
0000
0001
0000
0000
0000
0100
0000
0010
0000
,
0000
0000
1000
0000
0000
0100
0000
0000
1000
0000
0000
0000
0001
0000
0010
0000
,
0000
0000
0001
0000
0000
1000
0000
0000
0010
0000
0000
0000
0100
0000
0001
0000
,
0000
0000
0100
0000
0000
0010
0000
0000
1000
0000
0000
0000
0100
0000
1000
0000
,
0001
0000
0010
0000
0100
1000
0000
0000
0010
0000
0000
0000
0100
0000
0001
0000
,
0100
0000
0010
0000
1000
0100
0000
0000
0010
0000
0000
0000
0001
0000
0010
0000
,
0100
0000
1000
0000
0001
0100
0000
0000
0010
0000
0000
0000
1000
0000
0100
0000
,
0010
0000
0001
0000
0010
0100
0000
0000
1000
0000
0000
0000
0010
0000
0100
0000
,
0001
0000
0100
0000
0010
1000
0000
0000
0100
0000
0000
0000
0010
0000
0001
0000
,
0010
0000
0100
0000
1000
0001
0000
0000
0010
0000
0000
0000
0100
0000
1000
0000
,
0010
0000
0100
0000
0001
0100
0000
0000
0010
0000
0000
0000
1000
0000
0100
0000
,
0010
0000
0000
0000
0010
0000
0001
0000
0000
0000
0001
0000
1000
0001
1000
0000
,
0001
0000
0001
0100
0000
0100
1000
0000
1000
0010
0000
0010
0001
0000
0100
0000
,
0100
0000
0100
0001
0000
0001
0010
0000
0010
1000
0000
1000
0100
0000
0100
0000
,
1000
0000
1000
0010
0000
0010
0001
0000
0001
0100
0000
0100
0010
0000
1000
0000
,
0100
0000
0100
0001
0000
0001
0010
0000
0010
1000
0000
1000
0200
0000
0000
0000
,
1300
0000
0100
0000
1000
0010
0000
0100
0001
0000
0010
0001
0000
1000
0010
0000
,
0100
0000
0001
0000
0010
0001
0000
0010
0100
0000
0010
0100
0000
1000
0001
0000
,
1000
0000
0010
0000
0100
0001
0000
0100
0010
0000
1000
0100
0000
0010
0001
0000
,
0010
0000
0100
0000
1000
0001
0000
0010
0100
0000
1000
0001
0000
0100
0010
0000
,
1000
0000
0100
0000
0010
0001
0000
0010
0100
0000
1000
0001
0000
0100
0010
0000
,
1000
0000
0100
0000
1000
0001
0000
0100
0010
0000
1000
0100
0000
0010
0001
0000
,
0010
0000
0100
0000
1000
0001
0000
0100
0010
0000
1000
0100
0000
0010
0001
0000
,
0010
0000
0100
0000
1000
0001
0000
0100
0010
0000
0100
1000
0000
0100
0010
0000
,
0100
0000
0001
0000
0010
0100
0000
1000
0100
0000
0010
0001
0000
0010
0100
0000
,
1000
0000
0010
0000
0100
0001
0000
0100
0010
0000
1000
0100
0000
1000
0001
0000
,
0010
0000
0100
0000
0010
0001
0000
0010
0100
0000
1000
0001
0000
0100
0010
0000
,
1000
0000
0100
0000
0010
0001
0000
0100
0010
0000
1000
0100
0000
1000
0001
0000
,
0010
0000
0100
0000
1000
0001
0000
0100
0010
0000
1000
0001
0000
0100
0010
0000
,
1000
0000
0100
0000
0010
0001
0000
0010
0100
0000
1000
0001
0000
0010
0100
0000
,
1000
0000
0001
0000
0100
0010
0000
1000
0100
0000
0010
0001
0000
0010
0100
0000
,
1001
0000
1001
0110
0000
0110
2002
0000
,
0010
3003
0000
0000
;

//---------------dance-single - Renard----------------
#NOTES:
     dance-single:
     Renard:
     Hard:
     9:
     0.624,0.944,0.286,0.026,0.373:
0000
0000
0000
0000
,
0000
0000
0000
0000
,
0000
0000
0000
0000
,
0000
0000
0000
0000
,
0000
0000
0000
0000
,
0001
0100
0001
0100
0010
0100
0010
0100
,
0010
1000
0010
1000
0100
1000
0100
1000
,
0001
0010
0001
0010
0100
1000
0010
0100
,
0001
0010
0100
1000
0010
0000
1001
0000
,
0001
0100
1000
0100
0000
0100
0010
1000
,
0100
0001
0100
0010
0000
0010
0001
0010
,
1000
0010
0100
1000
0000
1000
0010
0001
,
0010
0100
1000
0100
0000
0100
0001
0010
,
0100
1000
0100
0001
0000
0001
0100
0010
,
0001
0010
1000
0010
0000
0010
0100
1000
,
0010
0100
0001
0100
0000
0100
1000
0100
,
0010
1000
0100
0001
0000
0001
0100
0010
,
0001
0010
0001
0010
0100
0010
0100
0010
,
0100
1000
0100
1000
0010
1000
0010
1000
,
0010
0100
0001
0010
0100
1000
0010
0100
,
0002
0000
0000
0000
,
1113
0000
0000
0000
,
1000
0000
0001
0000
1001
0000
0001
0000
0100
0010
0100
0000
0110
0000
0010
0000
,
1000
0000
0100
0000
1100
0000
1000
0000
0001
0010
0001
0000
1001
0000
1000
0000
,
0010
0000
0100
0000
0110
0000
0100
0000
0001
1000
0001
0000
1001
0000
1000
0000
,
0100
0000
0010
0000
0001
0000
1000
0010
0100
0000
0001
0010
0100
0000
1000
0000
,
0001
0000
0100
0000
0010
0000
1000
0100
0010
0000
0001
0000
0110
0000
1000
0000
,
0010
0000
0100
0000
0001
0000
0100
0010
1000
0000
0100
0000
0110
0000
0010
0000
,
0001
0000
1000
0000
0110
0000
0100
0001
0010
0000
0100
0000
1100
0000
1000
0000
,
0010
0000
0100
0001
1000
0000
0100
0000
1001
0000
0000
0000
0000
0000
0000
0000
,
1000
0000
0001
0000
0000
0100
0000
0000
0010
0000
0000
0000
1000
0000
0100
0000
,
0000
0000
0010
0000
0000
0001
0000
0000
0010
0000
0000
0000
0100
0000
1000
0000
,
0000
0000
0001
0000
0000
0100
0000
0000
0001
0000
0000
0000
1000
0000
0100
0000
,
0000
0000
1000
0000
0000
0001
0000
0000
0010
0000
0000
0000
0001
0000
1000
0000
,
0000
0000
0010
0000
0000
0100
0000
0000
0001
0000
0000
0000
1000
0000
0100
0000
,
0000
0000
0010
0000
0000
0001
0000
0000
0010
0000
0000
0000
0100
0000
1000
0000
,
0000
0000
0010
0000
0000
0100
0000
0000
0001
0000
0000
0000
0100
0000
0010
0000
,
0000
0000
1000
0000
0000
0100
0000
0000
0010
0000
0000
0000
0001
0000
0010
0000
,
0000
0000
1100
0000
0000
1001
0000
0000
0101
0000
0000
0000
0100
0000
0010
0000
,
0000
0000
1010
0000
0000
0110
0000
0000
0101
0000
0000
0000
0001
0000
1000
0000
,
0000
0000
0110
0000
0000
0011
0000
0000
1001
0000
0000
0000
1000
0000
0010
0000
,
0000
0000
0101
0000
0000
1001
0000
0000
1010
0000
0000
0000
0010
0000
1000
0000
,
0000
0000
0110
0000
0000
0011
0000
0000
0101
0000
0000
0000
0001
0000
0010
0000
,
0100
0000
1000
0000
0000
0010
0000
0000
0100
0000
0000
0000
0001
0000
0100
0000
,
0000
0000
0010
0000
0000
1000
0000
0000
0001
0000
0000
0000
0100
0000
0010
0000
,
1000
0000
1000
0010
0000
0010
0100
0000
,
1000
0001
0100
0010
1000
0100
0010
0001
0010
0100
1000
0010
0100
0001
0010
0001
,
1000
0100
1000
0001
0010
0001
1000
0010
1000
0001
0100
0001
1000
0100
0010
0001
,
1000
0010
1000
0001
0100
0001
1000
0100
1000
0001
0010
0001
1000
0010
0100
0001
,
1000
0100
1000
0001
0010
0001
1000
0010
1000
0001
1000
0100
0010
0000
0000
0000
,
0001
0000
0010
0000
0100
1000
0000
0001
0100
0000
0010
1000
0000
0100
0010
0000
,
0001
0010
0100
1000
0001
0100
0010
1000
,
0100
0000
0010
0000
0001
0010
0000
0100
1000
0000
0001
0010
0000
0100
1000
0000
,
0001
0100
0010
1000
0100
0010
0001
1000
,
0100
0000
0010
0000
0001
0010
0000
0100
1000
0000
0001
0010
0000
0100
1000
0000
,
0001
0100
0010
1000
0100
0010
0001
1000
,
0100
0000
0010
0000
0001
0010
0000
0100
1000
0000
0001
0010
0000
0100
1000
0000
,
0001
0100
0010
1000
0100
0010
0001
1000
,
0100
0000
0010
0000
0001
0010
0000
0100
1000
0000
0001
0010
0000
0100
1000
0000
,
0001
0100
0010
1000
0100
0010
0001
1000
,
0100
0000
0010
0000
0001
0010
0000
0100
1000
0000
0001
0010
0000
0100
1000
0000
,
0001
0100
0010
1000
0001
0100
0010
1000
,
0100
0000
1000
0000
0100
1000
0000
0001
0010
0000
0100
1000
0000
0001
0100
0000
,
0010
1000
0100
0010
0001
0100
0010
1000
,
0100
0000
0010
0000
0001
0010
0000
0100
1000
0000
0001
0100
0000
0010
1000
0000
,
0110
0000
0110
1001
0000
0110
2002
0000
,
3013
0000
0000
0000
;

//---------------dance-single - Renard----------------
#NOTES:
     dance-single:
     Renard:
     Medium:
     6:
     0.378,0.429,0.078,0.104,0.000:
0000
0000
0000
0000
,
0000
0000
0000
0000
,
0000
0000
0000
0000
,
0000
0000
0000
0000
,
0000
0000
0000
0000
,
1000
0001
0100
0100
,
0001
1000
0100
0100
,
1000
0001
0100
0100
,
0001
1000
0100
1001
,
1000
0000
0001
0000
0100
0010
0100
0000
,
0001
0000
1000
0000
0100
0010
0100
0000
,
0001
0000
1000
0000
0010
0100
0010
0000
,
0001
0000
1000
0000
0100
0010
0100
0000
,
0001
0000
1000
0000
0010
0100
0010
0000
,
0001
0000
1000
0000
0100
0010
0100
0000
,
0001
0000
1000
0000
0010
0100
0010
0000
,
0001
0000
1000
0000
0100
0010
0100
0000
,
1000
0001
0100
0010
,
1000
0100
0010
0001
,
0010
0000
0100
0000
1000
0001
0100
0000
,
1001
0000
0000
0000
,
0220
0000
0000
0330
,
0010
0000
0100
0001
1000
0100
1100
0000
,
1000
0000
0001
0010
0100
1000
0010
0000
,
0100
0000
1001
0000
0001
0100
0010
1000
,
0100
0010
0000
0011
0000
0110
0000
2100
,
0000
0000
3010
0000
0100
0001
0010
0002
,
0000
0023
0000
0230
0300
0200
1300
0020
,
0000
0000
0000
0000
,
0230
0302
2003
3200
1100
0000
0000
0000
,
1000
0000
0001
0000
1000
0000
0001
1000
,
0001
0000
0100
0000
0010
0000
0100
0010
,
1000
0000
0001
0000
1000
0000
0001
1000
,
0001
0000
0100
0000
0010
0000
0100
0010
,
1000
0000
0010
0000
1000
0000
0010
1000
,
0001
0000
0100
0000
0001
0000
0100
0001
,
1000
0000
0100
0000
1000
0000
0100
1000
,
0001
0000
0010
0000
0001
0000
0010
0001
,
1000
0000
0010
0000
1000
0000
0010
1000
,
0001
0000
0100
0000
0001
0000
0100
0001
,
1000
0000
0001
0000
1000
0000
0001
1000
,
0100
0000
1000
0000
0100
0000
1000
0100
,
0010
0000
0001
0000
0010
0000
0001
1000
,
0001
0000
1000
0000
0010
0000
0100
0010
,
0100
0001
1000
0100
,
0010
0000
0000
0001
0000
0000
1000
0000
,
0001
0000
0100
0000
0010
1000
0100
0010
,
0001
0000
1000
0000
0010
0100
0001
0010
,
0100
0000
1000
0000
0010
0100
0001
1000
,
0100
0000
0010
0000
0100
1000
0010
0000
,
0100
0000
0001
0000
0100
0000
0001
0100
,
0001
1000
0100
1000
,
0001
0000
0010
0000
0100
0000
1000
0100
,
1000
0010
0100
0001
,
0010
0000
0001
0000
1000
0000
0100
0010
,
0001
0010
0100
1000
,
0010
0000
0100
0000
0001
0000
0100
0010
,
0100
0000
0010
1000
0010
0000
1000
0001
,
1000
0001
0100
0010
,
1000
0000
0100
0000
0010
0000
0001
0010
,
0001
0010
0100
1000
,
0010
0000
0100
0000
0001
0000
1000
0100
,
1000
0001
0010
0100
,
1000
0000
0001
0000
0100
0000
0010
0100
,
0010
1000
0100
0010
,
0001
0000
0001
0010
0000
0010
0100
0000
,
1001
0000
0000
0000
;

//---------------dance-single - Renard----------------
#NOTES:
     dance-single:
     Renard:
     Easy:
     2:
     0.266,0.372,0.078,0.000,0.000: // measure 1
0000
0000
0000
0000
,  // measure 2
0000
0000
0000
0000
,  // measure 3
0000
0000
0000
0000
,  // measure 4
0000
0000
0000
0000
,  // measure 5
0000
0000
0000
0000
,  // measure 6
1000
0000
0001
0000
,  // measure 7
0100
0000
0010
0000
,  // measure 8
1000
0000
0100
0000
,  // measure 9
0010
0001
0010
0011
,  // measure 10
0010
0010
0010
0010
,  // measure 11
0100
0010
0100
0010
,  // measure 12
0100
0100
0100
0100
,  // measure 13
1000
0001
1000
0001
,  // measure 14
0100
0100
0100
0100
,  // measure 15
0001
0010
0001
0010
,  // measure 16
0100
0100
0100
0100
,  // measure 17
1000
0010
1000
0010
,  // measure 18
1000
0010
0000
0010
,  // measure 19
0100
0001
0000
0001
,  // measure 20
0010
0100
0000
1000
,  // measure 21
0001
0000
0000
0000
,  // measure 22
0110
0000
0000
0000
,  // measure 23
0010
0000
0110
0000
0100
0001
1000
0000
,  // measure 24
0100
0000
1100
0000
1000
0001
0100
0000
,  // measure 25
0001
0000
1001
0000
0001
1000
0001
0000
,  // measure 26
0100
0010
1000
0100
,  // measure 27
0010
0000
0011
0000
0010
0100
1000
0000
,  // measure 28
0001
0000
0101
0000
0001
0100
0001
0000
,  // measure 29
1000
0000
1001
0000
0001
0100
0010
0000
,  // measure 30
1000
0001
1000
0001
1000
0000
0000
0000
,  // measure 31
0001
0000
1000
0001
,  // measure 32
0100
0000
0010
0000
,  // measure 33
0100
0000
0001
1000
,  // measure 34
0100
0000
0010
0000
,  // measure 35
0001
0000
0010
0100
,  // measure 36
1000
0000
0100
0000
,  // measure 37
1000
0000
0001
1000
,  // measure 38
0001
0000
1000
0000
,  // measure 39
0010
0000
0100
0010
,  // measure 40
0100
0000
0010
0000
,  // measure 41
1000
0000
0001
1000
,  // measure 42
0001
0000
1000
0000
,  // measure 43
0100
0000
0010
0100
,  // measure 44
0010
0000
0001
0000
,  // measure 45
1000
0000
0010
1000
,  // measure 46
0001
0000
0000
1000
0000
0000
0001
0000
,  // measure 47
1000
0000
1000
0000
0001
0000
0001
0100
,  // measure 48
0010
0000
0010
0000
1000
0000
1000
0100
,  // measure 49
0010
0000
0010
0000
0001
0000
0001
0100
,  // measure 50
0010
0000
0010
0000
1000
0100
0010
0000
,  // measure 51
0001
0000
0001
0010
,  // measure 52
0100
1000
0010
0100
,  // measure 53
0001
0000
0001
0100
,  // measure 54
0010
1000
0100
0010
,  // measure 55
0001
0000
0001
0010
,  // measure 56
0100
1000
0010
0100
,  // measure 57
0001
0000
0001
0100
,  // measure 58
0010
1000
0100
1000
,  // measure 59
0001
0001
1000
0000
,  // measure 60
0001
1000
0001
0000
,  // measure 61
1000
1000
0001
0000
,  // measure 62
1000
0001
1000
0000
,  // measure 63
0010
0010
0100
0000
,  // measure 64
0010
0100
0010
0000
,  // measure 65
1000
1000
0010
0000
,  // measure 66
1000
0000
0000
0010
0000
0000
0100
0000
,  // measure 67
1001
0000
0000
0000
;
