#TITLE:Murder;
#SUBTITLE:;
#ARTIST:Evil Activities & DJ Panic;
#TITLETRANSLIT:;
#SUBTITLETRANSLIT:;
#ARTISTTRANSLIT:;
#CREDIT:;
#BANNER:murder.png;
#BACKGROUND:murder-bg.png;
#LYRICSPATH:;
#CDTITLE:;
#MUSIC:murder.ogg;
#OFFSET:0.000;
#SAMPLESTART:72.054;
#SAMPLELENGTH:12.000;
#SELECTABLE:YES;
#BPMS:0.000=159.835,120.000=133.935,120.500=100.595,121.000=77.815,121.500=68.215,122.000=61.015,122.500=79.735,123.000=74.395,123.500=77.215,124.000=79.918,140.000=159.835,236.000=79.918,252.000=159.835;
#STOPS:;
#BGCHANGES:;

//---------------dance-single - Renard----------------
#NOTES:
     dance-single:
     Renard:
     Challenge:
     10:
     0.588,0.700,0.444,0.613,0.262:
0000
0000
0000
0000
,
0000
0000
0000
0000
,
0000
0000
0000
0000
,
0000
0000
0000
0000
,
1000
0001
0000
0100
0010
1000
0100
0010
,
0001
1000
0000
0001
1000
0010
0100
0001
,
0010
0001
0000
1000
0100
0010
0001
2000
,
0002
0000
0000
3003
,
1001
0000
0100
0010
1000
0100
0010
0000
,
0110
0000
0100
1000
0010
0100
0010
0000
,
0101
0000
0001
0010
0100
0010
0001
0000
,
0101
0000
0001
0100
0110
0000
0010
1000
,
1010
0000
1000
0100
0010
0001
1000
0000
,
1001
0000
0001
0100
0010
1000
0010
0000
,
1010
0000
1000
0100
0110
0000
0100
0010
,
0001
0000
0000
0000
0010
0000
0000
0100
1000
0000
0000
0000
1000
0000
0000
0000
1000
0000
0000
0000
1000
0000
0000
0000
1000
0000
0000
0000
0001
0000
0000
0000
,
1001
0110
2010
0100
,
0002
3000
0103
0001
0101
0000
1000
0100
,
0010
0001
0010
0000
0210
0000
1000
0000
,
0002
0000
0300
0000
0003
0000
0100
1000
0100
0000
0000
1100
0000
0000
1010
0000
,
1001
0000
0001
0100
0020
0000
1000
0100
,
0032
0000
1003
0100
0002
1000
1003
0000
,
1001
0000
1000
0100
0020
0000
1000
0100
,
0032
0000
0000
0000
0000
0000
0013
0000
0100
0000
1000
0000
0000
0000
0001
1000
,
2002
0000
0000
3000
,
0200
0003
2000
0300
0020
3000
0002
0030
,
0200
0000
0000
0000
,
0000
0000
0000
0303
,
2020
0000
0000
0030
,
0200
3000
0002
0300
0020
0003
2000
0030
,
0200
0000
0000
0000
0000
0000
0000
3300
,
2002
3000
0200
0003
2000
0300
0200
3000
,
0002
0300
0020
0003
0200
0030
2000
0300
,
0200
3000
0002
0300
0020
0003
2000
0030
,
0200
3000
0002
0300
0200
0003
2000
3300
,
1000
0000
0000
1000
0000
0000
1000
0000
0001
0000
0000
0001
0000
0000
0001
0000
,
0100
0000
0000
0100
0000
0000
0100
0000
0010
0000
0000
0010
0100
0000
0010
0000
,
1000
0000
0000
0010
1000
0000
0010
0000
0100
0000
0000
0001
0100
0000
0001
0000
,
0010
0000
0000
0001
0010
0000
0001
0000
1000
0000
0000
0100
1000
0000
0001
0000
,
1000
0100
0010
0001
1000
0010
0100
0001
1000
0100
1000
0100
0010
0001
0010
0001
,
1000
0010
1000
0010
0100
0001
0100
0001
1000
0010
0100
0001
1000
0100
0010
0001
,
2002
0000
0000
0000
,
0000
0000
3003
0000
,
1010
0000
0000
0010
0100
0000
0001
0000
0011
0000
0000
0001
0010
0000
0100
0000
,
0110
0000
0000
0100
1000
0000
0010
0000
1010
0000
0000
0010
0100
0000
0001
0000
,
0101
0000
0000
0001
0100
0000
0010
0000
0110
0000
0000
0010
1000
0000
0100
0000
,
1001
0000
0000
0000
0000
0000
0000
0000
0000
0000
0000
0000
0001
0000
0100
0000
0001
0000
0100
0000
0001
0000
0100
0000
0010
0000
0000
0000
0000
0000
0000
0000
0000
0010
0000
0000
0000
0000
0000
0000
0000
0000
0010
0000
0000
0000
0000
0000
,
0110
0000
0000
0001
0100
0000
0010
0000
0110
0000
0000
0010
1000
0000
0100
0000
,
1100
0000
0000
0100
0010
0000
0001
0000
0011
0000
0000
0001
0010
0000
0100
0000
,
0110
0000
0000
0000
0000
0000
0000
0000
0000
0100
0000
0000
1000
0000
0000
0000
0000
0000
0001
0000
0000
0000
0000
0000
1001
0000
0000
0000
0000
0000
0001
0000
1000
0000
0001
0000
1000
0000
0000
0000
0000
0000
0000
0000
0000
0000
0000
0000
,
1212
0000
2020
3333
,
0001
0100
0000
0010
0100
0000
0010
0000
1000
0000
0000
0100
0010
0000
0001
0000
,
0010
0000
0000
0100
0010
0000
0100
0000
1000
0000
1010
0000
1001
0000
0000
0000
,
0001
0000
0000
0100
0010
0000
1000
0000
0100
0000
0000
0010
0001
0000
0010
0000
,
0100
0000
0100
1000
0000
1000
0001
0000
0010
0000
0010
0001
0000
0001
1000
0000
,
0011
0110
1100
0000
0012
0000
1003
0000
,
0101
0000
0000
0100
0010
0000
1000
0000
1100
0000
0000
0100
0010
0000
0011
0000
,
2002
0100
0100
3103
,
0201
0000
0000
0000
0001
0000
0000
0000
1000
0000
0000
0010
0000
0000
0301
0000
,
2002
3000
0200
0003
2000
0300
0200
3000
,
0002
0300
0020
0003
0200
0030
2000
0300
,
0200
3000
0002
0300
0020
0003
2000
0030
,
0200
3000
0002
0300
2000
0003
0020
3030
,
1001
0000
0000
0000
;

//---------------dance-single - Renard----------------
#NOTES:
     dance-single:
     Renard:
     Hard:
     9:
     0.453,0.504,0.107,0.364,0.182:
0000
0000
0000
0000
,
0000
0000
0000
0000
,
0000
0000
0000
0000
,
0000
0000
0000
0000
,
0000
0000
0000
0000
,
0000
0000
0000
0000
,
0000
0000
0000
0000
,
0000
0000
0000
0000
,
1000
0000
0001
0000
0000
0000
0100
0010
0100
0000
0010
0000
1000
0000
0100
0000
,
0010
0000
0001
0000
0000
0000
1000
0001
1000
0000
0001
0000
0100
0000
0010
0000
,
1000
0000
0100
0000
0000
0000
0010
0100
0010
0000
0001
0000
0010
0000
0100
0000
,
1000
0000
0001
0000
0000
0000
0100
0010
0100
0000
0010
0000
1000
0000
0100
0000
,
0010
0000
0001
0000
0000
0000
1000
0001
1000
0000
0001
0000
0100
0000
0010
0000
,
1000
0000
0100
0000
0000
0000
1000
0100
1000
0000
0001
0000
0010
0000
0100
0000
,
1000
0000
0001
0000
0000
0000
0100
0001
0100
0000
0001
0000
1000
0000
0100
0000
,
0010
0010
0001
0001
0010
0100
1000
0000
,
0001
0100
0010
0000
0110
0000
0010
1000
,
0100
0000
0000
0000
0110
0000
0000
0000
0010
0000
0000
0010
0001
0000
0010
0000
,
0100
0000
1100
0000
1000
0010
0100
0000
,
0110
0000
0000
0000
0101
0000
0000
0000
1001
0000
0000
0110
0000
0000
1001
0000
,
0110
0000
0010
1000
0100
0000
0100
0010
,
0001
0000
0001
1000
0010
0000
0100
0001
,
0100
0000
1010
0000
1001
0000
1000
0100
,
0010
0000
0000
0001
0010
0100
0000
1000
,
0010
0000
0000
0000
,
0200
0302
0023
2030
,
3200
0000
0000
0000
,
0000
0000
0000
0000
,
0020
0300
0000
0000
,
0032
0203
2300
3020
,
0230
0000
0000
0300
,
2000
3002
0203
2300
,
3002
0023
2030
3200
,
0302
0203
0320
0032
,
0023
0230
2300
0000
,
3010
0000
0000
0100
0000
0000
0001
0100
0000
0000
0000
0010
0000
0000
1000
0000
,
0100
0000
0000
0010
0000
0000
0100
0000
1000
0000
0000
0010
0000
0000
0100
0000
,
0001
0000
0000
0100
0000
0000
0010
0000
1000
0000
0000
0100
0000
0000
0010
0000
,
0001
0000
0000
0010
0000
0000
0100
0000
1000
0000
0000
0001
0000
0000
0100
0000
,
0010
0100
0010
0100
0001
0100
0001
0100
,
1000
0100
1000
0100
0010
0100
0010
0100
,
0010
0000
0000
0000
,
0000
0000
0000
0000
,
0010
0000
0000
0010
1000
0000
0100
0000
0010
0000
0000
0010
0001
0000
1000
0000
,
0001
0000
0000
0001
0100
0000
0010
0000
1000
0000
0000
1000
0100
0000
0010
0000
,
0001
0000
0000
0001
0010
0000
0100
0000
1000
0000
0000
1000
0001
0000
0100
0000
,
0010
0000
0000
0010
1000
0000
0010
0000
1000
0000
0000
0010
0000
0000
0010
0000
,
1000
0000
0000
1000
0010
0000
0100
0000
0001
0000
0000
0001
0010
0000
0100
0000
,
1000
0000
0000
1000
0001
0000
0100
0000
0010
0000
0000
0010
1000
0000
0100
0000
,
0010
0000
0000
0010
0001
0000
0010
0000
0100
0000
0000
0100
1000
0000
0010
0000
,
0100
0000
0001
0000
0100
0000
0010
0000
1000
0000
0000
0100
0000
0000
0010
0000
,
0001
0000
0000
0001
0010
0000
0000
0000
0100
0000
1000
0000
0000
0001
0000
0000
,
0100
0000
0000
0100
0010
0000
1000
0000
0100
0000
0000
0010
0000
0000
0001
0000
,
0010
0000
0000
0010
0100
0000
0000
0000
1000
0000
0010
0000
0100
0000
0001
0000
,
0100
0000
0010
1000
0010
0000
0100
0001
,
0100
0000
0000
0100
0010
0000
0000
0000
1000
0000
0000
0000
0100
0000
0010
0000
,
0001
0000
0010
0100
1000
0000
0001
0100
,
0010
0000
0000
0010
1000
0000
0000
0000
0010
0000
0100
0000
0001
0000
0010
0000
,
0100
0000
0000
0000
1000
0000
0000
0000
0001
0000
0000
0100
0000
0000
0010
0000
,
2000
3020
0032
0203
,
2300
3020
0230
0302
,
0023
2030
3200
0302
,
0023
0230
2300
3010
,
1001
0000
0000
0000
;

//---------------dance-single - Renard----------------
#NOTES:
     dance-single:
     Renard:
     Medium:
     5:
     0.390,0.476,0.195,0.346,0.000:
0000
0000
0000
0000
,
0000
0000
0000
0000
,
0000
0000
0000
0000
,
0000
0000
0000
0000
,
1000
0001
1000
0001
,
1000
0000
0001
0000
1000
0000
0001
1000
,
0001
1000
0001
0100
,
0110
0000
0000
0000
,
0010
1000
0000
0010
1000
0010
0000
1000
,
0010
1000
0000
0010
1000
0010
0000
1000
,
0001
0100
0000
0001
0100
0001
0000
0100
,
0001
0100
0000
0001
0100
0001
0000
0100
,
0010
1000
0000
0010
1000
0010
0000
1000
,
0010
1000
0000
0010
1000
0010
0000
1000
,
0001
0100
0000
0001
0100
0001
0000
0100
,
0001
1000
0001
1000
0100
1000
0001
0000
,
1000
0001
0110
0000
,
1001
0000
1000
0000
0100
1000
0100
0000
,
1000
0001
0110
0100
,
1001
0000
1000
0000
0001
0000
1000
0001
,
1000
0010
0110
0100
,
1001
1000
1100
1000
,
0001
0000
0010
0000
0011
0000
0001
1000
,
0010
0100
0000
0001
0100
0010
0000
1000
,
0020
0000
0000
0000
,
0230
0302
0023
2030
,
3200
0000
0000
0000
,
0000
0000
0000
0300
,
0200
0000
0000
0000
,
2300
3020
0032
0203
,
0320
0000
0000
0000
,
1030
1002
0203
0320
,
1030
0200
0320
0032
,
1003
0020
0230
0302
,
1003
0200
0320
0000
,
0031
0001
0001
0001
,
1000
0000
0001
0000
1000
0000
0010
0100
,
0010
0100
0001
1000
,
0100
0000
1000
0000
0001
0000
0010
0001
,
0010
0100
1000
0001
,
0100
0000
0010
0000
1000
0001
0100
0010
,
1000
0000
0000
0000
,
0000
0000
0000
0000
,
0001
0000
1000
0000
0001
0000
1000
0010
,
1000
0000
0001
0000
0100
0000
0001
1000
,
0001
0100
0010
1000
,
0100
1000
0100
0000
1000
0001
1000
0000
,
0001
0000
0010
0000
0001
0000
0010
0001
,
0010
0001
0010
0100
,
1000
0100
1000
0000
0001
0000
0010
0000
,
0001
1000
0001
0000
0100
0000
0010
0000
,
0100
0100
0110
1001
,
0110
1001
0110
1001
,
1000
0100
0110
1001
,
0110
1001
0110
1001
,
0100
0001
0100
0000
0001
0000
1000
0000
,
0100
0010
0100
0000
0010
0000
0001
0000
,
1000
0000
0010
0000
0100
0000
0001
1000
,
0001
1000
0100
0010
,
0002
0023
0230
2300
,
3020
0230
0302
2003
,
3200
0320
0032
2003
,
3020
0230
0302
2000
,
3013
0000
0000
0000
;

//---------------dance-single - Renard----------------
#NOTES:
     dance-single:
     Renard:
     Easy:
     2:
     0.335,0.476,0.169,0.426,0.000: // measure 1
0000
0000
0000
0000
,  // measure 2
0000
0000
0000
0000
,  // measure 3
0000
0000
0000
0000
,  // measure 4
0000
0000
0000
0000
,  // measure 5
1000
1000
1000
1000
,  // measure 6
0001
0001
0001
0001
,  // measure 7
1000
1000
0001
0001
,  // measure 8
1001
0000
0000
0000
,  // measure 9
0001
0101
0001
0101
,  // measure 10
0001
0101
0001
0101
,  // measure 11
1000
1100
1000
1100
,  // measure 12
1000
1100
1000
1100
,  // measure 13
0001
0011
0001
0011
,  // measure 14
0001
0011
0001
0011
,  // measure 15
1000
1010
1000
1010
,  // measure 16
1000
1010
1000
1010
,  // measure 17
1000
0001
0200
0000
,  // measure 18
0320
0000
1030
1000
,  // measure 19
0100
0010
0002
0000
,  // measure 20
2003
0000
3010
0010
,  // measure 21
0200
0000
0302
0000
,  // measure 22
2003
0000
3200
0000
,  // measure 23
0320
0000
0032
0000
,  // measure 24
2003
0000
0000
0000
,  // measure 25
3010
0000
0000
0000
,  // measure 26
0200
0302
0023
0032
,  // measure 27
0203
0000
0000
0000
,  // measure 28
0300
0000
0000
0000
,  // measure 29
0200
0000
0000
0000
,  // measure 30
0320
2030
3200
2300
,  // measure 31
3020
0000
0000
0000
,  // measure 32
0130
0002
0203
2300
,  // measure 33
3100
0002
0203
2300
,  // measure 34
3100
0002
0203
2300
,  // measure 35
3100
0002
0203
0000
,  // measure 36
0310
0010
0010
0010
,  // measure 37
0010
0010
0010
0010
,  // measure 38
0100
0100
0100
0100
,  // measure 39
0100
0100
0100
0100
,  // measure 40
0001
0001
0001
0001
,  // measure 41
1000
1000
1000
1000
,  // measure 42
1001
0000
0000
0000
,  // measure 43
0000
0000
0000
0000
,  // measure 44
0010
0100
0010
0100
,  // measure 45
0001
1000
0001
1000
,  // measure 46
0100
1000
0100
1000
,  // measure 47
0001
0010
0001
0010
,  // measure 48
0001
1000
0001
1000
,  // measure 49
0010
0100
0010
0100
,  // measure 50
0001
0100
0010
1000
,  // measure 51
0100
1000
0001
0010
,  // measure 52
0100
0100
1000
1000
,  // measure 53
0001
0001
0010
0010
,  // measure 54
0001
0001
0100
0100
,  // measure 55
0010
0010
1000
1000
,  // measure 56
0100
1000
0100
1000
,  // measure 57
0001
0010
0001
0010
,  // measure 58
0001
1000
0001
1000
,  // measure 59
0001
0001
1000
1000
,  // measure 60
0020
0230
0302
2003
,  // measure 61
3020
0230
0302
2003
,  // measure 62
3020
0230
0302
2003
,  // measure 63
3020
0230
0302
1003
,  // measure 64
0110
0000
0000
0000
;
