#TITLE:Mr. Torture;
#SUBTITLE:;
#ARTIST:Helloween;
#TITLETRANSLIT:;
#SUBTITLETRANSLIT:;
#ARTISTTRANSLIT:;
#CREDIT:;
#BANNER:mr.png;
#BACKGROUND:mr-bg.png;
#LYRICSPATH:;
#CDTITLE:;
#MUSIC:mr.ogg;
#OFFSET:0.000;
#SAMPLESTART:38.486;
#SAMPLELENGTH:12.000;
#SELECTABLE:YES;
#BPMS:0.000=190.000;
#STOPS:17.000=0.316
,18.500=0.316
,23.000=0.316
,24.500=0.316
;
#BGCHANGES:;

//---------------dance-single - Renard----------------
#NOTES:
     dance-single:
     Renard:
     Hard:
     9:
     0.800,0.813,0.419,0.036,0.120:
0000
0000
0000
0000
,
0000
0000
0000
0000
,
0000
0000
0000
0000
,
0000
0000
0000
0000
,
1001
0000
0110
1001
0000
2200
0000
3311
,
0000
0000
0000
0000
0011
0000
0110
1100
,
0000
0000
2002
0000
0000
0000
3113
0000
0000
0000
1000
0001
1000
0000
0000
0000
,
0001
0100
0010
0100
0001
0100
0010
0100
,
0001
0100
0010
0100
0001
0100
0010
0100
,
0001
0100
0010
1000
0100
0010
0001
0010
,
0100
1000
0001
0100
0010
1000
0001
0100
,
0001
1000
0100
0010
0001
0010
0100
1000
0010
0100
0001
0100
,
0010
1000
0100
1000
0001
0010
0100
1000
0001
0010
0001
1000
,
1001
0000
0110
1001
,
1000
0100
0010
0001
0010
0100
1000
0010
,
0001
0010
0100
1000
0100
0001
0010
0100
,
1000
0100
0001
0100
1000
0100
0010
0001
,
0010
1000
0010
0001
0010
0100
1000
0100
,
0001
0100
1000
0010
0100
0001
0100
1000
,
0100
0010
0001
0010
0100
1000
0100
0001
,
0100
0010
1000
0100
0010
0001
0010
0100
,
1000
0010
0100
0000
0001
0100
0010
0000
,
1000
0100
0010
0001
0010
0100
1000
0010
,
0001
0010
1000
0100
0001
0100
1000
0010
,
1000
0010
0100
0001
0010
0100
0010
0001
,
0010
0100
1000
0100
0010
0001
0010
0100
,
1000
0010
0001
0010
0100
1000
0100
0001
,
0100
0010
1000
0100
0001
0100
0010
0001
,
0010
0100
1000
0010
0100
0001
1000
0010
,
0100
0001
0100
0010
0110
0000
1001
0000
,
1100
0000
1000
0100
0000
0100
0010
0000
,
0011
0000
0001
0010
0000
0010
0100
0000
,
0110
0000
0100
1000
0000
1000
0010
0000
,
0110
0000
0100
0001
1000
0100
0010
0100
,
0010
0000
0010
0001
0000
0001
0100
0010
,
1000
0000
1000
0100
0000
0100
0010
0001
,
0010
0010
0100
1000
0010
0010
0100
0001
,
0100
0100
0010
1000
0100
0100
0010
0001
,
1000
0000
1000
0001
0000
0001
0100
0010
,
1010
0000
0010
1000
1010
0000
1000
0100
,
0010
0000
0010
0001
0000
0001
1000
0000
,
0001
0100
0101
0000
0100
0010
0110
0000
,
1010
0000
1000
1001
0000
0001
0101
0000
,
0110
0000
0010
1000
0100
0100
0010
0010
,
0001
0000
0001
0010
0000
0010
0100
1000
,
0001
0010
0100
1000
0010
0010
0100
0100
,
0001
0000
0001
1000
0000
1000
0001
0000
,
0001
0100
0010
1000
0001
0100
0010
1000
,
0001
1000
0001
0000
1001
0000
0000
0000
0000
0000
0000
0000
0000
0000
0000
0000
,
0000
0000
0000
0000
1000
1000
1000
1000
,
0000
0001
0100
0000
0010
0000
1000
0000
,
0100
0000
0010
0001
0010
0100
1000
0001
,
0000
0010
0100
1000
0010
0100
0001
0100
,
0010
1000
0001
0100
0010
1000
0001
0100
,
0000
0001
0100
0000
1010
0000
0101
0000
,
1100
0000
0001
0010
0100
1000
0001
1000
,
0001
0000
0100
0001
0100
0000
0010
0000
1000
0000
0100
0000
0010
0000
0001
0000
,
0100
0000
0001
0100
0001
0000
0100
0000
0010
0000
1000
0000
0100
0000
1000
0000
,
0010
0000
1000
0100
1000
0000
0010
0000
0100
0000
0001
0000
0010
0000
0001
0000
,
0100
0000
0001
0100
0001
0000
1000
0000
0100
0000
0010
0000
0001
0000
1000
0001
,
1000
0000
0001
1000
0001
0000
0100
0000
0010
0000
1000
0000
0100
0000
0010
0001
,
0010
0000
0001
0000
0010
0000
0100
0000
1000
0000
0001
0000
0100
0000
0001
1000
,
0001
0100
0010
1000
0010
0100
0001
0010
,
0100
0000
1000
0100
1000
0000
0001
0000
0100
0000
0010
0000
1000
0000
0000
0000
,
0001
0100
0010
1000
0000
1000
0100
0010
,
0001
1000
0010
0100
0000
0100
0001
0100
,
0010
1000
0100
0010
0000
0010
0001
0010
,
0100
1000
0001
0000
0100
0010
1000
0000
,
0001
0100
0010
1000
0000
1000
0001
0010
,
0100
1000
0001
0010
0000
0010
0001
0100
,
0010
1000
0001
0000
0001
0100
0010
0000
,
0010
1000
0100
0010
0001
1000
0001
0001
,
1000
0010
0100
0000
0001
0100
0010
0000
,
1000
0100
0010
0001
0010
0100
1000
0001
,
0100
0010
1000
0000
0010
0100
0001
0000
,
0010
0100
1000
0001
0010
0001
1000
0010
,
1010
0000
0010
1000
0000
1000
0001
0000
,
0101
0000
0001
0100
0010
1000
0001
0000
,
1001
0000
1000
0100
0000
0100
0010
0001
,
0010
0100
1000
0001
0100
0010
1000
0000
,
1001
0000
1000
1010
0000
0010
0110
0000
,
0100
0101
0000
0001
0011
0010
0110
0000
,
1100
0000
1000
1001
0000
0001
0101
0000
,
0100
0101
0000
0100
0110
0010
1010
0000
,
1001
0000
0100
0010
1000
0100
0010
0001
,
0010
0100
1000
0010
0100
0001
0010
0100
,
1000
0010
0100
0001
0100
0010
1000
0001
;

//---------------dance-single - Renard----------------
#NOTES:
     dance-single:
     Renard:
     Medium:
     6:
     0.427,0.465,0.152,0.018,0.000:
0000
0000
0000
0000
,
0000
0000
0000
0000
,
0000
0000
0000
0000
,
0000
0000
0000
0000
,
1000
0000
1000
0001
0000
0001
0000
1000
,
0000
0000
0000
0000
0010
0000
0010
0100
,
0000
0100
0000
0001
0000
0000
0000
0000
,
1000
1000
0100
0100
,
0010
0010
0001
0001
,
1000
1000
0100
0100
,
0010
0010
0001
0001
,
2000
0000
0000
0000
,
0000
0000
0000
0000
,
3001
0000
0110
1001
,
1000
0100
0000
0010
0000
0001
0010
0000
,
0000
0100
1000
0010
,
0100
0001
0000
0100
0000
0010
1000
0000
,
0000
0010
0100
0001
,
1000
0100
0000
0010
0000
0001
0010
0000
,
0000
0100
1000
0001
,
0200
0000
0010
0000
,
0010
0000
0310
0000
,
0100
0001
0000
1000
0000
0100
0010
0000
,
0000
0001
0010
0100
,
1000
0010
0000
0100
0000
0001
1000
0000
,
0000
0100
0010
0001
,
0010
0100
0000
1000
0000
0001
0100
0000
,
0000
0010
1000
0001
,
1000
0100
0010
0001
,
1000
0100
1000
0000
0001
0000
1000
0000
,
0010
0000
0000
0100
0000
0000
0001
1000
,
0001
0000
0100
0010
,
1000
0000
0000
0100
0000
0000
0010
0001
,
0010
0000
0100
1000
,
0001
0000
0000
0100
0000
0000
0010
1000
,
0010
0000
0000
0000
1000
0000
0010
0100
,
0010
0000
0100
0001
,
1000
0000
0100
0000
0010
0001
0010
0000
,
0100
0000
0000
1000
0000
0000
0001
0100
,
0001
0000
0100
0010
,
1000
0000
0000
0100
0000
0000
0010
0001
,
0010
0000
0100
1000
,
0001
0000
0000
0100
0000
0000
0010
0000
,
1000
0000
0010
1000
0010
0000
0100
0000
,
0001
0000
0001
1000
0000
0000
0100
0000
,
0010
0001
0010
0100
,
1000
0000
0000
0001
0000
0000
0100
0000
,
0000
0010
0000
0000
1000
0000
0100
0000
,
0010
0010
0001
0010
,
0001
0000
0010
0000
0100
1000
0100
1000
,
0000
0010
0010
0010
,
0100
0000
0001
0000
1000
0100
1000
0001
,
0000
1000
0001
1000
,
0001
0000
1000
0000
0010
0100
0010
0100
,
0000
0001
1000
0001
,
0010
0100
0010
0100
0010
0100
0010
0100
,
1000
1000
0001
0001
,
1000
0000
1000
0000
0001
0100
0001
0100
,
0000
0001
1000
0001
,
1000
0000
0100
0000
1000
0001
1000
0001
,
0000
1000
0001
0010
,
0001
0000
1000
0000
0010
0100
0010
0100
,
0000
0001
1000
0100
,
0010
0001
1000
0100
,
1100
0000
0000
1001
0000
0000
0101
0000
,
1001
0000
1000
0100
,
0010
0000
0000
0010
0000
0000
0100
0000
,
0010
0000
0001
0010
,
0110
0000
0000
1001
0000
0000
0110
0000
,
1001
0000
1000
0100
,
0010
0000
0001
0000
,
0010
0100
1000
0001
,
1001
0000
0000
0110
0000
0000
1001
0000
,
1001
0000
1000
0100
,
0010
0000
0000
0001
0000
0000
1000
0000
,
0010
0000
0100
0001
,
1000
0000
1100
0011
,
1100
0000
0000
0000
1000
0001
1000
0000
,
0001
0000
0001
0100
0000
0000
0001
0000
,
1000
0100
0010
0001
,
1000
0000
1000
0010
0000
0010
0100
0000
,
0100
0001
0000
0001
1000
0000
0100
0000
,
0010
0000
0010
0001
0000
0001
0010
0000
,
0010
0100
0000
0100
1000
0000
0001
0000
,
0100
0100
0010
0010
,
1000
1000
0100
0100
,
0010
0000
0001
0000
0010
0100
1000
0001
;

//---------------dance-single - Renard----------------
#NOTES:
     dance-single:
     Renard:
     Easy:
     3:
     0.352,0.387,0.045,0.027,0.000: // measure 1
0000
0000
0000
0000
,  // measure 2
0000
0000
0000
0000
,  // measure 3
0000
0000
0000
0000
,  // measure 4
0000
0000
0000
0000
,  // measure 5
1000
0000
1000
0001
0000
0001
0000
0100
,  // measure 6
0000
0000
0000
0000
0010
0000
0010
0100
,  // measure 7
0000
0100
0000
0001
0000
0000
0000
0000
,  // measure 8
1000
1000
0001
0001
,  // measure 9
0010
0010
0100
0100
,  // measure 10
1000
1000
0010
0100
,  // measure 11
0001
0001
0010
0100
,  // measure 12
2000
0000
0000
0000
,  // measure 13
0000
0000
0000
0000
,  // measure 14
3001
0000
0110
1001
,  // measure 15
1000
0100
1000
0100
,  // measure 16
0010
0001
0010
0001
,  // measure 17
0100
0001
0100
0001
,  // measure 18
1000
0010
1000
0010
,  // measure 19
1000
0100
0010
0001
,  // measure 20
0010
0100
1000
0010
,  // measure 21
0200
0000
0010
0000
,  // measure 22
0010
0000
0310
0000
,  // measure 23
0100
0001
0010
0001
,  // measure 24
1000
0100
1000
0100
,  // measure 25
1000
0010
0100
0010
,  // measure 26
0100
0001
0010
0001
,  // measure 27
1000
0100
0010
0100
,  // measure 28
1000
0001
0100
0010
,  // measure 29
2000
0000
0001
0000
,  // measure 30
3010
0000
1100
1010
,  // measure 31
1001
0000
0001
0100
,  // measure 32
0001
0000
1000
0100
,  // measure 33
1000
0000
0001
0010
,  // measure 34
0001
0000
1000
0010
,  // measure 35
0100
0000
0100
0001
,  // measure 36
0010
0000
0100
1000
,  // measure 37
0010
0000
0100
0000
,  // measure 38
0001
0000
1000
0100
,  // measure 39
0010
0000
0010
0001
,  // measure 40
0100
0000
0100
0100
,  // measure 41
0010
0000
0010
1000
,  // measure 42
0001
0000
0100
0001
,  // measure 43
1000
0000
0100
1000
,  // measure 44
0001
0000
1000
0010
,  // measure 45
0100
0000
0100
0000
,  // measure 46
0001
1000
0001
1000
,  // measure 47
0100
0000
0100
0000
,  // measure 48
1000
0001
1000
0001
,  // measure 49
0100
0100
0010
1000
,  // measure 50
0001
0100
0010
1000
,  // measure 51
0100
0100
0010
0010
,  // measure 52
0001
1000
0001
0100
,  // measure 53
0010
0010
0010
0010
,  // measure 54
0010
0010
0100
0001
,  // measure 55
1000
0100
0100
0100
,  // measure 56
1000
0001
1000
0001
,  // measure 57
0100
0000
0100
0010
,  // measure 58
1000
0100
0100
0100
,  // measure 59
0010
0000
0010
0001
,  // measure 60
0100
0010
0100
0010
,  // measure 61
1000
0000
1000
0100
,  // measure 62
0010
0010
0010
0010
,  // measure 63
0001
0000
0001
0100
,  // measure 64
0010
1000
0100
0010
,  // measure 65
0001
0000
1000
0001
,  // measure 66
1000
0000
0001
1000
,  // measure 67
0001
0000
1000
0001
,  // measure 68
1000
0000
0010
0100
,  // measure 69
0010
0000
0100
0001
,  // measure 70
1000
0000
0100
0010
,  // measure 71
0001
0000
0001
0000
,  // measure 72
1000
0000
1000
0001
,  // measure 73
1000
0000
1000
0010
,  // measure 74
0100
0000
0100
0001
,  // measure 75
0010
0000
0010
0001
,  // measure 76
1000
0000
1000
0001
,  // measure 77
0100
0000
0100
0000
,  // measure 78
0010
0000
1000
0001
,  // measure 79
1000
0000
0001
0000
,  // measure 80
1000
0000
0001
1000
,  // measure 81
0001
0000
1000
0000
,  // measure 82
0001
0000
0100
0010
,  // measure 83
1000
0000
0010
0000
,  // measure 84
1000
0000
0001
0100
,  // measure 85
0010
1000
0010
1000
,  // measure 86
0010
1000
0010
1000
,  // measure 87
0001
0000
0100
0000
0001
0000
1000
0010
;
