#TITLE:Move Your Dead Bones;
#SUBTITLE:;
#ARTIST:Dr. Reanimator;
#TITLETRANSLIT:;
#SUBTITLETRANSLIT:;
#ARTISTTRANSLIT:;
#CREDIT:;
#BANNER:bones.img;
#BACKGROUND:bones-bg.img;
#LYRICSPATH:;
#CDTITLE:;
#MUSIC:bones.ogg;
#OFFSET:0.000;
#SAMPLESTART:59.077;
#SAMPLELENGTH:12.000;
#SELECTABLE:YES;
#BPMS:0.000=130.000;
#STOPS:;
#GENRE:Eurodance;

//---------------dance-single - Renard----------------
#NOTES:
     dance-single:
     Renard:
     Challenge:
     10:
     0.748,0.764,0.334,0.000,0.755: // measure 1
0000
0000
0000
0000
,  // measure 2
0000
0000
0000
0000
,  // measure 3
0000
0000
0000
0000
,  // measure 4
0000
0000
0000
0000
,  // measure 5
0001
0010
0100
0000
1000
0001
0000
0100
0010
0000
1000
0100
0000
0010
0001
0000
,  // measure 6
0010
0100
1000
0000
0001
0100
0000
0010
1000
0000
0001
0100
0000
0001
1000
0000
,  // measure 7
0100
1000
0001
0000
0010
0100
0000
1000
0001
0000
1000
0010
0000
1000
0001
0000
,  // measure 8
0110
0000
0000
1001
,  // measure 9
0001
0010
0100
1000
0000
0001
1000
0000
0010
1000
0000
0001
0100
0010
1000
0000
,  // measure 10
0100
0010
0001
0010
0000
0100
1000
0000
0001
0010
0000
0100
1000
0001
0100
0000
,  // measure 11
0010
1000
0010
0100
0000
0001
0100
0000
0010
1000
0000
0100
0010
0001
0010
0000
,  // measure 12
0100
0010
0001
1000
0000
0001
1000
0000
0010
1000
0000
0001
0100
0010
1000
0000
,  // measure 13
0100
1000
0001
0010
0000
0010
0100
0000
1000
0001
0000
0100
0010
1000
0010
0000
,  // measure 14
1000
0100
0010
0001
0000
0001
0010
0000
0010
0100
0000
0100
1000
0001
0100
0000
,  // measure 15
0010
1000
0010
1000
0000
1000
0010
0000
0010
0100
0000
0100
0001
0010
0100
0000
,  // measure 16
1000
0001
1000
0010
0000
0100
0010
0000
0100
0001
1000
0000
1001
0000
0000
0000
,  // measure 17
1000
0000
0001
0100
0010
0000
1000
0100
0010
0000
0001
0000
0010
0000
0100
0000
,  // measure 18
1000
0000
0001
0100
0010
0000
1000
0010
1000
0000
0010
0000
0100
0000
0001
0000
,  // measure 19
0010
0000
0100
0010
0001
0000
0010
0100
1000
0000
0001
0000
0100
0000
0010
0000
,  // measure 20
1000
0000
0010
1000
0010
0000
0100
0000
0001
0000
0100
0000
0101
0000
0000
0000
,  // measure 21
0001
0000
0010
0100
1000
0000
0001
0000
1000
0000
0010
0100
0010
0000
0100
0000
,  // measure 22
0001
0000
0010
0100
0010
0000
0100
0000
1000
0000
0001
1000
0001
0000
1000
0000
,  // measure 23
0010
0000
1000
0010
0100
0000
0001
0000
0010
0000
0100
1000
0001
0000
0010
0000
,  // measure 24
0100
0000
1000
0001
0100
0000
0010
0000
1000
0000
0001
0000
1001
0000
0000
0000
,  // measure 25
0001
0000
0100
0000
0101
0000
0100
0000
0010
1000
0010
0000
1010
0000
1000
0000
,  // measure 26
0100
0000
0010
0000
0110
0000
0010
0000
0001
0010
0001
0000
0011
0000
0010
0000
,  // measure 27
0100
0000
1000
0000
1100
0000
1000
0000
0001
0100
0001
0000
0101
0000
0100
0000
,  // measure 28
0101
0100
0110
0010
1010
0000
1001
0000
,  // measure 29
1000
0100
0010
0000
0110
0000
0010
0001
0010
0100
0010
0000
0110
0000
0100
1000
,  // measure 30
0010
1000
0010
0000
1010
0000
0010
0100
0001
0010
0100
0000
0110
0000
0100
0010
,  // measure 31
0100
1000
0001
0000
1001
0000
0001
0100
0010
0100
0010
0000
1010
0000
1000
0000
,  // measure 32
1010
0010
0110
0010
0011
0010
1000
0100
,  // measure 33
0100
0000
1000
0001
0010
0000
0100
0010
0000
0100
1000
0000
0010
0000
0100
0000
,  // measure 34
0001
0000
0100
0010
1000
0000
0010
1000
0000
0001
0100
0000
0001
0000
0010
0000
,  // measure 35
0100
1000
0001
0010
0100
1000
0001
0100
,  // measure 36
0010
0000
0100
0000
0110
0000
0010
1000
0100
0000
0010
0000
0110
0000
0010
0000
,  // measure 37
0001
0000
0010
0100
1000
0000
0001
0010
0000
0100
1000
0000
0001
0000
0100
0000
,  // measure 38
0010
0000
1000
0010
0100
0000
0001
0100
0000
0010
1000
0000
0100
0000
0010
0000
,  // measure 39
0001
0000
0010
0000
0011
0000
0010
0100
0010
0000
0100
0000
0110
0000
0100
0000
,  // measure 40
1000
0100
1100
1000
0010
1000
1010
0000
,  // measure 41
0010
0000
1000
0001
0100
0000
0001
0100
0000
0010
0100
0000
0010
0000
1000
0000
,  // measure 42
0100
0000
0010
0001
0010
0000
0100
0010
0000
0100
1000
0000
0001
0000
1000
0000
,  // measure 43
0010
0000
1000
0010
1000
0000
0001
0100
0001
0000
0010
0000
0100
0000
0010
0000
,  // measure 44
0100
0000
1000
0100
1000
0000
0100
0010
0100
0000
0010
0000
0001
0000
0010
0000
,  // measure 45
0001
0000
0010
0100
1000
0000
0001
0100
0000
0010
1000
0000
0010
0000
0100
0000
,  // measure 46
0001
0000
0100
0010
1000
0000
0100
0010
0000
0001
0010
0000
0100
0000
1000
0000
,  // measure 47
0001
0010
0100
1000
0001
0000
1000
0000
1001
0000
0001
0100
0010
1000
0010
0000
,  // measure 48
1000
0001
0100
0010
1000
0000
0100
0000
0010
0000
0001
0000
1001
0000
0000
0000
,  // measure 49
1000
0010
0100
0001
0000
0010
0100
0000
1000
0100
0000
1000
0001
0010
0100
0000
,  // measure 50
0010
0100
1000
0001
0000
0100
0010
0000
1000
0100
0000
1000
0001
0010
0100
0000
,  // measure 51
1000
0010
0100
0001
0000
0100
0010
0000
1000
0010
0000
1000
0001
1000
0100
0000
,  // measure 52
0010
0001
0010
0100
0000
1000
0001
0000
0010
0001
0000
0100
0001
1000
0010
0000
,  // measure 53
1001
0000
0000
0000
;

//---------------dance-single - Renard----------------
#NOTES:
     dance-single:
     Renard:
     Hard:
     8:
     0.535,0.500,0.122,0.000,0.263:
0000
0000
0000
0000
,
0000
0000
0000
0000
,
0000
0000
0000
0000
,
0000
0000
0000
0000
,
1000
0000
0001
0000
0100
0000
0001
0000
1000
0000
0100
1000
0100
0000
1000
0000
,
0001
0000
0010
0000
0001
0000
1000
0000
0001
0000
0010
0001
0010
0000
0001
0000
,
0100
0000
0010
0000
1000
0000
0100
0000
0010
0000
0001
0100
0001
0000
0100
0000
,
0010
1000
0100
1000
0001
0000
1001
0000
,
0001
0000
0100
0010
0000
1000
0010
0000
1000
0000
0010
0000
1000
0000
0000
0000
,
0001
0000
0100
0001
0000
0010
0001
0000
0100
0000
0010
0000
1000
0000
0000
0000
,
0100
0000
1000
0001
0000
0010
0100
0000
0010
0000
0100
0000
1000
0000
0000
0000
,
0010
0000
1000
0001
0000
0100
0001
0000
0100
0000
0010
0000
1000
0000
0000
0000
,
0100
0000
0010
0001
0000
0010
0100
0000
1000
0000
0001
0000
0100
0000
0000
0000
,
0010
0000
1000
0010
0000
0100
0001
0000
0100
0000
0010
0000
1000
0000
0000
0000
,
0100
0000
0010
0001
0000
0010
0100
0000
1000
0000
0001
0000
0100
0000
0000
0000
,
0010
0000
1000
0010
0000
1000
0001
0000
0100
0000
0000
0000
1001
0000
0000
0000
,
0001
0000
0100
0000
0010
0000
1000
0000
0010
0000
0000
0100
0000
0000
0001
0000
,
0010
0000
0100
0000
1000
0000
0001
0000
0100
0000
0000
0010
0000
0000
1000
0000
,
0010
0000
0100
0000
0001
0000
0010
0000
0100
0000
0000
1000
0000
0000
0001
0000
,
0100
0000
0010
0000
1000
0000
0010
1000
0010
0000
1000
0000
0010
0000
0000
0000
,
1000
0000
0100
0000
0010
0000
0001
0000
0010
0000
0000
0100
0000
0000
1000
0000
,
0001
0000
0100
0000
0010
0000
1000
0000
0010
0000
0000
0100
0000
0000
0001
0000
,
0010
0000
0100
0000
1000
0000
0001
0000
0100
0000
0000
0010
0000
0000
1000
0000
,
0010
0000
0100
0000
0001
0000
0010
0001
0010
0000
0100
0000
0010
0000
0100
0000
,
1000
0010
1000
0010
1000
0100
1000
0100
,
1000
0001
1000
0001
1001
0000
0000
0000
,
0001
0010
0001
0010
0001
0100
0001
0100
,
0001
1000
0001
0000
1000
0000
0001
0000
1001
0000
0000
0000
0000
0000
0000
0000
,
1000
0010
1000
0000
0010
0000
1000
0000
0010
0000
1000
0000
0010
0000
0000
0000
,
0100
0001
0100
0000
0001
0000
0100
0000
0001
0000
0100
0000
0001
0000
0000
0000
,
0010
0000
0000
0010
0001
0000
0010
0000
0100
0000
0000
0100
1000
0000
0010
0000
,
1010
0000
1001
0000
1100
0000
1000
0100
,
0010
0000
0000
0010
0001
0000
0010
0000
0100
0000
1000
0000
0001
0000
0000
0000
,
0100
0000
0000
0100
0010
0000
1000
0000
0010
0000
1000
0000
0100
0000
0010
0000
,
0001
0010
0100
1000
0000
0001
0100
0010
,
1000
0000
0010
0100
0001
0010
0100
1000
,
0001
0000
1000
0001
1000
0000
0000
0001
0000
0000
1000
0000
0010
0000
1000
0000
,
0001
0000
0100
0001
0100
0000
0000
0001
0000
0000
1000
0000
0100
0000
0010
0000
,
0001
0010
0100
1000
0000
0001
0100
0010
,
1000
0000
1001
0000
0001
0100
1001
0000
,
0100
0000
0000
0100
1000
0000
0100
0000
0010
0000
0001
0000
1000
0000
0000
0000
,
0010
0000
0000
0010
0100
0000
0001
0000
0100
0000
0001
0000
0010
0000
0100
0000
,
1000
0100
0010
0001
0000
1000
0010
0100
,
0001
0000
0100
0010
1000
0100
0010
0001
,
1000
0000
0001
1000
0001
0000
0000
1000
0000
0000
0001
0000
0100
0000
0001
0000
,
1000
0000
0010
1000
0010
0000
0000
1000
0000
0000
0001
0000
0010
0000
0100
0000
,
1000
0100
0010
0001
0000
1000
0010
0100
,
0001
0000
1001
0000
1000
0010
1001
0000
,
1000
0000
1000
0001
0000
0001
1000
0000
0010
0000
0100
0000
0001
0000
0000
0000
,
1000
0000
1000
0001
0000
0001
1000
0000
0010
0000
0100
0000
0001
0000
0000
0000
,
0001
0000
0001
1000
0000
1000
0001
0000
0100
0000
0010
0000
1000
0000
0000
0000
,
0001
0000
0001
1000
0000
1000
0001
0000
0100
0000
0010
0000
1000
0000
0000
0000
,
1001
0000
0000
0000
;

//---------------dance-single - Renard----------------
#NOTES:
     dance-single:
     Renard:
     Medium:
     6:
     0.375,0.369,0.061,0.020,0.116:
0000
0000
0000
0000
,
0000
0000
0000
0000
,
0000
0000
0000
0000
,
0000
0000
0000
0000
,
1000
0000
0001
0000
0100
0010
0100
0000
,
0010
0000
1000
0000
0001
1000
0001
0000
,
0100
0000
0001
0000
1000
0100
1000
0000
,
0001
0100
0001
1000
0001
0000
1001
0000
,
0001
0000
0000
0100
0000
0000
0010
0000
1000
0000
0000
0000
0000
0000
0000
0000
,
0001
0000
0000
1000
0000
0000
0100
0000
0010
0000
0000
0000
0000
0000
0000
0000
,
0001
0000
0000
0010
0000
0000
0100
0000
1000
0000
0000
0000
0000
0000
0000
0000
,
0001
0000
0000
0100
0000
0000
0001
0000
1000
0000
0000
0000
1001
0000
0000
0000
,
1000
0000
0000
0100
0000
0000
0010
0000
0001
0000
0000
0000
0000
0000
0000
0000
,
0010
0000
0000
0100
0000
0000
1000
0000
0001
0000
0000
0000
0000
0000
0000
0000
,
0100
0000
0000
0001
0000
0000
1000
0000
0100
0000
0000
0000
1000
0000
0000
0000
,
0001
0100
0001
1000
0100
0000
1001
0000
,
1000
0001
0100
0001
1000
0000
0000
0000
,
0001
1000
0100
1000
0001
0000
0000
0000
,
1000
0001
0010
0001
1000
0000
0000
0000
,
0001
1000
0010
0000
0010
1000
0001
0000
,
1000
0100
1000
0100
1000
0000
0100
0000
,
0010
0100
0010
0100
0010
0000
0100
0000
,
0010
0001
0010
0001
0010
0000
0001
0000
,
1000
0001
1000
0000
0001
1000
0001
0000
,
1000
0000
0001
0000
0100
0010
1000
0000
,
0010
0000
1000
0000
0001
0100
0010
0000
,
1000
0000
0100
0000
0010
0001
1000
0000
,
0001
0000
0010
0000
0100
1000
0001
0000
,
0100
0000
0001
0000
0100
0010
1000
0000
,
0010
0000
0100
0001
1000
0000
0100
0000
,
1000
0001
0100
0000
0001
1000
0100
0000
,
2002
0010
3013
0000
,
0001
0000
0000
0000
1000
0000
0000
0010
0000
0000
0000
0000
0100
0000
0001
0000
,
1000
0000
0000
0000
0100
0000
0000
0010
0000
0000
0000
0000
0000
0000
0001
0000
,
0010
0000
0100
1000
0010
0000
0100
0001
,
0100
0001
1000
0100
,
1000
0000
0000
0000
0001
0000
0000
1000
0000
0000
0001
0000
0100
0000
0000
0000
,
0010
0000
0000
0000
1000
0000
0000
0100
0000
0000
0000
0000
0010
0000
0000
0000
,
0001
0010
0100
0000
1000
0100
1000
0000
,
0010
1000
0010
1000
0001
1000
0001
0000
,
0001
0000
0000
0000
0100
0000
0000
0010
0000
0000
1000
0000
0100
0000
0000
0000
,
0010
0000
0000
0000
0001
0000
0000
0010
0000
0000
0100
0000
1000
0000
0000
0000
,
0001
1000
0001
0100
0000
0010
1000
0100
,
0000
0100
1000
0000
0001
0100
0001
0000
,
1000
0000
0000
0000
0100
0000
0000
1000
0000
0000
0001
0000
0100
0000
0000
0000
,
0010
0000
0000
0000
1000
0000
0000
0001
0000
0000
1000
0000
0100
0000
0000
0000
,
0010
0001
0010
0100
0000
1000
0010
0100
,
0001
0000
1000
0001
0100
0000
1001
0000
,
1000
0000
0000
0100
0000
0000
0010
0000
0000
0001
0000
0000
0010
0000
0100
0000
,
1000
0000
0000
0001
0000
0000
0010
0000
0000
0100
0000
0000
1000
0000
0010
0000
,
0100
0000
0000
0001
0000
0000
0100
0000
0000
0010
0000
0000
1000
0000
0100
0000
,
0010
0000
0000
0001
0000
0000
0010
0000
0000
0001
0000
0000
1000
0000
0001
0000
,
1001
0000
0000
0000
;

//---------------dance-single - Renard----------------
#NOTES:
     dance-single:
     Renard:
     Easy:
     2:
     0.258,0.290,0.142,0.000,0.000:
0000
0000
0000
0000
,
0000
0000
0000
0000
,
0000
0000
0000
0000
,
0000
0000
0000
0000
,
0001
1000
0001
1000
,
0010
0100
0010
0100
,
0010
0010
1000
1000
,
0001
0000
0000
1001
,
0001
0100
0010
1000
,
0010
1000
0001
0000
,
0100
0001
1000
0100
,
0010
0001
1000
0000
,
0001
1000
0001
0100
,
0001
1000
0010
0000
,
1000
0100
0010
0001
,
1000
0001
0100
1001
,
0101
0100
0010
0000
,
0010
1000
0100
0000
,
0010
0001
0100
0000
,
0001
0000
0000
0001
1000
0000
0000
1000
,
0001
0100
0010
0000
,
1000
0010
0100
0000
,
0001
0000
1000
0000
0100
0000
0000
0010
,
0001
0000
0000
0010
0100
0000
0000
0100
,
1000
0001
1000
0001
,
0100
0000
0010
0100
0010
0000
0000
0000
,
1000
0100
0010
0001
,
1000
0000
0000
0001
1000
0000
0000
0000
,
0001
0001
0100
0100
,
0010
0000
0000
1000
0010
0000
0000
0000
,
0010
0010
0100
0000
,
0101
0101
0101
0000
,
0110
0010
0010
0000
,
1001
0001
0001
0000
,
1000
0100
0010
0001
,
0010
0100
1000
0000
,
0110
0100
0100
0000
,
1001
1000
1000
0000
,
0001
0000
0100
0000
0010
0000
1000
0001
,
1000
0000
0000
1001
,
0001
0001
0001
0000
,
1000
1000
1000
0000
,
0010
0010
0010
0010
,
0100
0100
0100
0100
,
0001
1000
0001
0000
,
0100
0010
0100
0000
,
0010
1000
0001
0100
,
1001
0000
0000
1001
,
0001
1000
0001
0000
,
1000
0010
1000
0000
,
0001
0100
0001
0000
,
1000
0100
0010
0001
,
1001
0000
0000
0000
;
