#TITLE:Mother!@$%er (Remix);
#SUBTITLE:;
#ARTIST:Bass-X;
#TITLETRANSLIT:;
#SUBTITLETRANSLIT:;
#ARTISTTRANSLIT:;
#CREDIT:;
#BANNER:mother.png;
#BACKGROUND:mother-bg.png;
#LYRICSPATH:;
#CDTITLE:;
#MUSIC:mother.ogg;
#OFFSET:0.000;
#SAMPLESTART:44.651;
#SAMPLELENGTH:12.000;
#SELECTABLE:YES;
#BPMS:0.000=172.000;
#STOPS:;
#BGCHANGES:;

//---------------dance-single - Renard----------------
#NOTES:
     dance-single:
     Renard:
     Challenge:
     9:
     0.685,0.856,1.000,0.133,0.024:
0000
0000
0000
0000
,
0000
0000
0000
0000
,
0000
0000
0000
0000
,
0000
0000
0000
0000
,
1001
1000
1001
0001
1001
1001
0000
0110
,
1001
0110
0000
1100
1010
1001
0000
0000
,
0110
0100
0110
0010
0110
0110
0000
1001
,
0110
1001
0000
0011
0101
1001
1010
0000
,
2000
0000
0000
0000
,
0200
0000
0000
0000
,
0022
0000
0000
0000
,
3333
0000
0000
0000
0000
0001
1000
0000
1000
0001
0000
0000
,
0002
0000
0000
0000
,
0200
0000
0020
0000
,
2000
0000
0000
0000
,
3333
0000
0000
0000
0000
1000
0001
0000
0001
0100
0000
0100
,
0110
0000
0000
0101
1001
0000
0000
1100
,
0110
0000
0000
0110
0011
0000
1001
0000
,
0101
0000
0000
0110
1010
0000
0000
1001
,
1100
0000
0000
0011
1001
0110
1001
0000
,
1001
0000
0000
1100
0110
0000
0000
0011
,
0101
0000
0000
0110
1010
0000
1001
0000
,
1100
0000
0000
0110
0011
0000
0000
0011
,
1100
1010
0101
0011
1001
0000
1011
0000
,
1100
0000
0000
1100
1010
0000
0000
1010
,
0110
0000
0000
0110
0101
0000
0011
0000
,
0110
0000
0000
0110
1100
0000
0000
1100
,
1010
0000
0101
0011
0110
0011
0110
0000
,
0011
0000
0000
0011
0110
0000
0000
0110
,
1100
0000
0000
1100
1010
0000
0101
0000
,
0011
0000
0000
0110
0011
0000
0000
1001
,
2200
0000
3311
1111
,
1001
1000
1001
0001
1001
0000
1010
0000
,
0101
0011
0110
1100
,
1001
1000
1001
0001
1001
0000
0110
0000
,
1001
0000
0000
1010
1100
0000
0011
0000
,
1001
1000
1001
0001
1001
0000
0110
0000
,
0011
0110
1100
1001
,
0110
0100
0110
0010
0110
0000
0110
0000
,
1010
0000
0000
0101
0011
0000
0110
0000
,
1000
0000
1000
0100
0001
0000
0001
0010
,
0000
0010
0000
1000
0100
0000
0100
0001
,
0010
0000
0000
0010
1000
0000
0100
0001
,
0000
0010
0000
1000
0100
0000
0001
0010
,
1000
0000
0000
0100
0001
0000
0010
1000
,
0000
0100
0000
0001
0010
0000
1000
0100
,
0001
0000
0000
0010
1000
0000
0100
0001
,
0000
0010
0000
1000
0100
0000
1000
0000
,
0010
0000
0000
0001
0100
0000
1000
0010
,
0000
0001
0000
0100
1000
0000
0010
0000
,
0001
0000
0000
0100
1000
0000
0010
0001
,
0000
0100
0000
1000
0010
0000
0001
0000
,
0100
0000
0000
1000
0010
0000
0001
0100
,
0000
1000
0000
0010
0001
0000
0100
0000
,
1000
0000
0000
0010
0001
0000
0100
0010
,
1000
0000
0000
1001
0110
1001
0110
1001
,
1001
0000
1000
0010
1010
0000
0010
0100
,
0000
0101
0000
0011
0110
0000
1001
0000
,
1010
0000
0100
0010
0110
0000
0100
0101
,
0000
0011
0000
0110
1100
0000
1001
0000
,
0101
0000
0100
0010
0110
0000
0010
1000
,
0000
1010
0000
0100
0001
0000
0101
0000
,
0011
0000
0010
0100
0110
0000
0100
1000
,
0000
1100
1100
0000
2200
0000
3311
0000
,
0101
0000
0100
0010
0110
0000
1010
1001
,
0000
1100
0000
0110
0011
0000
1001
0000
,
0101
0000
0100
0010
0110
0000
1010
1100
,
0000
0110
0000
0011
1001
0000
0101
0000
,
0110
0000
0010
1000
1010
0000
1000
0100
,
0000
1100
0000
0100
0010
0000
0110
0000
,
0011
0000
0001
1000
0101
0000
0010
1000
,
0000
0101
0000
1010
2002
0000
3113
0000
,
1111
0000
0000
0000
;

//---------------dance-single - Renard----------------
#NOTES:
     dance-single:
     Renard:
     Hard:
     8:
     0.593,0.617,0.571,0.238,0.000:
0000
0000
0000
0000
,
0000
0000
0000
0000
,
0000
0000
0000
0000
,
0000
0000
0000
0000
,
0010
0010
0010
0100
0100
0000
0110
0000
,
0010
0010
0010
1000
1000
0000
1001
0000
,
0001
0001
0001
0010
0010
0000
0110
0000
,
0100
1000
0001
1000
0010
0000
0101
0000
,
2010
0010
0010
0010
,
0100
0100
0200
0000
,
0022
0000
0000
0000
,
3333
0000
1000
1001
,
0001
0001
0100
0200
,
0020
0000
0002
0000
,
2000
0000
0000
0000
,
3333
0000
1001
0110
,
0110
0000
0010
1000
0100
0000
0100
0010
,
0001
0000
0001
0100
0010
0000
1001
0000
,
1100
0000
0100
0010
0001
0000
0001
0010
,
0100
0000
0011
0000
0100
1000
1100
0000
,
1100
0000
1000
0010
0100
0000
0001
0010
,
0001
0000
1000
0001
0100
0000
1010
0000
,
0101
0000
1000
0100
0010
0000
0001
0000
,
2200
0000
0000
0300
0200
0000
3311
0000
,
1100
0000
0100
0001
0100
0000
0001
0100
,
0001
0000
0100
0001
0100
0000
1100
0000
,
1010
0000
0010
0001
0010
0000
0001
0010
,
0001
0000
0010
0001
0010
0000
1010
0000
,
0101
0000
0001
0100
1000
0000
1000
0100
,
0001
0000
0001
0100
0001
0000
0101
0000
,
0011
0000
0001
0010
1000
0000
1000
0010
,
0001
0000
0202
1313
,
0001
1000
0001
1000
0010
0010
0100
0000
,
0001
0000
1000
0100
0010
0000
0100
0000
,
1000
0001
1000
0001
1000
0010
1000
0000
,
1001
0000
0000
0001
0100
0000
1001
0000
,
1000
0100
1000
0100
0010
0001
1000
0000
,
0001
0000
0100
0010
0100
0000
0110
0000
,
1001
0000
0110
0000
1000
0010
0100
0001
,
0010
0100
1000
2000
0200
0000
3311
0000
,
1000
0000
1000
0001
0100
0000
0100
0001
,
0000
1000
0001
0010
0001
0000
1000
0010
,
1000
0000
1000
0001
0010
0000
0001
1000
,
0000
0001
1000
0010
1000
0000
0001
1000
,
0100
0000
0100
1000
0001
0000
0001
0010
,
0000
0010
0001
0100
0001
0000
0001
1000
,
0100
0000
0100
1000
0001
0010
0001
1000
,
0000
1000
0001
0100
0010
0000
0010
1000
,
0001
0000
0001
1000
0100
0000
0100
0010
,
0000
0010
0001
1000
0010
0000
0010
0100
,
0001
0000
0001
0100
0010
0000
0010
1000
,
0000
1000
0100
1000
0001
0000
0001
0010
,
0001
0000
0001
0100
0010
0000
0010
1000
,
0000
0001
0010
0100
1000
0000
1000
0100
,
0010
0000
0010
0001
1000
0010
0100
0000
,
0202
0000
0300
0100
0100
0100
0103
0000
,
0101
0000
0100
0010
0110
0000
0010
1000
,
0000
1100
0000
0001
0010
0000
1100
0000
,
0011
0000
0001
0100
0110
0000
0010
1000
,
0000
1001
0000
2000
0200
0000
3311
0000
,
1100
0000
1000
0010
0100
0000
0001
0100
,
0000
0011
0000
0100
1000
0000
0101
0000
,
1010
0000
0001
0100
0001
0100
0010
1000
,
0000
1000
0100
0000
2200
0000
3311
0000
,
1000
0000
0100
0010
0001
0000
0001
0010
,
0000
0110
0000
0100
1000
0000
1001
0000
,
0101
0000
0001
0100
0010
0000
0010
0100
,
0001
0100
0202
1313
,
0001
0000
0100
0010
1000
0000
0100
0010
,
0000
0110
0000
0100
1000
0000
0011
0000
,
1100
0000
0001
0010
0100
0000
1000
0100
,
0000
1100
0000
2000
0200
0000
3311
0000
,
1001
0000
0000
0000
;

//---------------dance-single - Renard----------------
#NOTES:
     dance-single:
     Renard:
     Medium:
     6:
     0.349,0.411,0.019,0.076,0.000:
0000
0000
0000
0000
,
0000
0000
0000
0000
,
0000
0000
0000
0000
,
0000
0000
0000
0000
,
1000
1000
1000
0000
,
0001
1000
0000
0000
0001
1000
0000
0000
,
0001
0001
0001
0000
,
1000
0001
0000
0000
1000
0001
0000
0000
,
0100
0010
1000
0100
,
0020
0032
2003
3010
,
0200
0000
0000
0000
,
0301
0000
0001
0000
,
0010
0100
1000
0100
,
0020
0032
0103
0010
,
2000
0000
0000
0000
,
3100
0010
0001
1000
,
0001
0000
0100
0001
0100
0000
0001
0100
,
0001
0000
0100
0001
0100
0000
0000
0000
,
0001
0000
1000
0001
1000
0000
0001
1000
,
0001
0000
1000
0001
1000
0000
0000
0000
,
0010
0000
1000
0010
1000
0000
0010
1000
,
0010
0000
1000
0010
1000
0000
0000
0000
,
0100
0000
1000
0100
1000
0000
0100
1000
,
0001
1000
0001
1000
,
0001
0000
0100
0001
0100
0000
0001
0000
,
1000
0100
1000
0001
,
0010
0000
0100
0010
0100
0000
1000
0000
,
0010
0100
0001
0100
,
0001
0000
0000
0001
1000
0000
0000
1000
,
0010
0000
0000
0010
0100
0000
0001
0000
,
1000
0000
0000
1000
0100
0000
0000
0100
,
0020
0000
0000
0000
,
0031
0001
0010
0100
,
0000
0000
0000
1000
0010
0000
1000
0000
,
0010
0010
0100
0001
,
0000
0000
0000
1000
0001
0000
1000
0000
,
0001
0001
0010
0100
,
0000
0000
0000
1000
0100
0000
1000
0000
,
0001
0001
0010
0001
,
0000
0000
0000
1000
0001
0000
0100
0000
,
0110
0000
0000
0000
0100
0000
0000
0001
,
0000
1000
0000
0000
0100
0000
0000
0000
,
0010
0000
0000
0000
0001
0000
0000
1000
,
0000
0001
0000
0000
0100
0000
0001
0000
,
1000
0000
0000
0000
0100
0000
0000
0010
,
0000
0001
0000
0000
1000
0000
0000
0000
,
0010
0000
0000
0000
0100
0000
0000
0001
,
0000
1000
0000
0000
0100
0000
0010
0000
,
0001
0000
0000
0000
0001
0000
0000
0010
,
0000
0100
0000
0000
1000
0000
0010
0000
,
0100
0000
0000
0000
0001
0000
0000
0100
,
0000
0010
0000
0000
1000
0000
0100
0000
,
0010
0000
0000
0000
0001
0000
0000
0010
,
0000
0100
0000
0000
1000
0000
0010
0000
,
0100
0000
0000
0000
0001
0000
0000
0100
,
0000
0010
0000
0000
0000
0000
0000
0000
,
1000
0000
0000
1000
0010
0000
0000
0100
,
0000
0001
0000
1000
0100
0000
1000
0000
,
0001
0000
0000
0001
0010
0000
0000
0100
,
0000
1000
0000
0010
0100
0000
0001
0000
,
1000
0000
0000
1000
0001
0000
0000
0010
,
0000
0100
0000
1000
0010
0000
1000
0000
,
0001
0000
0000
0001
0100
0000
0000
0001
,
0000
1000
0000
0100
0010
0000
0001
0000
,
1000
1000
0001
0001
,
1000
0000
1000
0000
0001
1000
0001
0000
,
0100
0100
0010
0010
,
0100
0010
1000
0000
,
0001
0100
0001
1000
,
0100
0010
0001
1000
,
0100
0000
1000
0001
1000
0000
0001
0000
,
0100
0100
0010
0010
,
1001
0000
0000
0000
;

//---------------dance-single - Renard----------------
#NOTES:
     dance-single:
     Renard:
     Easy:
     3:
     0.374,0.411,0.266,0.162,0.000: // measure 1
0000
0000
0000
0000
,  // measure 2
0000
0000
0000
0000
,  // measure 3
0000
0000
0000
0000
,  // measure 4
0000
0000
0000
0000
,  // measure 5
1001
1001
1001
0000
,  // measure 6
0110
0000
1001
0000
,  // measure 7
0110
0110
0110
0000
,  // measure 8
1001
0000
0110
0000
,  // measure 9
0020
0000
0000
0000
,  // measure 10
2030
3200
0320
0032
,  // measure 11
2003
0000
0000
0000
,  // measure 12
0000
0000
0000
0000
,  // measure 13
3002
0000
0000
0000
,  // measure 14
0023
0230
2300
3020
,  // measure 15
0230
0000
0000
0000
,  // measure 16
0302
0000
1003
1000
,  // measure 17
0001
0100
0001
0100
,  // measure 18
0001
1000
1001
1001
,  // measure 19
1000
0100
1000
0100
,  // measure 20
1000
0100
1001
1001
,  // measure 21
0001
0100
0001
0100
,  // measure 22
0001
0100
1001
1001
,  // measure 23
1000
0100
1000
0100
,  // measure 24
2000
0000
0000
3001
,  // measure 25
1000
0001
1000
0001
,  // measure 26
1000
0001
0100
0100
,  // measure 27
0001
1000
0001
1000
,  // measure 28
0001
1000
0010
0010
,  // measure 29
1000
0001
1000
0001
,  // measure 30
1000
0001
0100
0100
,  // measure 31
0001
1000
0001
1000
,  // measure 32
0010
0100
0001
1000
,  // measure 33
0001
0001
1000
0100
,  // measure 34
0000
0000
1000
0001
,  // measure 35
0010
0010
0001
1000
,  // measure 36
0000
0000
0010
0100
,  // measure 37
0001
0001
0010
0100
,  // measure 38
0000
0000
1000
0010
,  // measure 39
0100
0001
0100
0010
,  // measure 40
0000
0000
1000
0010
,  // measure 41
1000
0010
1000
0010
,  // measure 42
1000
0010
1000
0010
,  // measure 43
1000
1000
0010
0010
,  // measure 44
1000
1000
0010
0010
,  // measure 45
0100
0001
0100
0001
,  // measure 46
0100
0001
0100
0001
,  // measure 47
0100
0100
0001
0001
,  // measure 48
0100
0100
0001
0001
,  // measure 49
0100
0010
1000
0100
,  // measure 50
1000
1000
0001
0001
,  // measure 51
1000
1000
0001
0001
,  // measure 52
1000
0001
1000
0010
,  // measure 53
1000
1000
0001
0001
,  // measure 54
1000
0001
0100
0001
,  // measure 55
1000
0100
1000
0001
,  // measure 56
1000
0000
0001
1000
,  // measure 57
1001
0000
0110
0000
,  // measure 58
0001
1000
0100
0010
,  // measure 59
1001
0000
0110
0000
,  // measure 60
0010
1000
0001
1000
,  // measure 61
0110
0000
1001
0000
,  // measure 62
1000
0100
0010
0001
,  // measure 63
0110
0000
0110
0000
,  // measure 64
1001
0000
2000
3001
,  // measure 65
1000
1000
0001
0001
,  // measure 66
0100
0010
1000
1000
,  // measure 67
0001
0010
0100
0100
,  // measure 68
0010
0001
2000
3002
,  // measure 69
1003
1000
0001
0001
,  // measure 70
0100
0001
1000
1000
,  // measure 71
0100
0010
0001
0010
,  // measure 72
0100
1000
0110
1001
,  // measure 73
0110
0000
0000
0000
;
