#TITLE:Mongolian Grill;
#SUBTITLE:;
#ARTIST:Kid Whatever;
#TITLETRANSLIT:;
#SUBTITLETRANSLIT:;
#ARTISTTRANSLIT:;
#CREDIT:;
#BANNER:grill.png;
#BACKGROUND:grill-bg.png;
#LYRICSPATH:;
#CDTITLE:;
#MUSIC:grill.ogg;
#OFFSET:0.000;
#SAMPLESTART:42.899;
#SAMPLELENGTH:12.000;
#SELECTABLE:YES;
#BPMS:0.000=145.457,182.000=290.914,186.000=145.457,250.000=218.186,253.000=145.457;
#STOPS:;
#BGCHANGES:;

//---------------dance-single - Renard----------------
#NOTES:
     dance-single:
     Renard:
     Challenge:
     9:
     0.693,0.997,0.303,0.104,0.327:
0000
0000
0000
0000
,
0000
0000
0000
0000
,
0000
0000
0000
0000
,
0000
0000
0000
0000
,
0001
0000
0100
0001
0100
0000
0001
0000
1000
0000
0100
0000
0010
0000
0001
0000
,
1000
0000
0100
1000
0100
0000
1000
0000
0010
0000
0100
0000
0001
0000
1000
0000
,
0010
0000
1000
0010
1000
0000
0010
0000
0100
0000
0001
0000
0010
0000
0100
0000
,
1000
0100
1000
0100
1000
0001
1000
0002
2000
0000
0000
0000
3013
0000
0000
0000
,
0001
0000
0010
0000
0001
0000
0100
0000
0001
0000
1000
0001
1000
0000
0001
0000
,
0100
0000
0001
0000
0010
0000
0001
1000
0100
0000
0010
0000
0002
0000
0000
0000
,
0003
0000
1000
0000
0001
0000
0100
0001
1000
0000
0100
0000
0010
0000
0001
0000
,
0010
0000
0100
0000
1000
0000
0001
0100
0001
0000
2000
0000
0002
0000
0000
3003
,
0000
0000
0001
0000
0100
0000
0010
0000
1000
0000
0100
1000
0100
0000
1000
0000
,
0010
0000
0100
0000
0001
0000
1000
0000
0100
0010
0001
0000
0002
0000
0000
0000
,
0003
0000
1000
0000
0010
0000
0100
0000
0001
0000
1000
0001
1000
0000
0001
0000
,
0001
0100
0001
0100
0001
0010
0001
2000
0002
0000
0000
0000
3013
0000
0000
0000
,
MM1M
MM1M
MM1M
MM1M
MM1M
00M0
MM1M
MM1M
,
00M0
MM1M
00M0
MM1M
00M0
MM1M
MM1M
MM1M
,
00M0
MM1M
MM1M
MM1M
MM1M
00M0
MM1M
00M0
,
MM1M
00M0
MM1M
MM1M
00M0
00M0
MM1M
0000
,
M1MM
M1MM
M1MM
M1MM
M1MM
0M00
M1MM
M1MM
,
0M00
M1MM
0M00
M1MM
0M00
M1MM
M1MM
M1MM
,
0M00
M1MM
M1MM
M1MM
M1MM
0M00
M1MM
0M00
,
M1MM
0M00
M1MM
M1MM
0M00
0M00
M1MM
0000
,
0001
0100
0001
0100
0001
0010
0001
0010
0001
1000
0001
1000
0001
0100
0001
0100
,
0001
0100
0010
1000
0100
0010
0001
0010
0100
1000
0001
1000
0001
1000
0001
1000
,
0001
0000
0100
0000
0101
0000
0100
0000
0010
1000
0100
0000
1000
0000
0010
0000
,
0100
0000
0001
0000
1001
0000
1000
0000
0100
0010
0001
0000
0010
0000
0100
0000
,
1000
0000
0001
0000
0101
0000
0001
0000
0100
0010
1000
0000
0100
0000
1000
0000
,
0001
0000
0010
0100
1000
0000
0001
0000
0100
0000
0001
0000
1001
0000
0000
0000
,
0001
0000
0100
0000
0010
0000
1000
0100
1000
0000
0001
0000
0010
0000
0100
0000
,
1000
0000
0001
0000
0100
0000
0010
1000
0010
1000
0100
0000
1000
0000
0001
0000
,
0011
0000
1000
0000
0100
0000
1000
0000
0010
0100
0001
0000
1000
0000
0001
0000
,
1001
0000
0100
0000
0001
0000
1000
0010
1000
0000
0100
0000
1001
0000
0000
0000
,
1001
0010
1000
0000
1100
0010
0001
0000
,
1001
0100
0010
1010
1000
0100
0011
0010
,
1100
0000
1000
0010
0110
0000
0100
0001
,
0011
0010
0100
1100
1000
0010
0101
1000
,
0001
0000
0100
0000
0001
0000
0010
0000
0001
0000
1000
0001
1000
0000
0001
0000
,
0100
0000
0001
0000
1000
0000
0001
1000
0001
0000
1000
0000
1001
0000
0000
0000
,
1000
0000
0001
0000
1000
0000
0010
0000
1000
0000
0100
1000
0100
0000
1000
0000
,
0001
0000
1000
0000
0010
0000
1000
0001
1000
0000
0001
0000
1001
0000
0000
0000
,
0001
0000
0100
0000
0001
0000
0010
0000
0001
0000
1000
0001
1000
0000
0001
0000
,
0100
0000
0001
0000
0010
0000
0001
1000
0001
0000
1000
0000
1001
0000
0000
0000
,
1000
0000
0100
0000
1000
0000
0010
0000
1000
0000
0001
1000
0001
0000
1000
0000
,
0100
0000
1000
0000
0010
0000
1000
0001
2000
0000
0000
0000
0000
0000
0000
0000
,
0000
0000
0000
0000
3010
0010
0100
0100
,
1000
1000
0010
0010
0100
0100
0001
0001
,
1000
1000
0001
0001
0100
0100
0001
0001
,
1000
1000
0100
0100
0010
0010
0001
0001
,
1000
1000
0010
0010
0100
0001
0100
0001
,
0100
0010
0100
0010
1000
0010
1000
0010
,
1000
0100
1000
0100
0010
0001
0010
0100
,
1000
0000
0010
0000
0100
0000
0001
0000
0100
0000
0010
0000
1000
0010
0000
1000
,
0000
0001
1000
0001
1000
0001
1000
0001
1000
0000
0001
0000
0101
0000
0000
0000
,
0001
1000
1100
0000
1000
0001
0011
0000
,
0001
0000
0000
0000
1000
0000
0000
0000
1010
0000
0000
0000
0000
0000
0000
0000
1000
0000
0000
0000
0001
0000
0100
0000
0001
0000
0000
0000
0000
1000
0000
0000
,
0000
0000
0000
0000
0000
0000
0000
0000
0000
0000
0000
0000
0000
0000
0000
0000
0000
0000
0000
0000
0000
0000
0000
0000
0000
0000
0000
0000
0000
0000
0000
0000
0001
0000
0000
0000
0000
0000
0000
0000
0000
0000
0000
0000
0000
0000
0000
0000
0100
0000
0000
0000
0000
0000
0000
0000
0000
0000
0000
0000
0000
0000
0000
0000
0000
0000
0000
0000
0000
0000
0000
0000
0000
0000
0000
0000
0000
0000
0000
0000
0000
0000
0000
0000
0000
0000
0000
0000
0000
0000
0000
0000
0000
0000
0000
0000
0001
0000
0000
0000
0000
0000
0000
0000
0000
0000
0000
0000
0000
0000
0000
0000
0000
0000
0000
0000
0000
0000
0000
0000
1000
0000
0000
0000
0000
0000
0000
0000
0000
0000
0000
0000
0010
0000
0000
0000
0000
0000
0000
0000
0000
0000
0000
0000
1000
0000
0000
0000
0000
0000
0000
0000
0000
0000
0000
0000
0000
0000
0000
0000
0000
0000
0000
0000
0000
0000
0000
0000
0000
0000
0000
0000
0000
0000
0001
0000
0000
0000
0000
0000
0000
0000
0000
0000
0000
0000
0000
0000
0000
0000
0000
0000
,
0000
0000
0000
0000
1000
0000
0010
0000
0000
0000
0000
0000
0001
0000
0000
1000
0000
0000
1010
0000
0000
0000
0000
0000
,
1000
0001
0011
0000
0001
1000
1100
0000
,
1000
0000
0000
0000
0001
0000
0000
0000
0101
0000
0000
0000
0000
0000
0000
0000
0001
0000
0000
0000
1000
0000
0010
0000
1000
0000
0000
0000
0000
0001
0000
0000
,
0000
0000
0000
0000
0000
0000
0000
0000
0000
0000
0000
0000
0000
0000
0000
0000
0000
0000
0000
0000
0000
0000
0000
0000
0000
0000
0000
0000
0000
0000
0000
0000
1000
0000
0000
0000
0000
0000
0000
0000
0000
0000
0000
0000
0000
0000
0000
0000
0010
0000
0000
0000
0000
0000
0000
0000
0000
0000
0000
0000
0000
0000
0000
0000
0000
0000
0000
0000
0000
0000
0000
0000
0000
0000
0000
0000
0000
0000
0000
0000
0000
0000
0000
0000
0000
0000
0000
0000
0000
0000
0000
0000
0000
0000
0000
0000
1000
0000
0000
0000
0000
0000
0000
0000
0000
0000
0000
0000
0000
0000
0000
0000
0000
0000
0000
0000
0000
0000
0000
0000
0001
0000
0000
0000
0000
0000
0000
0000
0000
0000
0000
0000
0100
0000
0000
0000
0000
0000
0000
0000
0000
0000
0000
0000
0001
0000
0000
0000
0000
0000
0000
0000
0000
0000
0000
0000
0000
0000
0000
0000
0000
0000
0000
0000
0000
0000
0000
0000
0000
0000
0000
0000
0000
0000
1000
0000
0000
0000
0000
0000
0000
0000
0000
0000
0000
0000
0000
0000
0000
0000
0000
0000
,
0000
0000
0001
0100
0000
0000
2002
0000
0000
0000
0000
0000
,
0000
0110
3113
1111
;

//---------------dance-single - Renard----------------
#NOTES:
     dance-single:
     Renard:
     Hard:
     7:
     0.588,0.544,0.322,0.085,0.000:
0000
0000
0000
0000
,
0000
0000
0000
0000
,
0000
0000
0000
0000
,
0000
0000
0000
0000
,
1000
0000
0101
0000
0100
0010
1000
0100
,
0010
0000
0011
0010
0100
0000
1000
0001
,
0100
0000
0110
0000
0010
1000
0100
0010
,
0001
0010
0100
1000
0001
0000
1001
0000
,
0001
0100
0010
1000
0100
0010
0010
0010
,
0001
0010
0100
1000
0010
0010
0020
0000
,
0130
0001
0010
0100
1000
0010
0010
0010
,
1000
0010
0100
0001
0010
0100
0200
0000
,
1300
0001
0100
0010
1000
0100
0100
0100
,
1000
0001
0010
0100
1000
0001
0200
0000
,
0301
1000
0100
0010
0001
0010
0010
0010
,
0100
1000
0010
0100
0001
0000
0011
0000
,
0010
0100
1000
0010
0100
0000
0100
0001
,
0000
0011
0000
0110
0000
1100
0000
1000
,
0000
0010
0100
0001
0010
0000
0001
0000
,
1000
0000
1000
0010
0000
0000
1010
0000
,
1000
0010
1000
0010
1000
0000
1010
0010
,
0000
0010
1000
0010
0000
1000
0010
0100
,
0000
0100
0001
0100
0001
0000
0101
0001
,
0100
0001
0100
0001
0000
0001
0100
0000
,
0001
1000
0100
0010
0001
0100
0010
1000
,
0100
0100
0010
0010
0001
0001
1000
1000
,
0001
0001
0100
0100
0110
0000
0010
1000
,
0000
0100
0000
0110
0000
0010
0001
0010
,
0000
0100
0100
1000
0010
0010
0100
0100
,
0001
1000
0100
0010
0000
0001
0010
0000
,
0100
0100
1000
1000
0010
0000
0010
0100
,
0000
0101
0000
0110
0000
0010
0100
0010
,
0000
0010
1000
0100
0010
0010
0001
0001
,
1000
0001
0010
0100
1000
0000
0001
0000
,
1001
0000
0100
0010
0110
0000
0010
1000
,
1001
0000
1000
1100
0000
0100
0110
0000
,
0011
0000
0010
0100
1100
0000
1000
0001
,
0101
0000
0001
0100
0000
0100
0010
0000
,
1000
0010
0100
0001
0010
0100
0100
0100
,
1000
0010
0100
0001
0010
0001
2000
0000
,
3001
0010
0100
1000
0010
0100
0100
0100
,
0001
0010
0100
1000
0010
0100
0002
0000
,
0013
0001
1000
0100
0010
0001
0001
0001
,
0010
0100
1000
0010
0100
0001
0020
0000
,
0031
0010
0100
1000
0010
0100
0001
0100
,
0010
0100
0001
1000
0200
0000
0000
0000
,
0000
0000
0000
0000
0310
0001
0010
0001
,
0010
0100
0010
0100
0010
0100
1000
0100
,
1000
0010
1000
0010
0100
0001
0100
0001
,
0010
0001
0010
0001
0010
0100
0010
0100
,
1000
0100
1000
0100
1000
0010
0100
0001
,
1000
0100
0010
0001
0010
0100
1000
0001
,
0010
0100
1000
0010
0100
0001
0100
0010
,
1000
0100
0010
0001
0001
0010
0100
1000
,
0010
0100
0001
0001
1000
0100
1000
0100
,
1000
0000
1100
0000
1000
0100
0010
0001
,
0010
0000
0011
0000
0001
0100
0010
1000
,
0001
0000
1001
0000
1000
0100
0010
0001
,
1000
0000
1001
0000
0001
0100
0010
0100
,
0001
0000
0101
0000
1000
0100
0010
0100
,
1000
0000
1100
0000
1000
1000
0010
0100
,
0001
0000
0101
0000
0001
0001
0010
0100
,
1000
1100
2002
0000
,
0000
3003
1000
0001
1001
0000
0110
0000
;

//---------------dance-single - Renard----------------
#NOTES:
     dance-single:
     Renard:
     Medium:
     5:
     0.391,0.483,0.199,0.009,0.000:
0000
0000
0000
0000
,
0000
0000
0000
0000
,
0000
0000
0000
0000
,
0000
0000
0000
0000
,
1000
0000
0000
0001
0100
0000
0001
0000
,
1000
0000
0000
0100
1000
0000
0001
1000
,
0001
0000
0000
0100
0010
0000
1000
0000
,
0010
1000
0010
1000
0010
0000
1001
0000
,
1000
0000
0000
0100
0010
0000
0001
0000
,
0010
0000
0000
0100
1000
0001
1000
0000
,
0001
0000
0000
1000
0100
0000
0010
0000
,
0001
0000
0000
1000
0010
0000
0101
0000
,
0100
0000
0000
0001
1000
0000
0100
0000
,
0010
0000
0000
0001
1000
0000
0001
0000
,
0010
0000
0000
0100
1000
0000
0010
0000
,
0100
0001
0100
0010
1000
0000
1010
0000
,
1000
0000
1000
0000
1000
0000
1000
0010
,
0000
0010
0000
1000
0000
1000
0000
0010
,
0000
0010
1000
0000
0010
0000
1000
0000
,
0010
0000
0010
1000
0000
0000
0000
0000
,
0001
0000
0001
0000
0100
0000
0100
0001
,
0000
0100
0000
0001
0000
0100
0000
0001
,
0000
0001
0100
0000
0001
0000
0100
0000
,
0001
0000
0100
0001
0000
0000
0000
0000
,
1000
0001
1000
0001
,
1000
0001
1000
0001
1000
0001
1000
0001
,
1000
0000
1000
0000
0001
0000
0001
0100
,
0000
0010
0000
1000
0000
0010
1000
0010
,
0000
0100
0001
0100
0001
0000
1000
0000
,
0100
0000
0010
0001
0000
0000
0000
0000
,
0010
0000
0100
0000
1000
0000
0001
0010
,
0000
0001
0000
1000
0000
0010
0100
0000
,
0001
0100
0001
0000
1000
0000
0100
0000
,
0010
0000
0001
1000
0000
0000
0000
0000
,
0101
0000
0110
0000
,
1010
0000
0000
1001
0000
0000
1100
0000
,
0110
0000
0011
0000
,
1001
0000
0000
0101
0000
0000
0110
0000
,
0010
1000
0000
1000
0000
1000
0010
1000
,
0000
0001
0000
0001
0100
0001
0100
0000
,
0010
0100
0000
0100
0000
0100
0001
0100
,
0000
0001
0000
0010
0100
0010
0100
0000
,
0000
1000
0000
1000
0000
0010
1000
0010
,
0000
0100
0000
0001
1000
0001
1000
0000
,
0000
0100
0000
0010
0000
0001
0010
0100
,
0000
1000
0000
0001
2000
0000
0000
0000
,
0000
0000
3001
0001
,
1000
1000
0001
0001
,
1000
1000
0001
0001
,
1000
1000
0001
0001
,
1000
1000
0010
0010
,
0100
0100
0010
0010
,
0100
0100
0010
0100
,
0010
0000
0100
0000
0001
1000
0001
0000
,
1000
0001
1000
0000
0001
0100
0001
0100
,
0001
0000
0100
0000
0001
0100
0001
0100
,
0001
0100
0001
0100
,
0010
0000
0110
0000
1000
0100
1000
0100
,
0010
0000
0110
0000
0010
0001
0010
0001
,
0010
0001
0010
0001
0010
0001
0010
0001
,
0010
0001
0010
0001
0010
0000
0100
0000
,
1000
1100
1000
0010
,
0100
1001
0110
0000
,
0000
1001
0110
1001
;

//---------------dance-single - Renard----------------
#NOTES:
     dance-single:
     Renard:
     Easy:
     2:
     0.248,0.302,0.038,0.038,0.000: // measure 1
0000
0000
0000
0000
,  // measure 2
0000
0000
0000
0000
,  // measure 3
0000
0000
0000
0000
,  // measure 4
0000
0000
0000
0000
,  // measure 5
1000
0001
0000
1000
,  // measure 6
0001
1000
0000
0001
,  // measure 7
0100
0010
0000
0100
,  // measure 8
0010
1000
0001
1001
,  // measure 9
1000
0001
1000
0001
,  // measure 10
0100
0010
0200
0000
,  // measure 11
0301
1000
0100
0010
,  // measure 12
0001
1000
0002
0000
,  // measure 13
1003
0010
0100
0001
,  // measure 14
1000
0100
1000
0020
,  // measure 15
0130
0001
1000
0100
,  // measure 16
0010
0001
1000
1001
,  // measure 17
1000
1000
1000
0000
,  // measure 18
1000
0000
1000
0000
,  // measure 19
0001
0001
0001
0000
,  // measure 20
0001
0000
0001
0000
,  // measure 21
0100
0010
0100
0000
,  // measure 22
0010
0000
0100
0000
,  // measure 23
0010
0100
0010
0000
,  // measure 24
0100
0000
0010
0000
,  // measure 25
1000
1000
0001
0001
,  // measure 26
1000
0100
0010
0001
,  // measure 27
1000
1000
0001
0000
,  // measure 28
0001
0000
1000
0000
,  // measure 29
0001
0001
1000
0000
,  // measure 30
0001
1000
0001
0000
,  // measure 31
1000
1000
0001
0000
,  // measure 32
1000
0000
0001
0000
,  // measure 33
1000
0001
1000
0000
,  // measure 34
0001
0000
1000
0000
,  // measure 35
0010
0000
0100
0000
,  // measure 36
0001
1000
0001
0000
,  // measure 37
1000
0000
0100
0000
,  // measure 38
0010
0001
0010
0000
,  // measure 39
0100
0000
0100
0100
,  // measure 40
0100
0000
0100
0100
,  // measure 41
0010
0000
0010
0010
,  // measure 42
0010
0000
0010
0010
,  // measure 43
0001
0000
0001
0001
,  // measure 44
0001
0000
0001
0001
,  // measure 45
1000
0000
1000
1000
,  // measure 46
0010
0100
0002
0000
,  // measure 47
0000
0000
1003
0000
,  // measure 48
0000
0000
0000
0000
,  // measure 49
0000
0000
0000
0000
,  // measure 50
0000
0000
0000
0000
,  // measure 51
0000
0000
1000
0001
,  // measure 52
1000
0001
0100
0010
,  // measure 53
0100
0010
1000
0010
,  // measure 54
1000
0010
0100
0001
,  // measure 55
0100
0001
1000
1000
,  // measure 56
0100
0100
0010
0010
,  // measure 57
0001
0001
1000
0001
,  // measure 58
1000
0000
0001
1000
,  // measure 59
0001
0000
0100
0010
,  // measure 60
0100
0010
1000
0010
,  // measure 61
0100
0001
1000
0001
,  // measure 62
1000
0000
0001
1000
,  // measure 63
0001
0000
0110
0000
,  // measure 64
0000
1000
0001
0110
;
