#TITLE:Micro N²;
#SUBTITLE:;
#ARTIST:Cube Hard;
#TITLETRANSLIT:;
#SUBTITLETRANSLIT:;
#ARTISTTRANSLIT:;
#CREDIT:;
#BANNER:n.png;
#BACKGROUND:n-bg.png;
#LYRICSPATH:;
#CDTITLE:;
#MUSIC:n.ogg;
#OFFSET:0.020;
#SAMPLESTART:45.120;
#SAMPLELENGTH:12.000;
#SELECTABLE:YES;
#BPMS:0.000=86.520,48.000=173.040;
#STOPS:0.000=0.020
;
#BGCHANGES:;

//---------------dance-single - Renard----------------
#NOTES:
     dance-single:
     Renard:
     Challenge:
     12:
     0.809,0.756,0.077,0.034,0.965:
0000
0000
0000
0000
,
0000
0000
0000
0000
,
0000
0000
0000
0000
,
0000
0000
0000
0000
,
1000
0000
0000
0000
0001
0000
0000
0000
0100
0000
0000
0000
0010
0000
0010
1000
,
0000
0000
1000
0010
0000
0010
0100
0000
0100
0001
0000
0010
0100
0000
1000
0001
,
1000
0000
0001
0100
0000
0010
1000
0000
0001
0000
0100
0000
0001
0000
1000
0100
,
0000
0010
0001
0000
0010
0100
0000
1000
0001
0000
1000
0000
0010
0000
0100
0000
,
0101
0000
0100
0000
1010
0000
1000
0100
0010
0001
0010
0000
0110
0000
0100
1000
,
0000
0001
0100
0000
0010
1000
0001
0100
0000
0010
0100
0000
0010
1000
0100
0010
,
0000
0001
0010
0000
0100
1000
0001
0000
0100
0000
0010
0000
1000
0000
0002
0200
,
0000
0000
0000
0000
0000
0000
0000
0000
0000
0000
0000
0000
0000
0000
0000
0000
0000
0000
0000
0000
0000
0000
0000
0000
0000
0000
0000
0000
0000
0000
0000
0000
0000
0000
0000
0000
0000
0000
0000
0000
0000
0000
0000
0000
0000
0000
0000
0000
0000
0000
0000
0000
0000
0000
0000
0000
0000
0000
0000
0000
0000
0000
0000
0000
0000
0000
0000
0000
0000
0000
0000
0000
0000
0000
0000
0000
0000
0000
0000
0000
0000
0000
0000
0000
0000
0000
0000
0000
0000
0000
0000
0000
0000
0000
0000
0000
0000
0000
0000
0000
0000
0000
0000
0000
0000
0000
0000
0000
0000
0000
0000
0000
0000
0000
0000
0000
0000
0000
0000
0000
0000
0000
0000
0000
0000
0000
0000
0000
0000
0000
0000
0000
0000
0000
0000
0000
0000
0000
0000
0000
0000
0000
0000
0000
0000
0000
0000
0000
0000
0000
0000
0000
0000
0000
0000
0000
0000
0303
0000
0000
0000
0000
0000
0000
0000
0000
0000
0000
0000
0000
0000
0000
0000
0000
0000
0000
0000
0000
0000
0000
1001
0000
0000
0000
0000
0000
0000
0000
0000
0000
0000
0000
,
0001
0000
1000
0100
1000
0000
0001
0010
0000
0001
0100
0000
0001
1000
0000
0001
,
1000
0000
0100
0010
0001
0000
1000
0100
0000
1000
0010
0000
1000
0001
0000
1000
,
0100
0000
0010
0001
1000
0000
0001
0100
0000
0001
0010
0000
0001
1000
0000
0001
,
1000
0000
0100
1000
0010
0000
1000
0001
0000
1000
0100
0000
1000
0001
0000
0100
,
0010
0000
0100
0001
1000
0000
0100
1000
0000
0001
1000
0000
0010
1000
0000
0010
,
0100
0000
0001
0010
0001
0000
1000
0001
0000
0100
0001
0000
0010
0001
0000
1000
,
0100
0000
0010
0001
1000
0000
0100
1000
0000
0010
1000
0000
0001
1000
0000
0001
,
0100
0000
0010
0100
1000
0000
0100
0010
0000
0100
0001
0000
0100
0000
1001
0000
,
0100
0001
0100
0001
0100
0000
0010
0100
0010
0100
0010
0000
1000
0000
0100
0000
,
0010
0001
0010
0001
0010
0000
0100
0010
0100
0010
0100
0000
1000
0000
0001
0000
,
0100
0001
0100
0001
0100
0000
0100
0010
0100
0010
0100
0000
1000
0000
0100
0000
,
0010
1000
0010
1000
0010
0000
0010
0100
0010
0100
0010
0000
0100
0000
1001
0000
,
0100
0001
0100
0001
0100
0000
0010
0100
0010
0100
0010
0000
1000
0000
0010
0000
,
1000
0100
1000
0100
1000
0000
0100
0010
0100
0010
0100
0000
0010
0000
0001
0000
,
0010
0001
0010
0001
0010
0000
0100
0010
0100
0010
0100
0000
1000
0000
0001
0000
,
0100
0010
0100
0000
0010
0000
1000
0010
0100
0000
0001
0000
0100
0000
0010
0000
,
1000
0000
0001
0100
0010
0000
1000
0100
0000
0100
0010
0000
0010
0001
0000
0010
,
0100
0000
1000
0001
0100
0000
0010
0100
0000
0100
0010
0000
0010
1000
0000
1000
,
0100
0000
0010
0001
0010
0000
0100
1000
0000
0001
0010
0000
0100
1000
0000
0001
,
0100
0010
0100
0010
1000
0001
0100
0010
,
1000
0000
1000
0100
0010
0000
0010
0001
0000
0001
0010
0000
0010
0100
0000
0100
,
1000
0000
0010
0100
0001
0000
0100
0010
0000
1000
0010
0000
0100
0001
0000
0100
,
0010
0000
1000
0100
0010
0000
0001
0010
0000
0100
1000
0000
0001
1000
0000
0010
,
0100
0000
0001
0000
0100
0000
0010
0000
1000
0000
0100
0000
0010
0000
0001
0010
,
0001
0000
0010
0100
1000
0000
0001
0010
0000
0100
1000
0000
0001
0100
0000
0010
,
1000
0000
0001
0100
0010
0000
1000
0100
0000
0010
0001
0000
0010
0100
0000
1000
,
0001
0000
0100
0010
1000
0000
0001
1000
0000
0100
1000
0000
0001
0010
0000
0100
,
1000
0000
0001
0100
0010
0000
1000
0001
0000
0100
0010
0000
1000
0000
0100
0000
,
1000
0000
0001
0000
0010
0000
0100
0000
1000
0000
0001
0010
0100
0000
1000
0001
,
0100
0000
0010
0000
1000
0000
0001
0000
0100
0000
0010
1000
0010
0000
1000
0001
,
0100
0000
0001
0000
0010
0000
0100
1000
0000
0001
0010
0000
0100
1000
0000
0001
,
0100
0000
0010
0000
1000
0000
0000
0010
0000
0000
0100
0000
0000
0001
0000
0000
,
0100
0000
0001
1000
0100
0000
0010
0001
0000
0010
0100
0000
1000
0000
0001
0000
,
0100
0000
0010
1000
0010
0000
1000
0010
0000
0100
0001
0000
0100
0000
0010
0000
,
1000
0000
0100
0010
0001
0000
0010
0100
0000
1000
0001
0000
0100
0000
0010
0000
,
1000
0000
0001
0100
0010
0000
1000
0100
0000
1000
0001
0000
0010
0000
0001
1000
,
0001
0000
0100
0010
1000
0000
0001
0100
0000
0010
1000
0000
0100
0000
0010
0001
,
0010
0000
0100
1000
0001
0000
0100
0010
0000
1000
0001
0000
0100
0000
0010
1000
,
0010
0000
0100
0001
0100
0000
0010
1000
0000
0100
0010
0000
0001
0000
0010
0100
,
1000
0000
0001
0000
0010
0000
0100
1000
0000
0001
1000
0000
1001
0000
0110
0000
,
0100
0000
0001
0010
0100
0000
1000
0001
0000
1000
0010
0000
0100
0000
0001
0000
,
0100
0000
0001
1000
0100
0000
0010
0001
0000
0010
0100
0000
1000
0000
0001
0000
,
0010
0000
0001
1000
0010
0000
0100
0001
0000
0100
0010
0000
1000
0000
0100
0000
,
0010
0000
0001
0010
0100
0000
1000
0001
0000
0100
0001
0000
1000
0000
0001
0000
,
1000
0000
0100
1000
0001
0000
1000
0010
0000
0100
0001
0000
0010
0000
0100
0000
,
1000
0000
0001
0100
0010
0000
0100
0001
0000
1000
0100
0000
0010
0000
0001
0000
,
0010
0000
0100
1000
0001
0000
0100
0010
0000
0100
0010
0000
1000
0000
0100
0000
,
0010
0000
0001
0010
0100
0000
1000
0001
0000
0100
0010
0000
1000
0000
1001
0000
,
0100
0000
0010
1000
0010
0000
0100
0001
0000
1000
0010
0000
1000
0000
0100
0000
,
0010
0000
0001
0010
0100
0000
1000
0001
0000
0100
0010
0000
1000
0000
0001
0000
,
1000
0000
0100
1000
0001
0000
0010
0001
0000
0100
0010
0000
0100
0000
1000
0000
,
0100
0000
0010
0100
0001
0000
0010
0100
0000
0010
0001
0000
0010
0000
0100
0000
,
0010
0000
1000
0010
0100
0000
0010
0001
0000
1000
0010
0000
0100
0000
0001
0100
,
0010
0000
1000
0010
0100
0000
0001
0100
0000
0100
0001
0000
1000
0000
0100
0000
,
1000
0000
0001
1000
0010
0000
1000
0100
0000
1000
0001
0000
0010
0000
0002
0000
,
0200
0000
0000
0000
0000
0000
0000
0000
0000
0000
0000
0000
0000
0303
0000
0000
;

//---------------dance-single - Renard----------------
#NOTES:
     dance-single:
     Renard:
     Hard:
     9:
     0.506,0.553,0.283,0.017,0.304:
0000
0000
0000
0000
,
0000
0000
0000
0000
,
0000
0000
0000
0000
,
0000
0000
0000
0000
,
1001
0000
0000
0000
0001
0000
0000
0000
0100
0000
0000
0000
0010
0000
1000
0010
,
0000
0000
0000
0000
0000
0000
1000
0001
0000
0000
0000
0000
0000
0000
0100
0001
,
0000
0000
0000
0000
0010
0000
0000
0000
0100
0000
1000
0000
0001
0000
0100
0010
,
0000
0000
0000
0000
1000
0000
0010
0100
0000
0000
0000
0000
0001
0000
0010
0000
,
0100
0000
0000
0000
1000
0000
0000
0000
0001
0000
0000
0000
0100
0000
0001
1000
,
0000
0000
0100
0000
0000
0000
0010
0001
0000
0000
0010
0000
0100
0000
1000
0001
,
0000
0000
0000
0000
0100
0000
0000
0000
0010
0000
1000
0000
0010
0000
0100
0001
,
0000
0000
0000
0000
0000
0000
0000
0000
0000
0000
0000
0000
0000
0000
0000
1000
,
0100
0000
0010
0000
0001
0000
0000
0011
0000
0000
0011
0000
0000
0010
0000
0000
,
0100
0000
1000
0000
0001
0000
0000
0100
0000
0000
0110
0000
0000
0110
0000
0000
,
0010
0000
1000
0000
0100
0000
0000
0010
0000
0000
0001
0000
0000
0010
0000
0000
,
0100
0000
1000
0000
0001
0000
0000
0100
0000
0000
0110
0000
0000
0110
0000
0000
,
0010
0000
1000
0000
0100
0000
0000
1000
0000
0000
0001
0000
0000
0010
0000
0000
,
0001
0000
1000
0000
0010
0000
0000
1010
0000
0000
1001
0000
0000
1001
0000
0000
,
1000
0000
0100
0000
0010
0000
0000
0001
0000
0000
0011
0000
0000
1001
0000
0000
,
0001
0000
0100
0000
0010
0000
0000
1000
0000
0000
0001
0000
0000
1000
0000
0000
,
0100
0000
0010
0000
0001
0000
0000
0011
0000
0000
0110
0000
0000
0110
0000
0000
,
0100
0000
1000
0000
0010
0000
0000
0110
0000
0000
0101
0000
0000
0101
0000
0000
,
0001
0000
0100
0000
0010
0000
0000
1010
0000
0000
1001
0000
0000
1001
0000
0000
,
1000
0000
0100
0000
0010
0000
0000
0011
0000
0000
0110
0000
0000
0110
0000
0000
,
0100
0000
1000
0000
0010
0000
0000
0110
0000
0000
0101
0000
0000
0101
0000
0000
,
0001
0000
1000
0000
0100
0000
0000
1100
0000
0000
1001
0000
0000
1001
0000
0000
,
1000
0000
0100
0000
0010
0000
0000
0011
0000
0000
1001
0000
0000
1001
0000
0000
,
0001
0000
0100
0000
0010
0000
0000
1000
0000
0000
1000
0000
0000
1000
0000
0000
,
0001
0000
0001
0100
0000
0100
0010
0000
,
1000
0100
0010
0001
1000
0100
0010
0001
,
1000
0000
1000
0100
0000
0100
0010
0000
,
0001
0010
0100
1000
0001
0010
0100
1000
,
0001
0000
0001
0100
0000
0100
0010
0000
,
1000
0010
0100
0001
1000
0010
0100
0001
,
1000
0000
1000
0100
0000
0100
0010
0000
,
0001
0010
0100
1000
0001
0010
0100
0000
,
1000
0000
1000
0100
0000
0100
0010
0000
,
0001
0010
0100
0000
0100
1000
0001
0000
,
0100
0000
0100
0010
0000
0010
1000
0000
,
0010
0100
0001
0000
1000
0100
0010
0000
,
0001
0000
0001
0010
0000
0010
0001
0000
,
0100
0010
1000
0000
0010
0100
0001
0000
,
1000
0000
1000
0010
0000
0010
0100
0000
,
0002
0000
0000
0000
0000
0000
0103
0010
,
1000
0000
0010
0000
0100
0000
0000
0001
0000
0000
0010
0000
0100
0000
0000
0000
,
1000
0000
0100
0000
0010
0000
0000
0001
0000
0000
0010
0000
0100
0000
0000
0000
,
1000
0000
0010
0000
0100
0000
0000
0001
0000
0000
0100
0000
0010
0000
0000
0000
,
1000
0000
0100
0000
0010
0000
0000
0001
0000
0000
1000
0000
0100
0000
0000
0000
,
0010
0000
0100
0000
1000
0000
0000
0010
0000
0000
0100
0000
0001
0000
0000
0000
,
0010
0000
0100
0000
1000
0000
0000
0001
0000
0000
0100
0000
0010
0000
0000
0000
,
1000
0000
0100
0000
0010
0000
0000
0001
0000
0000
0010
0000
0100
0000
0000
0000
,
1000
0000
0001
0000
0100
0000
0000
0010
0000
1000
0010
0000
1000
0000
0000
0000
,
0100
0000
0010
0000
0001
0000
0000
1000
0000
0001
1000
0000
0001
0000
0000
0000
,
0100
0000
0010
0000
1000
0000
0000
0100
0000
0000
0010
0000
0001
0000
0000
0000
,
1000
0000
0010
0000
0100
0000
0000
0001
0000
1000
0001
0000
1000
0000
0000
0000
,
0010
0000
0100
0000
0001
0000
0000
0010
0000
0000
0100
0000
1000
0000
0000
0000
,
0001
0000
0100
0000
0010
0000
0000
1000
0000
0001
1000
0000
0001
0000
0000
0000
,
0010
0000
0100
0000
1000
0000
0000
0001
0000
0000
0100
0000
0010
0000
0000
0000
,
1000
0000
0100
0000
0010
0000
0000
0001
0000
0000
1000
0000
0001
0000
0000
0000
,
0010
0000
0100
0000
1000
0000
0000
0001
0000
0100
0010
0000
1000
0000
0010
0000
,
1000
0000
0100
0000
0010
0000
0000
0001
0000
0000
0010
0000
0100
0000
0000
0000
,
1000
0000
0001
0000
0100
0000
0000
0010
0000
0000
1000
0000
0100
0000
0000
0000
,
0010
0000
0001
0000
0010
0000
0000
0100
0000
0000
1000
0000
0001
0000
0000
0000
,
0100
0000
0010
0000
1000
0000
0000
0100
0000
0000
0010
0000
0001
0000
0010
0000
,
0100
0000
1000
0000
0001
0000
0000
0100
0000
0000
0010
0000
1000
0000
0000
0000
,
0100
0000
0010
0000
0001
0000
0000
0010
0000
0000
0100
0000
1000
0000
0010
0000
,
0100
0000
0001
0000
0010
0000
0000
0100
0000
1000
0001
0000
0100
0000
0010
0000
,
2000
0000
0000
0000
0000
0000
0000
3000
;

//---------------dance-single - Renard----------------
#NOTES:
     dance-single:
     Renard:
     Medium:
     6:
     0.410,0.495,0.180,0.214,0.004:
0000
0000
0000
0000
,
0000
0000
0000
0000
,
0000
0000
0000
0000
,
0000
0000
0000
0000
,
2000
0000
3002
0000
0203
0000
0301
1000
,
0200
0000
0320
0000
0032
0000
1003
0001
,
0200
0000
0302
0000
2003
0000
3100
0010
,
0002
0000
0023
0000
0230
0000
1300
0010
,
0200
0000
0302
0000
2003
0000
3100
0010
,
0002
0000
2003
0000
3020
0000
0130
0001
,
2000
3200
0320
0032
,
2000
0000
0000
0000
0000
0000
0000
0000
0000
0000
0000
0000
3003
0000
0000
0010
,
0100
0001
0100
0000
0100
0000
0100
0000
,
0001
1000
0001
0000
1000
0000
1000
0000
,
0100
1000
0100
0000
0100
0000
0100
0000
,
0010
0001
0010
0000
0010
0000
0010
0000
,
0100
1000
0100
0000
1000
0000
1000
0000
,
0010
0100
0010
0000
0100
0000
0100
0000
,
0001
0010
0001
0000
1000
0100
1000
0000
,
0001
0100
0001
0000
1000
0010
1000
0000
,
0001
0100
0010
0000
0100
0000
0110
0000
,
0010
1000
0100
0000
1000
0000
1100
0000
,
1000
0001
0100
0000
0001
0000
1001
0000
,
1000
0100
0010
0000
0001
0000
0011
0000
,
0010
0100
1000
0000
0001
0000
0101
0000
,
0001
1000
0100
0000
0010
0000
0011
0000
,
0010
0100
1000
0000
0001
0000
0101
0000
,
0100
0010
1000
0100
0010
0000
0001
0000
,
0010
0000
0001
0010
0000
0001
0010
0000
,
0100
0000
1000
0100
0000
1000
0100
0000
,
1000
0000
0010
1000
0000
0010
1000
0000
,
0001
0000
0100
0001
0000
0100
0001
0000
,
1000
0000
0100
1000
0000
0100
1000
0000
,
0001
0000
0010
0001
0000
0010
0001
0000
,
1000
0000
0010
1000
0000
0010
1000
0000
,
0001
0000
0100
0001
0000
0100
0001
0000
,
1000
0000
0001
1000
0000
0001
1000
0000
,
0001
0000
1000
0001
0000
1000
0001
0000
,
0100
0000
0010
0100
0000
0010
0100
0000
,
0010
0000
0100
0010
0000
0100
0010
0000
,
1000
0000
0010
1000
0000
0010
1000
0000
,
0001
0000
0100
0001
0000
0100
0001
0000
,
1000
0000
0100
1000
0000
0100
1000
0000
,
0200
0000
0000
0000
,
0310
0011
0000
0011
,
0010
0110
0000
0110
,
0100
1100
0000
1100
,
1000
1001
0000
1001
,
0001
0101
0000
0101
,
0100
0110
0000
0110
,
0010
1010
0000
1010
,
1000
0000
0100
0000
0010
0000
0001
1000
,
0001
0100
0001
1000
,
0100
0000
0010
0000
0001
1000
0001
0000
,
0100
0010
1000
0100
,
0010
0000
0001
0000
1000
0001
1000
0000
,
0001
0100
0010
1000
,
0100
0000
0010
0000
0001
1000
0001
0000
,
0010
0100
1000
0001
,
0100
0000
0010
0000
1000
0001
1000
0000
,
0001
0010
0100
1000
,
0010
0000
0100
0000
0001
1000
0001
0000
,
1000
0100
0010
0001
,
0010
0000
0100
0000
1000
0001
1000
0000
,
0001
0010
0100
1000
,
0010
0000
0100
0000
0001
1000
0001
0000
,
1000
0100
0010
0001
,
2000
0000
0000
0000
0000
0000
0000
3000
;

//---------------dance-single - Renard----------------
#NOTES:
     dance-single:
     Renard:
     Easy:
     3:
     0.270,0.291,0.000,0.043,0.000: // measure 1
0000
0000
0000
0000
,  // measure 2
0000
0000
0000
0000
,  // measure 3
0000
0000
0000
0000
,  // measure 4
0000
0000
0000
0000
,  // measure 5
1000
0001
1000
0001
,  // measure 6
0100
0010
0100
0010
,  // measure 7
1000
0010
1000
0010
,  // measure 8
0100
0001
0100
0001
,  // measure 9
1000
0100
0010
0001
,  // measure 10
1000
0001
0100
0010
,  // measure 11
1000
0010
0100
0002
,  // measure 12
2000
0000
0000
3003
,  // measure 13
1000
0000
0001
0000
0000
0001
0000
0000
,  // measure 14
0100
0000
0010
0000
0000
0010
0000
0000
,  // measure 15
1000
0000
0010
0000
0000
0010
0000
0000
,  // measure 16
1000
0000
0100
0000
0000
0100
0000
0000
,  // measure 17
0010
0000
0001
0000
0000
0001
0000
0000
,  // measure 18
1000
0000
0010
0000
0000
0010
0000
0000
,  // measure 19
0100
0000
0001
0000
0000
0001
0000
0000
,  // measure 20
1000
0000
0100
1000
,  // measure 21
0001
0000
0100
0000
0000
0100
0000
0000
,  // measure 22
0010
0000
1000
0000
0000
1000
0000
0000
,  // measure 23
0001
0000
0010
0000
0000
0010
0000
0000
,  // measure 24
0100
0000
1000
0000
0000
1000
0000
0000
,  // measure 25
0001
0000
0010
0000
0000
0010
0000
0000
,  // measure 26
0100
0000
1000
0000
0000
1000
0000
0000
,  // measure 27
0001
0000
0010
0000
0000
0100
0000
0000
,  // measure 28
1000
0010
0100
0001
,  // measure 29
1000
0000
0001
0000
0000
0001
0000
0000
,  // measure 30
0100
0000
0010
0000
0000
0010
0000
0000
,  // measure 31
1000
0000
0100
0000
0000
0100
0000
0000
,  // measure 32
0010
0000
0001
0000
0000
0001
0000
0000
,  // measure 33
1000
0000
0010
0000
0000
0010
0000
0000
,  // measure 34
0100
0000
0001
0000
0000
0001
0000
0000
,  // measure 35
0010
0000
0100
0000
0000
0100
0000
0000
,  // measure 36
1000
0000
0001
0000
0000
0100
0000
0000
,  // measure 37
0010
0000
1000
0000
0000
1000
0000
0000
,  // measure 38
0010
0000
0100
0000
0000
0001
0000
0000
,  // measure 39
0010
0000
0100
0000
0000
0100
0000
0000
,  // measure 40
1000
0000
0001
0000
0000
0100
0000
0000
,  // measure 41
0010
0000
1000
0000
0000
0010
0000
0000
,  // measure 42
0100
0000
0001
0000
0000
1000
0000
0000
,  // measure 43
0001
0000
0010
0000
0000
0100
0000
0000
,  // measure 44
2000
0000
0000
0000
,  // measure 45
3001
0100
0001
1000
,  // measure 46
0100
0010
0001
1000
,  // measure 47
0001
0100
0010
1000
,  // measure 48
0010
0100
0001
1000
,  // measure 49
0100
0010
0001
1000
,  // measure 50
0010
0100
0001
1000
,  // measure 51
0100
1000
0001
0010
,  // measure 52
0001
0000
1000
0000
0010
0000
0100
0010
,  // measure 53
0000
0100
0001
1000
,  // measure 54
0100
0010
0001
1000
,  // measure 55
0001
0010
0100
1000
,  // measure 56
0001
1000
0100
0010
,  // measure 57
0001
1000
0001
0010
,  // measure 58
0100
1000
0001
1000
,  // measure 59
0010
0100
0001
1000
,  // measure 60
0001
0000
0100
0000
0010
0000
1000
0001
,  // measure 61
1000
0000
0001
0100
,  // measure 62
0001
0000
1000
0000
,  // measure 63
0100
0010
0001
0010
,  // measure 64
0100
1000
0001
1000
,  // measure 65
0001
0010
0100
1000
,  // measure 66
0001
1000
0100
0010
,  // measure 67
0001
1000
0001
0200
,  // measure 68
0020
0000
0000
0000
0000
0000
0000
0330
;
