#TITLE:Memory War;
#SUBTITLE:;
#ARTIST:Asian Dub Foundation;
#TITLETRANSLIT:;
#SUBTITLETRANSLIT:;
#ARTISTTRANSLIT:;
#CREDIT:;
#BANNER:war.png;
#BACKGROUND:war-bg.png;
#LYRICSPATH:;
#CDTITLE:;
#MUSIC:war.ogg;
#OFFSET:0.000;
#SAMPLESTART:10.852;
#SAMPLELENGTH:12.000;
#SELECTABLE:YES;
#BPMS:0.000=176.925;
#STOPS:;
#BGCHANGES:;

//---------------dance-single - Renard----------------
#NOTES:
     dance-single:
     Renard:
     Hard:
     8:
     0.585,0.653,0.408,0.009,0.019:
0000
0000
0000
0000
,
0000
0000
0000
0000
,
0000
0000
0000
0000
,
0000
0000
0000
0000
,
1000
0000
1000
0001
0000
0001
1000
0000
,
0001
0000
0001
1000
0000
1000
0001
0000
,
0000
1000
0001
0100
0010
1000
0100
0010
,
0001
0000
0001
1000
0000
1000
0001
0000
,
0100
0001
0100
0010
0100
0000
0110
0000
,
0010
1000
0100
1000
0001
0000
1001
0000
,
0001
0000
0001
0100
0000
0000
0110
0000
,
0010
1000
0100
0000
1001
0000
1001
0000
,
0110
0000
0010
0100
0000
0001
1000
0000
,
0100
0010
0001
1000
0100
0000
1100
0000
,
0001
0010
0100
1000
0100
0010
0001
1000
,
0100
0000
0010
0000
0001
0000
0010
0000
0100
1000
0100
0000
1000
0000
0001
0010
,
0001
0000
0001
1000
0000
1000
0010
0000
,
0010
0100
0000
0100
0001
0100
0010
0100
,
1000
0000
1000
0100
0000
0100
0001
0000
,
0001
0010
0000
0010
0100
1000
0100
0001
,
0100
0000
0100
0010
0000
0010
0100
0000
,
0100
1000
0000
1000
0010
0100
0010
0001
,
0000
0001
0010
0100
0001
1000
0100
0010
,
0001
1001
0110
1001
,
1000
0000
1000
0001
0000
0001
0100
0000
,
0010
1000
0100
0000
1100
0000
1000
0001
,
0010
0000
0001
1000
0000
0001
0100
0000
,
0110
0000
1001
0000
0110
0000
0100
1000
,
0010
0000
0100
0000
0101
0000
0001
0100
,
0000
0010
1000
0000
1001
0000
1000
0100
,
0010
0000
0001
0000
1001
0000
0001
0100
,
0000
0010
1000
0000
1001
0000
1100
0000
,
0011
0000
0001
1000
0010
0000
0100
0001
,
0000
0100
0010
0000
0110
0000
0010
1000
,
0001
0000
1000
0000
1100
0000
1000
0001
,
0000
0010
0001
0000
1000
0000
0001
0100
,
0010
0000
0100
0000
0110
0000
0010
1000
,
0100
0000
0010
0000
0110
0000
0100
1000
,
0010
0000
1000
0000
1001
0000
0001
0100
,
0000
0001
1000
0100
1000
0000
0001
0100
,
0001
0000
0100
0000
0110
0000
0010
1000
,
0001
0100
0001
0000
0101
0000
0001
0100
,
0010
0000
0100
0000
0110
0000
0010
1000
,
0000
0001
0100
0000
0001
1000
0100
0000
,
0010
0001
0000
1000
0100
0000
0010
0001
,
0000
1000
0010
0000
0100
0001
0100
0000
,
0001
0000
0000
1000
0000
0000
0001
0000
0000
1000
0000
0000
0001
0000
0100
0000
,
0010
1000
0100
0010
0001
1000
0001
0100
,
0001
0000
0001
1000
0000
0000
1100
0000
,
1000
0001
0010
0100
1000
0000
1001
0000
,
0001
0000
0001
0100
0000
0000
0110
0000
,
0010
1000
0001
0100
0010
0000
0110
0000
,
0010
0000
0010
1000
0000
0000
1001
0000
,
1000
0100
0010
0001
1000
0000
1001
0000
,
0001
0000
0100
0001
0000
1000
0100
0000
,
1000
0001
0010
0100
0010
0000
0110
0000
,
0100
1000
0001
0000
1001
0000
0001
0000
,
0100
0010
1000
0001
1000
0000
1001
0000
,
0001
0100
0110
1001
,
1000
0100
0010
0001
1000
0000
1001
0000
,
0001
0100
0010
0100
0001
0000
0101
0000
,
0001
1000
0100
0010
0100
0000
0110
0000
,
0010
1000
0001
0000
1000
0100
0010
0000
,
0001
0010
0100
1000
0001
0000
0110
0000
,
0010
1000
0001
1000
0000
1000
0100
0000
,
0010
0001
0010
0100
1000
0001
0100
0000
,
0010
0000
1000
0010
0000
0100
0001
0000
,
1000
0100
0010
0001
0010
0100
1000
0001
,
0100
0000
0100
0001
0000
0001
1000
0100
,
0010
0001
0010
0100
1000
0010
0100
0010
,
0001
0000
0001
0010
0000
0010
0100
0001
,
0100
1000
0100
0010
0100
0001
1000
0100
,
0020
0000
0030
0000
;

//---------------dance-single - Renard----------------
#NOTES:
     dance-single:
     Renard:
     Medium:
     5:
     0.387,0.447,0.104,0.009,0.000:
0000
0000
0000
0000
,
0000
0000
0000
0000
,
0000
0000
0000
0000
,
0000
0000
0000
0000
,
1000
0000
0000
0001
0000
0000
0100
0000
,
0010
0000
0000
1000
0000
0000
0001
0000
,
0000
1000
0001
1000
0001
1000
0001
1000
,
1000
0000
0001
0001
0000
1000
1000
0000
,
0010
0000
0100
0010
0100
0000
0010
0000
,
1000
0001
1000
0000
,
0001
0000
1000
0001
1000
0000
0001
0000
,
0100
0010
0100
0000
,
0010
0000
1000
0010
1000
0000
0001
0000
,
0100
0001
1000
0000
,
0001
0000
0010
0001
0010
0000
0100
0000
,
1000
0000
0001
0000
0100
0001
0100
0000
,
0001
0000
0001
1000
0000
1000
0001
0000
,
0100
0010
0100
0000
,
0010
0000
0010
1000
0000
1000
0001
0000
,
1000
0100
0010
0001
,
1000
0000
1000
0001
0000
0001
1000
0000
,
0001
0100
0010
1000
,
0000
0001
1000
0001
1000
0001
1000
0001
,
0100
0010
0100
0000
0010
0000
0000
0000
,
1000
0000
0001
0100
,
0001
1000
1001
0000
,
1000
0000
0100
0010
,
0001
1000
1001
0000
,
0001
0100
0001
1000
,
0100
1000
0100
0000
1000
0000
0000
0000
,
0001
0010
0001
1000
,
0001
0100
0001
0000
1000
0000
0000
0000
,
0100
0000
0010
0000
0001
0000
1000
0001
,
1000
0001
0100
0000
,
0010
0000
1000
0000
0001
0000
0100
0010
,
0100
0010
1001
0000
,
1000
0000
0100
0000
0010
0000
0001
1000
,
0001
0100
0110
0000
,
0010
0000
1000
0000
0001
0000
1000
0100
,
1000
0001
0011
0010
,
0100
1000
0100
0000
1000
0000
0001
0000
,
0100
0000
0001
0000
,
1000
0100
1000
0000
0001
0000
0010
0000
,
0001
0000
1001
0000
,
0001
1000
0010
0100
,
0001
1000
1001
0000
,
0001
0100
0001
0100
,
0001
1000
0001
1000
0001
1000
0001
1000
,
0001
0000
0001
1000
0000
0000
1001
0000
,
1000
0000
1000
0001
0000
0000
1001
0000
,
0100
0000
0100
0010
0000
0000
0110
0000
,
0010
0000
0010
0100
0000
0000
0110
0000
,
0010
0000
0000
1000
0000
0000
0001
0000
,
0100
0000
0000
0001
0000
0000
1000
0000
,
0100
0000
0000
0010
0000
0000
0001
0000
,
1000
0001
1000
0010
,
1000
0000
0000
0001
0000
0000
0100
0000
,
0001
0000
0000
0010
0000
0000
0100
0000
,
1000
0000
0000
0001
0000
0000
1000
0000
,
0010
0000
0000
0100
0000
0000
0001
0000
,
1000
0000
0000
0001
0000
0000
0100
0000
,
0001
0000
0000
1000
0000
0000
0010
0000
,
1000
0000
0000
0001
0000
0000
0010
0000
,
0100
1000
0001
1000
,
0010
1000
0001
0100
,
0001
0010
0100
1000
,
0001
1000
0010
0100
,
0001
0000
0100
0000
0001
0000
1000
0001
,
1000
0001
0010
0100
,
1000
0000
0001
0000
0100
0000
0001
0100
,
0001
1000
0001
0100
,
0001
1000
0100
1000
0001
0000
0010
0000
,
0002
0000
0003
0000
;

//---------------dance-single - Renard----------------
#NOTES:
     dance-single:
     Renard:
     Easy:
     2:
     0.233,0.309,0.085,0.009,0.000: // measure 1
0000
0000
0000
0000
,  // measure 2
0000
0000
0000
0000
,  // measure 3
0000
0000
0000
0000
,  // measure 4
0000
0000
0000
0000
,  // measure 5
1000
0000
1000
0000
,  // measure 6
0001
0000
0001
0000
,  // measure 7
1000
0000
0001
0000
,  // measure 8
0100
0000
0000
0000
,  // measure 9
0010
0100
0010
0000
,  // measure 10
0100
0000
0100
0000
,  // measure 11
0001
1000
0001
0000
,  // measure 12
1000
0000
1000
0000
,  // measure 13
0001
0000
0000
0100
,  // measure 14
0001
0000
0000
1000
,  // measure 15
0001
0000
1000
0000
,  // measure 16
0010
0000
1000
0000
,  // measure 17
0001
0000
0100
0001
,  // measure 18
1000
0000
0001
0000
,  // measure 19
1000
0000
0010
1000
,  // measure 20
0001
0000
1000
0000
,  // measure 21
0001
0000
0001
0000
,  // measure 22
1000
0000
1000
0000
,  // measure 23
0000
0010
0010
0010
,  // measure 24
0010
0000
0000
0000
,  // measure 25
0100
0000
0101
0000
,  // measure 26
0000
0000
1001
0000
,  // measure 27
0000
0000
1100
0000
,  // measure 28
0000
0000
1010
0000
,  // measure 29
1000
0000
0001
0000
,  // measure 30
0100
0000
0001
0000
,  // measure 31
1000
0001
0010
0001
,  // measure 32
1000
0010
1000
0001
,  // measure 33
0100
0000
0100
0000
,  // measure 34
0100
0000
0100
0000
,  // measure 35
0010
0000
0010
0000
,  // measure 36
0010
0000
0010
0000
,  // measure 37
1000
0000
0001
0000
,  // measure 38
1000
0000
0001
0000
,  // measure 39
1000
0000
0100
0000
,  // measure 40
0010
0001
0010
0001
,  // measure 41
1000
0000
1001
0000
,  // measure 42
0001
0000
1001
0000
,  // measure 43
0010
0000
0110
0000
,  // measure 44
0100
0000
0110
0000
,  // measure 45
0010
0000
0010
0000
,  // measure 46
0100
0000
0100
0000
,  // measure 47
0001
0000
1000
0000
,  // measure 48
0001
0100
0001
0000
,  // measure 49
1000
0000
1000
0001
,  // measure 50
1000
0000
1000
0000
,  // measure 51
0001
0000
0001
1000
,  // measure 52
0001
0000
1000
0000
,  // measure 53
0010
0000
0010
0100
,  // measure 54
0010
0000
0010
0000
,  // measure 55
0100
0000
0100
0010
,  // measure 56
0100
0000
1001
0000
,  // measure 57
0001
1000
0001
1000
,  // measure 58
0001
1000
0001
0000
,  // measure 59
0100
0010
0100
0010
,  // measure 60
0100
0010
0100
0000
,  // measure 61
0001
0100
0001
0000
,  // measure 62
1000
0010
1000
0000
,  // measure 63
0100
1000
0001
0010
,  // measure 64
0001
0000
0001
0000
,  // measure 65
1000
0000
1000
0001
,  // measure 66
1000
0000
0001
0000
,  // measure 67
0100
0000
0001
0000
,  // measure 68
1000
0100
1000
0000
,  // measure 69
0001
0000
0010
0000
,  // measure 70
0001
0000
1000
0000
,  // measure 71
0010
0100
0010
0000
,  // measure 72
1000
0000
0001
0100
,  // measure 73
0002
0000
0003
0000
;
