#TITLE:McCloud;
#SUBTITLE:;
#ARTIST:Jaql;
#TITLETRANSLIT:;
#SUBTITLETRANSLIT:;
#ARTISTTRANSLIT:;
#CREDIT:;
#BANNER:mccloud.png;
#BACKGROUND:mccloud-bg.png;
#LYRICSPATH:;
#CDTITLE:;
#MUSIC:mccloud.ogg;
#OFFSET:0.000;
#SAMPLESTART:32.914;
#SAMPLELENGTH:12.000;
#SELECTABLE:YES;
#BPMS:0.000=175.000;
#STOPS:;
#BGCHANGES:;

//---------------dance-single - Renard----------------
#NOTES:
     dance-single:
     Renard:
     Challenge:
     11:
     0.819,1.000,0.068,0.000,0.486:
0000
0000
0000
0000
,
0000
0000
0000
0000
,
0000
0000
0000
0000
,
0000
0000
0000
0000
,
1000
0100
0010
0001
0010
0100
1000
0010
,
0100
0001
0010
0100
0010
1000
0001
0000
,
0100
0000
0010
0001
0010
0000
0100
0000
0010
0100
0010
0000
0100
0000
1000
0100
,
1000
0000
0010
0000
1000
0010
1000
0000
0001
0000
0100
0010
1000
0000
0010
1000
,
0010
0100
0001
0100
0010
1000
0100
0010
,
0001
0000
0010
0000
0100
0000
1000
0001
1000
0001
1000
0000
0001
0000
0100
0000
,
0010
1000
0100
1000
0100
0010
0001
0010
,
0001
0000
0100
0000
0010
0000
1000
0010
1000
0010
1000
0000
0010
0000
0100
0000
,
0001
0010
0100
1000
0001
1000
0001
0100
,
0010
0000
0100
0000
0001
0000
1000
0001
1000
0001
1000
0000
0001
0000
0100
0010
,
0100
0001
0010
0100
1000
0001
0010
0001
,
1000
0000
0001
0000
0100
0000
0001
0100
0001
0100
0001
0000
0100
0000
0010
1000
,
0010
0100
0001
0100
0010
1000
0100
0010
0001
0000
0010
0000
0100
0000
1000
0000
,
0001
0010
0100
1000
0001
0100
0010
0000
,
1000
0010
0100
0001
0010
0100
1000
0001
0010
0000
0100
0000
1000
0000
0001
0000
,
0100
0010
1000
0001
1000
0100
1000
0000
,
0001
0010
0100
1000
0001
0100
0010
1000
0001
0000
0100
0000
0010
0000
1000
0000
,
0100
0010
0001
0010
0100
1000
0001
0000
,
0100
0010
0100
0010
1000
0000
0010
0000
1000
0000
0001
0000
0010
0000
0100
0000
,
1000
0001
0010
0100
1000
0001
0100
0000
,
0001
0000
0000
0000
0100
0000
0000
0100
0010
0000
1000
0000
0000
0000
0100
0000
,
0000
0000
0010
0000
0001
0000
0000
0010
0100
0000
1000
0000
0001
0000
0100
0000
,
0010
0000
0000
0010
1000
0000
0000
1000
0010
0000
0100
0000
0001
0000
0010
0000
,
0000
0000
0100
1000
0001
0000
1000
0000
0010
0000
0100
0000
0001
0000
0000
0000
,
0100
0000
0000
0000
0010
0000
0000
0010
1000
0000
0001
0000
0010
0000
0100
0000
,
0000
0000
0100
0000
1000
0000
0000
0001
1000
0000
0010
0000
0100
0000
0001
0000
,
0100
0000
0110
0000
0010
1000
0100
0010
,
0000
0000
0010
0000
0001
0000
0000
0001
0010
0000
0100
0000
1000
0000
0001
0000
,
0100
0000
0110
0000
0010
1000
0000
0001
,
0000
0000
0100
0000
0010
0000
0000
0010
1000
0000
0100
0000
0010
0000
0001
0000
,
0010
0000
0000
0000
0110
0000
0000
0100
1000
0000
0001
0000
0100
0000
0010
0000
,
0000
0000
0010
0000
1000
0000
0000
1000
0001
0000
0100
0000
0010
0000
1000
0000
,
0100
0000
0000
0000
1100
0000
0000
0100
0010
0000
0001
0000
0000
0000
0110
0000
,
0000
0000
0100
0000
1000
0000
0000
0001
0100
0000
0010
0000
1000
0000
0001
0000
,
0101
0000
0110
0000
0010
1000
0100
0110
,
0000
0000
0100
0000
1000
0000
0000
0001
0100
0000
0001
0000
0100
0000
0010
0000
,
1000
0001
1000
0100
1000
0010
1000
0001
,
0010
0001
0100
0001
1000
0001
0100
0010
,
0100
1000
0100
0001
0100
0010
0100
0001
,
0010
0100
0010
1000
0010
0100
0010
0001
,
1000
0010
1000
0001
1000
0001
0100
0001
,
0010
0001
1000
0100
1000
0010
1000
0001
,
0100
0010
0100
0001
1000
0100
0010
0001
,
0010
0100
0010
0001
1000
0010
0100
0001
,
0100
0000
0000
0000
,
0000
0000
0000
0000
,
0000
0000
0000
0000
,
0001
0100
0010
1000
0100
0000
0000
0010
0001
0000
0010
0000
0100
0000
1000
0000
,
0001
0000
0000
0000
0100
0000
0000
0100
0010
0000
1000
0000
0010
0000
0000
0000
,
1000
0010
0100
0001
0100
0000
0010
0000
1000
0000
0100
0000
0010
0000
0001
0000
,
0000
0010
0100
1000
0001
0100
0010
0000
,
1000
0010
0100
0001
0010
0000
0000
0010
0100
0000
1000
0000
0001
0000
0100
0000
,
0010
0000
1000
0000
0100
0000
0000
0100
1000
0000
0001
0000
0010
0000
0100
0000
,
1000
0001
0100
0010
1000
0000
0001
0000
0100
0000
0010
0000
1000
0000
0100
0000
,
0000
0100
0010
0001
0010
0100
1000
0001
,
0100
0010
1000
0001
0100
0000
0010
0000
1000
0000
0100
0000
0010
0000
0001
0000
,
0000
0001
0010
0100
1000
0001
0100
0010
,
1000
0010
0100
0001
0100
0000
0010
0000
1000
0000
0100
0000
0010
0000
0001
0000
,
0000
0000
0001
0000
0010
0000
0000
0010
0100
0000
1000
0000
0001
0000
0100
0010
,
1000
0010
0100
0001
0100
0000
0010
0000
1000
0000
0100
0000
0010
0000
0001
0000
,
0000
0000
0001
0000
0010
0000
0000
0010
0100
0000
1000
0000
0001
0000
0100
0000
,
0010
1000
0010
0100
0001
0000
0100
0000
0010
0000
1000
0000
0100
0000
0010
0001
,
0000
0000
0010
0000
0100
0000
1000
0000
0001
0000
0100
0010
0100
0000
0010
0000
,
1000
0010
0100
0001
0100
0010
1000
0100
,
0010
0001
0010
0100
1000
1000
0001
0001
,
1000
0010
0100
0001
0010
0100
0010
0001
,
1000
0010
0100
0001
0001
1000
1000
0010
,
0100
0001
0010
0100
1000
0001
0100
0010
,
1000
0100
0010
0001
1000
1000
0001
0001
,
0100
0010
1000
0100
0010
0001
0010
0100
,
1000
0001
1000
0100
0100
0010
0010
0001
,
1000
0100
1000
0100
1000
0000
0001
0010
0001
0010
0001
0000
0100
0010
0100
0010
,
0100
0000
0010
1000
0010
1000
0010
0000
0001
0100
0010
1000
0010
0100
0001
0000
,
1000
0100
1000
0100
1000
0000
0001
0010
0001
0010
0001
0000
0100
0001
0100
0001
,
0100
0000
0010
1000
0010
1000
0010
0000
0100
0001
0100
0010
1000
0010
0100
0001
,
1000
0100
1000
0100
0010
0000
0001
0010
0001
0010
0100
0000
1000
0010
1000
0010
,
0100
0000
0001
0100
0001
0100
0010
0000
1000
0010
1000
0001
0100
0010
1000
0100
,
0010
0001
0010
0001
0010
0000
0100
1000
0100
1000
0100
0000
1000
0010
1000
0010
,
0100
0001
0100
0010
0100
0001
0100
0010
0100
0000
0000
0000
0000
0000
0000
0000
;

//---------------dance-single - Renard----------------
#NOTES:
     dance-single:
     Renard:
     Hard:
     9:
     0.601,0.598,0.349,0.009,0.000:
0000
0000
0000
0000
,
0000
0000
0000
0000
,
0000
0000
0000
0000
,
0000
0000
0000
0000
,
0000
0000
0000
0000
,
0000
0000
0000
0000
,
0000
0000
0000
0000
,
0000
0000
0000
0000
,
1000
0100
1000
0100
0010
0100
0010
0100
,
0010
0001
0010
0001
0100
0001
0100
0001
,
0100
0010
0100
0010
1000
0010
1000
0010
,
1000
0100
1000
0100
0010
0001
0010
0001
,
1000
0010
1000
0010
0100
0001
0100
0001
,
0100
0010
0100
0010
0100
0001
0100
0001
,
1000
0100
1000
0100
0010
0001
0010
0001
,
1000
0001
1000
0001
0100
0001
0100
0001
,
0100
0010
1000
0100
0010
0000
0011
0000
,
0010
0100
1000
0001
0100
0000
0101
0000
,
0001
0100
0010
1000
0100
0000
1100
0000
,
1000
0100
0010
0001
1000
0000
1001
0000
,
0001
0100
0010
1000
0001
0000
1001
0000
,
1000
0100
0010
0001
1000
0000
1001
0000
,
0001
0010
0100
1000
0001
0000
1001
0000
,
1000
0010
0100
0001
1000
0000
1001
0000
,
0001
0100
0010
0000
1000
0100
0000
0110
,
0000
0010
0100
1000
,
0010
0000
0100
0000
0001
0100
0010
1000
,
0000
0000
1010
0000
1000
0100
0010
0000
,
0001
0000
0011
0000
0010
0100
0000
1100
,
0000
0000
1000
0000
0010
0100
0001
0000
,
1000
0000
1100
0000
1000
0100
0010
0001
,
1000
0000
0110
0000
0001
0010
0100
0000
,
1000
0000
0101
0000
0001
1000
0000
1100
,
0000
1000
0100
0000
0010
0001
0010
0000
,
0100
1000
0001
0000
0100
0010
1000
0001
,
0100
0000
0101
0000
1000
0100
0010
0000
,
0100
0000
1100
0000
1000
0001
0000
0101
,
0000
0001
1000
0000
0100
0010
0001
0000
,
1000
0000
1010
0000
0100
0001
0010
0100
,
0000
0000
0110
0000
0100
1000
0010
0100
,
0001
0000
0101
0000
0001
1000
0100
0000
,
0010
0000
0110
0000
0010
0001
1000
0000
,
0010
0000
1010
0000
1000
0001
0100
0000
,
0001
0000
1001
0000
1000
0100
0010
0000
,
0001
0000
0011
0000
0010
0100
1000
0000
,
0010
0000
1010
0000
1000
0100
0010
0000
,
0100
0000
0110
0000
0100
1000
0001
0000
,
0100
0000
0110
0000
0100
0001
1000
0000
,
0200
0000
0000
0000
,
0000
0000
0000
0000
,
0000
0000
0000
0000
,
1300
0000
0001
0000
0100
0010
0000
0110
,
0000
0010
1000
0100
0010
0001
1000
0000
,
0010
0000
0110
0000
0100
0001
0010
0100
,
1000
0000
0001
0100
0010
0000
1000
0100
,
0010
0000
0110
0000
0010
0001
0000
1001
,
0000
1000
0010
0100
0001
0010
0100
0000
,
0100
0000
1100
0000
1000
0010
0100
0001
,
0000
1000
0100
0000
1000
0100
0010
0001
,
0010
0100
0010
0000
0100
0010
0000
0110
,
0000
0100
1000
0010
0100
0001
0010
0000
,
0100
0000
0110
0000
0100
1000
0001
0100
,
0000
0000
0110
0000
0010
1000
0100
0010
,
0001
0000
0011
0000
0010
0100
0000
1100
,
0000
1000
0010
0100
0001
1000
0100
0010
,
0001
0000
0011
0000
0010
0100
1000
0001
,
0100
0000
0010
0000
1000
0100
0010
0000
,
0100
1000
0100
1000
0010
1000
0001
0100
,
0001
0010
0001
0010
0100
1000
0001
0100
,
0010
1000
0010
0100
0001
0100
0001
0010
,
0001
1000
0100
1000
0001
0010
0100
1000
,
0001
0100
0001
1000
0010
1000
0100
1000
,
0100
0010
0001
0010
0001
0010
0100
1000
,
0001
0100
0001
1000
0010
1000
0100
1000
,
0100
0010
0001
0010
0001
0010
0100
1000
,
0001
0100
0001
1000
0010
1000
0100
1000
,
0100
0010
0001
0010
0100
1000
0001
0100
,
0010
1000
0010
0100
0001
0100
0001
1000
,
0001
1000
0100
1000
0001
0010
0100
1000
,
0001
0100
0001
1000
0010
1000
0100
1000
,
0100
0010
0001
0010
0001
0100
0010
1000
,
0100
0010
0001
0010
0100
1000
0001
0100
,
0010
1000
0100
0010
0011
0000
0000
0000
;

//---------------dance-single - Renard----------------
#NOTES:
     dance-single:
     Renard:
     Medium:
     6:
     0.336,0.387,0.009,0.068,0.000:
0000
0000
0000
0000
,
0000
0000
0000
0000
,
0000
0000
0000
0000
,
0000
0000
0000
0000
,
0000
0000
0000
0000
,
0000
0000
0000
0000
,
0000
0000
0000
0000
,
0000
0000
0000
0000
,
1000
1000
0001
0001
,
0100
0000
0100
0000
0010
0000
1000
0010
,
1000
1000
0001
0001
,
0010
0000
0010
0000
0100
0000
0100
1000
,
0100
1000
1000
0001
,
0100
0001
0001
0010
,
0100
0100
0010
0001
,
1000
0000
0001
0000
0100
0000
0001
1000
,
0001
1000
0001
1000
,
0020
0000
0230
0000
,
0301
1000
0100
0010
,
0002
0000
2003
0000
,
3001
1000
0010
0100
,
0020
0000
0230
0000
,
0301
1000
0100
0010
,
0002
0000
2003
0000
,
3001
0000
0100
0000
0010
1000
0000
0010
,
0000
0000
0000
0000
,
1000
0000
0010
0000
0100
0000
0001
1000
,
0000
0000
0000
0000
,
0100
0000
0010
0000
0001
1000
0000
0001
,
0000
0000
0000
0000
,
1000
0000
0010
0000
0100
0000
0001
1000
,
0000
0000
0000
0000
,
0100
0000
0010
0000
0001
1000
0000
0001
,
0000
0000
0000
0000
,
0010
0000
0100
0000
1000
0001
0000
0100
,
0000
0000
0000
0000
,
0001
0000
1000
0000
0100
1000
0000
0001
,
0000
0000
0000
0000
,
0010
0000
0001
0000
1000
0100
1000
0100
,
0000
0000
1000
0001
,
0100
0010
0100
0010
,
1000
0010
1000
0010
,
0100
0001
0100
0001
,
1000
0100
1000
0100
,
0010
0001
0010
0001
,
0100
0001
0100
0001
,
1000
0010
1000
0010
,
1000
0100
0010
0001
,
1001
0000
0000
0000
,
0000
0000
0000
0000
,
0000
0000
0000
0000
,
1000
0000
0001
0000
0100
0000
0000
0001
,
0000
1000
0100
0010
,
0001
0000
1000
0000
0001
0000
0000
0100
,
0000
0010
1000
0100
,
0010
0000
0001
0000
1000
0000
0000
0100
,
0000
0010
0001
1000
,
0001
0000
0100
0000
0010
0000
0000
1000
,
0000
0010
0100
0001
,
1000
0000
0100
0000
0010
0000
0000
0001
,
0000
1000
0001
0100
,
0010
0000
1000
0000
0100
0000
0000
0010
,
0000
0001
1000
0010
,
0100
0000
0010
0000
1000
0000
0000
0001
,
0000
0010
0100
1000
,
0001
0000
0100
0000
0010
0000
0000
1000
,
0000
0010
0100
0001
,
1000
0100
1000
0100
,
0010
0000
0100
0000
0010
0001
0010
0000
,
0100
1000
0100
1000
,
0001
0000
0100
0000
0001
1000
0001
0000
,
1000
0001
0100
0010
,
1000
0000
0100
0000
0010
0001
0010
0000
,
0100
1000
0010
0100
,
0001
0000
1000
0000
0100
1000
0100
0000
,
1000
0001
1000
0000
0001
0000
1000
0000
,
0001
1000
0001
0000
1000
0000
0001
0000
,
0100
0010
0100
0000
0010
0000
0100
0000
,
0010
0100
0010
0000
0100
0000
0010
0000
,
1000
0010
1000
0000
0010
0000
1000
0000
,
0001
0100
0001
0000
0100
0000
0001
0000
,
1000
0100
1000
0000
0001
0000
0010
0000
,
0001
1000
0010
0100
0001
0000
0000
0000
;

//---------------dance-single - Renard----------------
#NOTES:
     dance-single:
     Renard:
     Easy:
     2:
     0.270,0.316,0.017,0.136,0.000: // measure 1
0000
0000
0000
0000
,  // measure 2
0000
0000
0000
0000
,  // measure 3
0000
0000
0000
0000
,  // measure 4
0000
0000
0000
0000
,  // measure 5
0000
0000
0000
0000
,  // measure 6
0000
0000
0000
0000
,  // measure 7
0000
0000
0000
0000
,  // measure 8
0000
0000
0000
0000
,  // measure 9
1000
0000
0001
0100
,  // measure 10
0001
0000
1000
0100
,  // measure 11
1000
0000
0001
0010
,  // measure 12
0001
0000
1000
0010
,  // measure 13
1000
0000
0001
0100
,  // measure 14
0001
0000
1000
0100
,  // measure 15
1000
0000
0001
0010
,  // measure 16
0001
0000
1000
0010
,  // measure 17
1000
0000
1000
0000
,  // measure 18
0001
0000
0001
0000
,  // measure 19
0100
0000
0100
0000
,  // measure 20
0010
0000
0010
0000
,  // measure 21
1000
0000
1000
0000
,  // measure 22
0100
0000
0100
0000
,  // measure 23
0010
0000
0010
0000
,  // measure 24
0001
0000
0001
0000
,  // measure 25
1000
0001
0100
0001
,  // measure 26
1000
0000
1000
0000
,  // measure 27
0001
1000
0100
1000
,  // measure 28
0001
0000
0001
0000
,  // measure 29
1000
0001
0100
0001
,  // measure 30
1000
0000
1000
0000
,  // measure 31
0001
1000
0100
1000
,  // measure 32
0001
0000
0001
0000
,  // measure 33
1000
0010
1000
0010
,  // measure 34
1000
0000
1000
0000
,  // measure 35
0001
0010
0001
0010
,  // measure 36
0001
0000
0001
0000
,  // measure 37
1000
0100
1000
0100
,  // measure 38
1000
0000
1000
0000
,  // measure 39
0001
0100
0001
0100
,  // measure 40
0001
0000
0001
0000
,  // measure 41
1000
0000
1000
0000
,  // measure 42
0100
0000
0010
0001
,  // measure 43
0100
0000
0100
0000
,  // measure 44
0010
0000
1000
0010
,  // measure 45
0100
0000
0100
0000
,  // measure 46
0001
0000
0001
0010
,  // measure 47
0100
0000
0100
0000
,  // measure 48
0010
0000
0001
1000
,  // measure 49
1001
0000
0000
0000
,  // measure 50
0000
0000
0000
0000
,  // measure 51
0000
0000
0000
0000
,  // measure 52
1000
0001
1000
0001
,  // measure 53
2000
0000
3002
0000
,  // measure 54
0103
0010
0100
0010
,  // measure 55
0200
0000
0320
0000
,  // measure 56
1030
0010
1000
0010
,  // measure 57
2000
0000
3020
0000
,  // measure 58
0130
0001
0100
0001
,  // measure 59
0200
0000
0302
0000
,  // measure 60
0013
0001
0010
0001
,  // measure 61
0020
0000
0032
0000
,  // measure 62
1003
0100
1000
0100
,  // measure 63
2000
0000
3200
0000
,  // measure 64
0310
0100
0010
0100
,  // measure 65
0020
0000
0230
0000
,  // measure 66
1300
0001
1000
0001
,  // measure 67
2000
0000
3002
0000
,  // measure 68
0103
0000
0001
0000
,  // measure 69
1000
0100
0010
0001
,  // measure 70
1000
0000
0100
0000
,  // measure 71
0010
0001
1000
0100
,  // measure 72
0010
0000
0001
0000
,  // measure 73
1000
0100
0010
0001
,  // measure 74
1000
0000
0100
0000
,  // measure 75
0010
0001
1000
0100
,  // measure 76
1000
0000
0010
0000
,  // measure 77
0100
0001
1000
0010
,  // measure 78
0100
0000
0001
0000
,  // measure 79
1000
0010
0100
0001
,  // measure 80
1000
0000
0010
0000
,  // measure 81
0100
0001
0010
0100
,  // measure 82
1000
0000
0001
0000
,  // measure 83
0100
0010
1001
0000
;
