#TITLE:Man, It's so Loud in Here;
#SUBTITLE:;
#ARTIST:They Might Be Giants;
#TITLETRANSLIT:;
#SUBTITLETRANSLIT:;
#ARTISTTRANSLIT:;
#CREDIT:;
#BANNER:loud.png;
#BACKGROUND:loud-bg.png;
#LYRICSPATH:;
#CDTITLE:;
#MUSIC:loud.ogg;
#OFFSET:0.000;
#SAMPLESTART:46.288;
#SAMPLELENGTH:12.000;
#SELECTABLE:YES;
#BPMS:0.000=145.177;
#STOPS:;
#BGCHANGES:;

//---------------dance-single - Renard----------------
#NOTES:
     dance-single:
     Renard:
     Challenge:
     10:
     0.821,0.998,0.232,0.020,0.611:
0000
0000
0000
0000
,
0000
0000
0000
0000
,
0001
0001
1000
1000
0001
0001
1000
1000
,
0001
0001
1000
1000
0001
0001
1000
1000
,
0001
0001
1000
1000
0001
0001
1000
1000
,
0001
0001
1000
1000
0001
0001
1000
1000
,
0001
0000
0100
0010
1000
0000
1010
1001
,
0000
1100
0000
1001
1001
0000
1001
0000
,
0001
0100
0010
1000
0001
0000
1000
1100
,
0000
1100
0000
1001
1001
0000
1001
0000
,
0001
0000
0100
0001
0100
0000
0001
0000
1000
0000
0100
1000
0100
0000
1000
0000
,
0001
0000
0010
0001
0010
0000
0001
0000
1000
0010
1000
0010
1000
0000
0001
0000
,
0100
0000
0001
0100
0001
0000
1000
0000
0100
0000
1000
0100
1000
0000
0001
0000
,
0010
0001
0010
0000
0001
0000
1000
0000
0010
1000
0010
1000
0010
0000
1000
0000
,
0100
0000
1000
0100
1000
0000
0001
0000
0010
0000
0001
0010
0001
0000
1000
0000
,
0001
0100
0001
1000
0010
1000
0100
0010
,
0001
0010
0100
1000
0010
0100
0001
0100
,
0001
1000
1001
1000
0100
1000
1100
1000
,
0001
0010
0011
0001
1000
0010
1010
1000
,
0001
0000
0100
0001
0100
0000
0001
0000
1000
0000
0100
1000
0100
0000
1000
0000
,
0001
0000
0010
0001
0010
0000
0001
0000
1000
0010
1000
0010
1000
0000
0001
0000
,
1000
0000
0100
1000
0100
0000
1000
0000
0001
0000
0010
0001
0010
0000
0001
0000
,
1000
0000
0010
1000
0010
0000
1000
0000
0001
0100
0001
0100
0001
0000
0100
0000
,
0001
0000
1000
0100
1000
0000
0001
0010
0001
0000
1000
0010
1000
0000
0001
0100
,
0001
0000
1000
0100
1000
0000
0001
0010
0001
0000
1000
0000
0100
0000
1000
0000
,
0001
0000
1000
0010
1000
0000
0001
0100
0001
0000
1000
0100
1000
0000
0001
0000
,
0010
0000
0001
1000
0001
0000
1000
0010
1000
0000
0001
0000
1000
0000
0001
0000
,
1000
0001
0000
1000
0001
0000
1000
0001
1000
0000
0001
0000
1000
0001
1000
0001
,
1000
0100
1000
0100
1000
0100
1000
0100
1000
0100
1000
0100
1000
0100
1000
0100
,
0010
0100
0010
0100
0010
0100
0010
0100
0010
0001
0010
0001
0010
0001
0010
0001
,
0100
0001
0100
0001
0100
0001
0100
0001
0100
0001
0100
0001
0100
0001
0100
0001
,
0100
0010
0100
0010
0100
0010
0100
0010
1000
0010
1000
0010
1000
0010
1000
0000
,
0100
1000
0100
1000
0100
0000
1000
0000
0001
0010
0001
0010
0001
0000
0010
0000
,
0001
1000
0001
1000
0001
0000
1000
0000
0001
0100
0001
0100
0001
0000
0100
0000
,
0010
0100
0010
0000
0100
0000
0010
0000
1000
0010
1000
0000
0010
0000
1000
0000
,
0100
0010
0001
0010
0100
0000
1100
0000
,
1000
0001
1000
0001
1000
0001
1000
0001
0100
0001
0100
0001
0100
0001
0100
0001
,
1000
0010
1000
0010
1000
0010
1000
0010
1000
0100
1000
0100
1000
0100
1000
0100
,
0010
0001
0010
0001
0010
0001
0010
0001
1000
0001
1000
0001
1000
0001
1000
0001
,
0100
0001
0100
0001
0100
0001
0100
0001
0100
0000
0010
0000
1000
0000
0100
0000
,
1000
0000
0001
1000
0001
0000
0100
0001
0100
0000
0001
1000
0100
1000
0001
0010
,
0100
0000
1000
0001
0100
0000
0010
1000
0100
0000
0010
0001
0010
0000
0100
0000
,
1000
0001
0100
0010
1000
0100
1000
0001
,
1000
0001
1001
0000
0001
0100
0101
0000
,
0001
0000
0100
0010
1000
0000
0000
0000
0000
0000
0000
0000
1010
0000
0000
0000
,
1001
0000
0000
0000
1000
0000
0100
0010
0001
0000
0010
0000
0100
0000
1000
0000
,
0001
0000
0100
0010
1000
0000
0000
0000
0000
0000
0000
0000
1001
0000
0000
0000
,
1100
0000
1000
0001
0100
0000
0001
0000
,
1000
0000
0100
0010
0001
0000
0010
0000
0000
0000
0100
0000
1000
0000
0000
0000
,
1001
0000
0001
0100
0001
1000
0100
1000
,
0001
0000
0000
0000
0001
0000
0000
0001
0100
0000
0010
0000
1000
0000
0100
0000
,
1000
0000
0000
0000
1000
0000
0000
0100
1000
0000
0010
0000
0100
0000
0001
0000
,
1000
1000
0001
0001
0100
0100
0001
0001
,
1000
1000
0001
0001
0010
0010
0001
0001
,
1000
1000
0100
0100
0010
0010
0100
0100
,
1000
1000
0001
0001
0100
0100
0001
0001
,
1000
1000
0010
0010
1000
1000
0001
0001
,
0010
0010
0100
0100
1000
1000
0010
0010
,
0100
0100
0001
0001
0010
0010
0100
0100
,
2000
0002
0000
0000
0000
0000
0000
3003
;

//---------------dance-single - Renard----------------
#NOTES:
     dance-single:
     Renard:
     Hard:
     9:
     0.622,0.635,0.343,0.020,0.182:
0000
0000
0000
0000
,
0000
0000
0000
0000
,
0001
0000
0100
0000
0010
1000
0100
0010
,
0100
0100
0100
0100
,
1000
0000
1000
0000
0010
0100
0001
0010
,
0100
0100
0100
0100
,
1100
0000
0000
1010
1010
0000
0000
1001
,
0000
1001
0000
1001
1001
0000
0000
0000
,
0011
0000
0000
0101
0101
0000
0000
1001
,
0000
1001
0000
1001
1001
0000
0000
0000
,
1000
0100
1000
0001
1000
0010
1000
0100
,
1000
0001
0100
0001
0010
0001
1000
0001
,
0100
0010
0100
1000
0100
0001
0100
0001
,
0010
0001
0010
0100
0010
1000
0010
0001
,
1000
0001
1000
0001
1000
0001
1000
0001
,
0100
0000
0000
0100
0010
0000
1000
0000
0100
0000
0000
0100
1000
0000
0001
0000
,
0010
0000
0000
0010
0001
0000
1000
0000
0010
0000
0000
0010
1000
0000
0001
0000
,
0100
0000
0000
0100
0001
0000
1000
0000
0100
0000
0000
0100
1000
0000
0001
0000
,
1000
0000
0000
1000
0001
0000
0100
0000
0001
0000
0000
0001
1000
0000
0100
0000
,
1000
0100
1000
0001
1000
0010
1000
0001
,
1000
0001
0100
0001
0010
0001
1000
0001
,
0010
0100
0010
1000
0010
0100
0010
0001
,
0100
0001
0100
0010
0100
1000
0100
0010
,
0100
0001
0100
0001
0100
0001
0100
0001
,
1000
0000
0000
1000
0100
0000
1000
0000
0001
0000
0000
0001
0100
0000
0001
0000
,
1000
0000
0000
1000
0010
0000
1000
0000
0001
0000
0000
0001
0010
0000
0001
0000
,
1000
0001
0100
0001
1000
0001
1000
0001
,
1000
0001
0000
1000
0001
0000
1000
0001
1000
0000
0001
0000
1000
0001
1000
0001
,
0100
0000
0001
0000
1000
0000
0100
0000
0010
0000
0001
0000
0010
0000
0100
0010
,
0100
0000
1000
0000
0010
0000
0100
0000
0001
0000
1000
0000
0100
0000
1000
0100
,
1000
0000
0001
0000
0100
0000
0001
0000
0010
0000
0001
0000
1000
0000
0001
0100
,
0001
0100
0010
1000
0100
0010
0001
0010
,
0100
0000
0000
0000
0110
0000
0000
0000
0000
0000
0100
1000
0100
0000
1000
0000
,
0010
0000
1010
1010
0000
1001
1001
0000
,
0101
0000
0000
0000
0001
0000
0100
0010
0100
0000
0010
0000
1000
0000
0100
1000
,
0100
1000
0001
0010
0100
1000
0001
0000
,
1000
0000
0001
0000
0100
0000
0010
1000
0000
0010
1000
0000
0010
0000
1000
0000
,
0100
0000
1000
0000
0001
0000
1000
0001
0000
1000
0001
0000
1000
0000
0001
0000
,
0100
0000
0010
1000
0010
0000
1000
0010
0000
1000
0010
0000
1000
0000
0100
0000
,
1000
0000
0001
1000
0001
0000
1000
0001
0000
1000
0001
0000
1000
0000
0001
0000
,
0100
0010
1000
0000
1000
0000
1010
0000
,
1001
1100
1001
0101
,
0001
0000
0100
0010
0100
0000
0010
0000
1000
0000
0100
1000
0100
0000
1000
0000
,
0001
0000
0010
0000
0100
0000
1000
0000
0001
0000
0100
0000
0001
0000
0100
0001
,
0100
0001
1000
0000
0100
1000
0001
0000
,
1001
0000
0110
0000
,
0010
1000
1100
0000
0100
1000
0001
1000
,
1001
1001
0110
0000
,
0010
1000
0100
0000
0100
1000
0001
0010
,
0011
0000
0010
0100
0110
0000
0100
1000
,
1100
0000
1000
0000
0010
0100
0001
0100
,
0001
0000
1000
0100
1000
0000
0001
0000
,
0100
0100
0010
0010
,
1000
0100
0010
0001
1000
0100
0010
0001
,
0100
0100
0010
0010
,
1000
0010
0100
0001
1000
0010
0100
0001
,
0010
0010
0100
0100
,
0010
0001
0010
0100
1000
0100
0010
0001
,
1000
0000
1000
0000
0001
0010
0100
0000
,
2000
0002
0000
0000
0000
0000
0000
3003
;

//---------------dance-single - Renard----------------
#NOTES:
     dance-single:
     Renard:
     Medium:
     6:
     0.424,0.484,0.172,0.040,0.000:
0000
0000
0000
0000
,
0000
0000
0000
0000
,
1000
1000
0001
0001
,
1000
0000
1000
0001
1000
0000
1000
0000
,
0001
0001
1000
1000
,
0001
0000
0001
1000
0001
0000
1001
0000
,
0001
0000
0000
0100
0001
0000
0000
1000
,
0000
0001
0000
1000
0100
0000
0000
0000
,
1000
0000
0000
0001
0010
0000
0000
0001
,
0000
1000
0000
0010
1000
0000
0001
0000
,
1000
0001
0100
0001
,
1000
0000
0100
1000
0000
0000
0001
0000
,
0010
0100
1000
0001
,
0200
0002
0000
0000
0000
0303
0001
0001
,
0000
1000
0000
0000
0100
0000
1000
0000
,
0001
0000
1000
0000
0001
0000
0100
0001
,
0000
1000
0000
0000
0000
0000
0100
0000
,
1000
1000
0001
0001
,
0100
0001
0100
0001
1000
0000
0100
0000
,
1000
0000
0001
0100
0000
0000
0001
0000
,
1000
0000
0000
0000
0100
0000
0100
1000
,
0000
1000
0010
0000
0100
0000
0001
0000
,
0010
0000
0000
0000
0001
0000
0001
0100
,
0000
0100
0010
0000
1000
0000
0100
0000
,
1000
0001
1000
0000
0001
0000
0100
0000
,
0010
0000
0010
0000
1000
0000
1000
0100
,
0000
0100
1000
0000
0001
0000
0100
0000
,
0001
0100
0001
0100
0001
0100
0001
0100
,
0001
1000
0001
0000
1001
0000
1001
0000
,
0010
0100
0010
0000
0110
0000
0110
0000
,
1010
0000
1001
0000
1000
0100
0000
1000
,
0001
1000
0001
0100
,
0001
1000
0100
0000
0000
0000
1100
0000
,
1001
0000
0001
1000
0000
0001
1000
0000
,
1001
0000
0001
0100
0001
0000
1000
0100
,
1000
0000
0001
0010
0001
0000
1000
0010
,
1000
0000
0001
0100
0001
0000
1000
0100
,
0000
1000
0001
0010
0000
0001
1000
0010
,
0000
1000
0001
0100
0000
0001
1000
0100
,
1000
0001
0100
0001
,
1000
0000
1001
0000
0001
0100
0001
1000
,
0000
0100
1000
0001
0000
1000
0001
0100
,
0001
0001
1000
1000
,
0001
0010
0001
0000
1000
0001
1000
0000
,
0001
0100
0010
0000
0000
0000
1010
0000
,
1001
0000
1000
0100
1000
0000
0001
0010
,
0001
0000
1001
0000
0001
0100
0010
0000
,
0110
0000
0010
1000
0001
0000
1000
0100
,
1000
0000
1001
0000
1000
0100
0010
0001
,
1000
0000
0001
0100
0001
0000
1000
0000
,
0100
0000
1000
0001
0100
0001
1000
0000
,
1100
0000
1000
0001
0010
0001
1000
0000
,
0001
0100
0010
1000
,
0100
0000
0010
0000
0001
0000
0010
0100
,
0000
0100
1000
0000
0010
0000
0100
0000
,
0001
0000
0100
0000
0010
0000
1000
0100
,
0000
1000
0100
0000
1000
0000
0001
0000
,
0100
0001
1000
0100
,
0010
0001
0010
0000
0100
0000
1000
0010
,
0200
0002
0000
0000
0000
0000
0000
0303
;

//---------------dance-single - Renard----------------
#NOTES:
     dance-single:
     Renard:
     Easy:
     3:
     0.254,0.333,0.000,0.222,0.000: // measure 1
0000
0000
0000
0000
,  // measure 2
0000
0000
0000
0000
,  // measure 3
1000
0000
1000
0000
,  // measure 4
0001
0000
0001
0000
,  // measure 5
0100
0000
0100
0000
,  // measure 6
0010
0000
0010
0000
,  // measure 7
1000
0000
0010
0000
,  // measure 8
1000
0010
1000
0000
,  // measure 9
0001
0000
0100
0000
,  // measure 10
0001
0100
0001
0000
,  // measure 11
2000
0000
0000
0000
,  // measure 12
3002
0000
0203
0000
,  // measure 13
0302
0000
0000
0000
,  // measure 14
2003
0000
3200
0000
,  // measure 15
0320
0000
0000
0000
,  // measure 16
0031
0001
0010
0000
,  // measure 17
0100
0100
1000
0000
,  // measure 18
0010
0010
1000
0000
,  // measure 19
0001
0001
0100
0000
,  // measure 20
0002
0000
0000
2003
,  // measure 21
3200
0000
0000
2300
,  // measure 22
3002
0000
0000
0023
,  // measure 23
0230
0000
0000
2300
,  // measure 24
3020
0000
0230
0000
,  // measure 25
0301
0001
0001
0001
,  // measure 26
1000
1000
0010
0010
,  // measure 27
0100
0100
0001
0001
,  // measure 28
1000
0000
1000
0000
0001
1000
0001
1000
,  // measure 29
0001
0000
0000
0100
0000
0000
0010
0000
,  // measure 30
0000
1000
0000
0000
0100
0000
1000
0000
,  // measure 31
0001
0100
0001
1000
,  // measure 32
0100
0000
1000
0000
,  // measure 33
0001
0100
0000
0010
,  // measure 34
1000
0000
0000
0010
0000
0000
1000
0000
,  // measure 35
0010
0000
1000
0000
,  // measure 36
0001
0000
1000
0000
,  // measure 37
0100
0000
0000
0000
1000
0000
0000
0001
,  // measure 38
0000
0000
0000
0010
0000
0000
0000
0100
,  // measure 39
0000
0000
0000
1000
0000
0000
0010
0000
,  // measure 40
0000
0100
0000
0000
,  // measure 41
0001
0000
0100
0010
,  // measure 42
1000
0000
0100
1000
,  // measure 43
0001
0000
0001
0000
,  // measure 44
1000
0000
1000
0000
,  // measure 45
0001
0100
0000
0001
,  // measure 46
1000
0000
0100
0000
,  // measure 47
1000
0001
0000
0010
,  // measure 48
0001
0000
1000
0000
,  // measure 49
0010
1000
0000
0001
,  // measure 50
0100
0000
0001
1000
,  // measure 51
0100
1000
0001
0100
,  // measure 52
0001
0001
1000
1000
,  // measure 53
0200
0000
2300
0000
,  // measure 54
3010
0000
0100
0000
0000
0000
0001
0100
,  // measure 55
0000
0001
1000
0100
,  // measure 56
2000
0000
3002
0000
,  // measure 57
0013
0010
0100
0100
,  // measure 58
1000
0000
0001
0100
0000
0000
0001
0000
,  // measure 59
1000
0100
0000
0000
1000
0000
0000
0001
,  // measure 60
0010
0002
0000
0000
0000
0000
0000
0003
;
