#TITLE:Malevolent Bobby-Soxer;
#SUBTITLE:;
#ARTIST:Kitsune²;
#TITLETRANSLIT:;
#SUBTITLETRANSLIT:;
#ARTISTTRANSLIT:;
#CREDIT:;
#BANNER:soxer.png;
#BACKGROUND:soxer-bg.png;
#LYRICSPATH:;
#CDTITLE:;
#MUSIC:soxer.ogg;
#OFFSET:0.000;
#SAMPLESTART:9.595;
#SAMPLELENGTH:12.000;
#SELECTABLE:YES;
#BPMS:0.000=100.053;
#STOPS:;
#BGCHANGES:;

//---------------dance-single - Renard----------------
#NOTES:
     dance-single:
     Renard:
     Challenge:
     10:
     0.664,0.591,0.521,0.047,0.656:
0000
0000
0000
0000
,
0000
0000
0000
0000
,
1000
0000
0001
0100
0101
0000
0000
0100
0010
0000
1000
0000
1010
0000
0000
0010
,
0100
0000
0001
0010
0100
0000
0000
0100
1000
0000
0001
0000
1001
0000
0000
0000
,
0010
0100
0010
0000
0110
0000
0010
1000
0100
1000
0001
0000
1001
0000
0001
0100
,
0001
0000
1000
0000
1001
0000
1000
0100
0010
0001
1000
0000
1001
0000
0001
0100
,
0010
1000
0001
0000
1001
0000
1000
0100
0010
0001
1000
0000
1001
0000
0001
1000
,
0010
0100
0010
0100
0001
0001
0110
0000
,
0010
1000
0100
0000
0110
0000
0100
1000
0001
0010
0100
0000
0110
0000
0100
0010
,
0001
1000
0010
0000
0110
0000
0010
1000
0001
0010
0100
0000
1001
0000
0000
0001
,
1000
0010
1000
0000
1001
0000
0001
0100
0001
1000
0001
0000
1001
0000
1000
0100
,
0010
0001
1000
0000
1001
0000
0100
0000
1010
0000
0100
0000
0011
0000
0000
0000
,
0100
0000
1000
0010
0100
0001
0100
0010
0100
0000
0100
0010
0000
0010
1000
0000
,
0100
0000
0010
0001
0010
0000
0100
1000
0000
1000
0001
0100
0010
0000
1000
0000
,
0010
0000
0100
0001
0010
0100
1000
0001
1000
0000
0010
0100
0001
0000
0100
0000
,
0010
0000
0010
1000
0100
0000
0100
0010
0001
0000
0001
0010
0100
0000
0100
1000
,
0010
0000
0010
0100
0001
0100
0010
1000
0010
0000
0010
1000
0000
1000
0010
0000
,
0100
0000
0001
0000
0010
0000
0100
1000
0001
0000
0001
1000
0010
0000
0100
0000
,
0001
0000
0100
0010
1000
0000
0001
0100
0010
0000
1000
0100
0010
0000
0001
0010
,
0100
0000
0100
0000
0100
0000
1000
0000
0000
0001
0000
0000
0010
0000
0010
0000
0010
0000
1001
0000
0000
0000
0000
0000
,
0010
1000
0010
1000
0010
1000
0010
1000
0010
1000
0010
1000
0010
0000
0000
0000
,
1000
0100
0001
0010
1000
0100
0001
0010
,
1000
0000
0001
0010
0100
1000
0010
1000
0010
0000
1000
0000
0010
0000
0100
0000
,
0001
0100
0000
0010
0000
2000
0002
0000
0000
0000
0000
0000
3113
0000
0000
0000
,
1000
0100
0010
0001
0010
0001
0010
0100
1000
0000
0001
0000
1001
0000
0001
0000
,
0100
0010
1000
0010
0100
0001
0010
0100
0010
0000
0100
0000
1100
0000
1000
0000
,
0010
0000
0100
0001
0100
0010
1000
0001
0100
0000
0001
0000
1000
0100
0010
0000
,
0001
0010
0100
0000
1000
0100
0010
0000
1001
0000
0100
0000
1001
0000
0000
0000
,
0001
0000
0100
0000
0010
0000
0000
0000
0110
0000
0000
0000
0000
0000
0010
1000
0010
0000
1000
0000
0010
0000
0000
0000
0110
0000
0000
0000
0000
0000
0100
0000
,
0001
0000
0000
0000
0010
0000
0000
0000
0110
0000
0000
0000
0000
0000
0100
1000
0100
0000
1000
0000
0010
0000
0000
0000
0100
0000
0001
0000
0000
0000
0100
0000
,
0001
0000
0000
0000
0010
0000
0000
0000
0011
0000
0000
0000
0000
0000
0100
1000
0100
0000
1000
0000
0010
0000
0000
0000
0100
0000
0001
0000
0000
0000
0100
0000
,
0010
0000
1000
0000
0010
0000
0000
0000
0110
0000
0000
0000
0001
0000
0100
0010
0100
0000
0010
0000
1000
0000
0000
0000
0001
0000
0100
0000
0001
0000
1000
0001
,
1000
0000
0100
0000
1000
0000
0000
0000
1100
0000
0000
0000
0000
0000
0100
0010
0100
0000
0010
0000
0100
0000
0000
0000
1001
0000
0000
0000
0001
0000
1000
0000
,
0010
0000
0000
0000
0100
0000
0000
0000
0110
0000
0000
0000
0000
0000
0100
0001
0100
0000
0001
0000
0100
0000
0010
0000
1000
0000
0001
0000
0100
0000
0001
0000
,
0010
0000
0000
0000
0100
0000
0000
0000
0110
0000
0000
0000
0000
0000
0100
1000
0100
0000
1000
0000
0010
0000
0100
0000
0001
0000
0010
0000
0001
0000
1000
0000
,
0001
0100
0001
1000
1010
0000
0000
0000
0001
0100
0001
0000
1001
0000
0000
0000
,
1000
0100
0010
0000
0110
0000
0100
1000
0010
0100
0001
0000
0101
0000
0001
0010
,
0100
1000
0001
0000
1001
0000
0001
0200
0010
0000
0010
0000
0310
0000
0000
0000
,
0010
1000
0100
0000
0010
0000
0001
0010
0100
1000
0001
0000
1001
0000
0001
0000
,
0100
0010
1000
0000
0001
0000
1000
0000
0110
0000
1001
0000
0110
0000
0000
0000
,
1010
0100
0011
0100
1001
0100
1010
0100
,
0011
0000
0100
0000
1001
0000
0010
1000
0001
1000
0001
0000
0110
0000
0000
0000
,
0101
0010
1100
0010
0101
0010
1000
1001
,
0000
0110
0000
2002
0000
0000
3013
0000
;

//---------------dance-single - Renard----------------
#NOTES:
     dance-single:
     Renard:
     Hard:
     8:
     0.479,0.448,0.149,0.000,0.382:
0000
0000
0000
0000
,
0000
0000
0000
0000
,
0000
0000
0000
0000
,
0000
0000
0000
0000
,
1000
0000
1000
0000
0001
0000
0001
0100
0010
0000
0010
0000
1000
0000
1000
0100
,
0010
0000
0010
0000
0001
0000
0001
1000
0010
0000
0100
0000
0110
0000
0000
0100
,
0001
0100
0001
0000
0100
0000
0010
1000
0010
1000
0010
0000
1000
0000
0100
0000
,
1000
0100
1000
0000
0001
0000
0010
0000
0001
1000
0001
0000
1000
0000
0000
0000
,
0001
0001
0100
0100
0010
0010
1000
1000
,
0100
0000
0100
0000
0010
0000
0010
0001
1000
0001
0100
0000
0001
0000
0000
1000
,
0100
1000
0100
0000
1000
0000
0001
0010
0001
0010
0001
0000
0010
0000
0001
0000
,
1000
0010
1000
0000
0001
0100
0001
0000
1000
0000
0100
0000
0010
0000
0001
0000
,
0010
0000
0100
1000
0001
0100
0010
1000
0001
0000
0000
0100
0000
0010
0000
1000
,
0100
0000
0010
0001
0010
0100
1000
0000
,
0001
0000
0100
0010
0100
0010
1000
0010
1000
0000
0001
1000
0001
0000
1000
0000
,
0100
0010
0000
0001
0000
0010
0000
0100
1000
0000
0000
0000
0001
0000
0000
0000
,
0100
0000
0001
0000
1000
0000
0100
0000
0010
0000
0001
0000
0010
0000
0100
1000
,
0001
0000
0100
0000
0010
0000
1000
0010
0000
0000
0000
0000
0100
0000
0001
0000
,
1000
0000
0100
0000
0010
0000
0001
0000
0010
0000
0100
0000
1000
0000
0001
0010
,
0001
0000
0010
0000
0001
0000
0010
0000
0000
0100
0000
0000
1000
0000
0100
0000
1000
0000
0100
0000
0000
0000
0000
0000
,
0000
0000
1000
0000
0001
0000
0100
0010
0100
0000
0010
0000
0110
0000
0000
0000
,
0000
0000
0010
0000
1000
0000
0001
1000
0001
0000
1000
0000
1001
0000
0000
0000
,
0000
0000
1000
0000
0100
0000
0010
0100
0010
0000
0001
0000
1000
0000
0010
0000
,
0100
0001
0000
1000
0000
0100
0010
0000
0001
0000
0000
0000
0110
0000
0000
0000
,
0100
0000
1000
0000
0010
0000
0100
0001
0100
0000
0010
0000
1000
0000
0000
0000
,
0000
0000
0100
0010
0100
0000
0010
0000
0001
0000
1000
0000
0001
0000
0000
0000
,
0000
0000
0100
0001
0100
0000
0010
0000
1000
0000
0100
0000
0010
0000
0001
0000
,
1000
0100
1000
0001
0010
0000
1001
0000
,
0001
0000
0100
0000
0010
0000
1000
0100
0000
0010
0001
0000
0010
0100
0000
1000
,
0001
0000
0100
0000
0110
0000
0000
0010
0000
1000
0010
0000
0100
0001
0000
1000
,
0100
0000
0010
0000
0110
0000
0000
0010
0000
0001
1000
0000
0010
0100
0000
0001
,
1000
0100
1100
0000
1000
1000
0001
0100
,
0010
0000
1000
0000
1010
0000
0000
1000
0000
0100
0010
0000
0001
0010
0000
0100
,
1000
0000
0001
0000
0101
0000
0000
0100
0000
0010
1000
0000
0110
0000
0000
0001
,
0010
0000
0100
0000
0110
0000
0000
0100
0000
1000
0010
0000
0110
0000
0000
0100
,
0001
1000
1100
0000
1000
0000
0011
0000
,
0010
0100
1000
0100
0001
0100
0010
0001
,
0010
0000
1000
0000
0010
0000
0100
0000
0001
0000
0100
0000
1000
0000
0000
0010
,
1000
0010
1000
0000
0010
0000
0100
0001
0100
0001
0100
0000
0001
0000
0010
0000
,
0100
1000
0100
0000
1000
0000
0001
0000
0010
0001
0010
0000
0001
0000
0000
0000
,
0010
0100
1000
0010
0100
0001
0100
1000
,
0100
0000
0010
0000
0100
0000
0001
0010
0100
0010
0100
0000
0010
0000
0000
0100
,
1000
0100
1000
0000
0100
0000
1000
0001
1000
0001
1000
0000
0001
0000
0100
0000
,
0010
0100
0010
0000
1000
0000
0100
0000
0010
0000
0001
0000
1001
0000
0000
0000
;

//---------------dance-single - Renard----------------
#NOTES:
     dance-single:
     Renard:
     Medium:
     5:
     0.360,0.343,0.196,0.009,0.000:
0000
0000
0000
0000
,
0000
0000
0000
0000
,
0000
0000
0000
0000
,
0000
0000
0000
0000
,
1000
0100
1000
0100
0010
0100
0010
0100
,
0010
0001
0010
0001
0100
0010
1010
0000
,
1000
0010
0100
0000
0001
0010
0100
0000
,
1000
0100
0010
0000
0001
0100
0010
0000
,
1000
0001
1000
0001
0100
0010
0100
0010
,
1000
0100
1000
0100
0010
0001
0010
0000
,
0001
0010
0001
0010
0001
0100
0001
0100
,
0010
1000
0100
0010
0001
1000
1001
0000
,
1000
0001
0100
0010
1000
0000
0010
1000
,
0010
1010
0100
1001
,
0010
0000
0110
0000
0100
1000
0001
0100
,
0010
1000
0100
0000
0010
0000
1001
0000
,
0100
0000
1010
0000
0100
0001
1000
0100
,
0010
0010
0001
1000
0010
0000
1001
0000
,
1000
0001
0100
0010
1000
0100
0010
0001
,
0020
0000
0130
0000
1000
0010
0100
0000
,
0000
0001
0100
1000
0100
0001
0100
0000
,
0000
0001
0100
1000
0100
0001
0100
0000
,
0000
0001
0100
1000
0100
0001
0100
1000
,
0100
0001
0100
0001
0100
0000
0101
0000
,
0000
0001
0010
1000
0010
0001
0010
0000
,
0000
0001
0010
1000
0010
0001
0010
0000
,
0000
0001
0010
1000
0010
0001
0010
1000
,
0010
0001
0010
0001
0010
0000
0011
0000
,
0001
0000
0010
0000
0100
1000
0010
0000
,
0100
0000
0101
0000
0100
0010
1000
0000
,
0100
0000
0110
0000
0010
0001
1000
0000
,
0010
0110
0100
0110
,
0100
0000
1001
0000
1000
0100
0010
0000
,
0001
0000
0011
0000
0010
0100
1000
0010
,
0100
0000
0101
0000
0001
0100
0010
1000
,
0100
0010
0001
0110
,
0100
1000
0010
0100
0001
0010
0100
1000
,
0010
0100
0001
0010
0001
1000
0100
0000
,
1000
0100
0010
0001
1000
0001
0010
0100
,
1000
0001
1000
0100
0010
0001
1000
0000
,
0001
0100
0010
1000
0100
1000
0100
1000
,
0001
0010
0100
1000
0001
0010
0001
0000
,
1000
0010
0100
0001
0010
0001
1000
1001
,
0000
0110
0000
1001
0000
0000
0000
0000
;

//---------------dance-single - Renard----------------
#NOTES:
     dance-single:
     Renard:
     Easy:
     2:
     0.245,0.262,0.121,0.102,0.000: // measure 1
0000
0000
0000
0000
,  // measure 2
0000
0000
0000
0000
,  // measure 3
0000
0000
0000
0000
,  // measure 4
0000
0000
0000
0000
,  // measure 5
1000
1001
0001
1001
,  // measure 6
1000
0000
1001
0000
1000
0001
1000
0000
,  // measure 7
0010
0110
0100
0110
,  // measure 8
0010
0000
0110
0000
0010
0100
0010
0000
,  // measure 9
0100
0101
0001
0101
,  // measure 10
0100
0000
0101
0000
0100
0001
0100
0000
,  // measure 11
0010
1010
1000
1010
,  // measure 12
0010
0000
1010
0000
0010
1000
0010
0000
,  // measure 13
2000
3100
0010
0001
,  // measure 14
2000
3001
0100
0010
,  // measure 15
2000
3100
0010
0001
,  // measure 16
2000
3010
0100
0010
,  // measure 17
0200
0301
0010
0100
,  // measure 18
2000
3100
0010
0001
,  // measure 19
0020
0130
1000
0010
,  // measure 20
0002
0013
0100
0001
,  // measure 21
1000
0100
0010
0001
,  // measure 22
0000
0010
0100
2000
,  // measure 23
3000
0010
0100
0001
,  // measure 24
1000
0100
0010
0001
,  // measure 25
0010
0100
1000
0020
,  // measure 26
0130
0001
0100
0020
,  // measure 27
0030
0100
0001
1000
,  // measure 28
0100
0000
1000
0001
1000
0000
1001
0000
,  // measure 29
1000
0000
0001
0000
0000
0100
0001
0000
,  // measure 30
1000
0000
0100
0000
0000
1000
0010
0000
,  // measure 31
1000
0000
0001
0000
0000
0100
0001
0000
,  // measure 32
1000
0100
0010
0001
,  // measure 33
1000
0000
0010
0000
0000
0100
0001
0000
,  // measure 34
1000
0000
0010
0000
0000
1000
0001
0000
,  // measure 35
1000
0000
0001
0000
0000
0100
0001
0000
,  // measure 36
0010
0100
0000
0100
,  // measure 37
1000
0100
0010
0001
,  // measure 38
1000
0100
0010
0001
,  // measure 39
1000
0010
0100
0001
,  // measure 40
1000
0010
0100
0001
,  // measure 41
1000
1000
1000
1000
,  // measure 42
0001
0001
0001
0001
,  // measure 43
0100
0000
0100
0000
0100
0000
0100
0010
,  // measure 44
0000
1000
0000
0100
0000
0000
0000
0000
;
