#TITLE:M-Tune 01;
#SUBTITLE:;
#ARTIST:Maak;
#TITLETRANSLIT:;
#SUBTITLETRANSLIT:;
#ARTISTTRANSLIT:;
#CREDIT:;
#BANNER:m.png;
#BACKGROUND:m-bg.png;
#LYRICSPATH:;
#CDTITLE:;
#MUSIC:m.ogg;
#OFFSET:0.000;
#SAMPLESTART:16.521;
#SAMPLELENGTH:12.000;
#SELECTABLE:YES;
#BPMS:0.000=232.425;
#STOPS:;
#BGCHANGES:;

//---------------dance-single - Renard----------------
#NOTES:
     dance-single:
     Renard:
     Challenge:
     9:
     0.889,0.810,0.311,0.000,0.000:
0000
0000
0000
0000
,
0000
0000
0000
0000
,
0000
0000
0000
0000
,
0000
0000
0000
0000
,
1000
0001
0100
0000
0010
1000
0000
0100
,
0000
1000
0001
0010
0000
0100
1000
0000
,
0010
0100
0001
0000
0100
0010
1000
0100
,
0000
1000
0001
0010
0100
1000
0001
0100
,
0010
1000
0010
0000
1000
0100
0000
1000
,
0000
0001
0010
0100
0000
1000
0001
0100
,
0010
0000
0010
1000
0000
1000
0100
0000
,
0010
0000
0010
0001
0000
0001
0010
0000
,
0100
1000
0010
0100
0001
0010
0100
1000
,
0001
0000
0001
1000
0000
1000
0010
0000
,
0100
0000
0100
0001
0000
0001
1000
0000
,
0100
0000
0100
1000
0000
1000
0001
0010
,
0001
0010
0100
0010
0100
1000
0100
1000
,
0100
1000
0010
1000
0010
1000
0010
0100
,
0010
0100
0001
0100
0001
0100
0001
0010
,
0001
0010
0100
1000
0001
0010
0100
1000
,
0001
0100
0001
0100
0010
0100
0010
0100
,
0010
1000
0010
1000
0100
1000
0100
1000
,
0100
0010
0001
0010
0100
1000
0001
0010
,
0100
1000
0001
0010
0100
1000
0100
0010
,
0001
0000
0001
0010
0100
0000
0100
1000
,
0010
0000
0010
0100
0001
0100
0010
1000
,
0100
0000
0100
1000
0010
0000
0010
0100
,
0001
0010
0100
1000
0100
1000
0010
0100
,
0010
0000
0010
0100
0001
0000
0001
0010
,
0100
0000
0100
1000
0010
0100
0001
1000
,
0100
1000
0100
1000
0001
0010
0001
0010
,
0001
0100
0001
0100
0010
1000
0010
1000
,
0100
1000
0100
1000
0001
0010
0001
0100
,
0010
1000
0100
0010
0001
0010
0100
1000
,
0001
0100
0001
0100
0010
1000
0010
1000
,
0100
0010
0001
0010
0100
1000
0010
0100
,
0001
0100
0010
1000
0100
0010
0100
1000
,
0010
0100
0001
0010
0100
0010
0001
0100
,
0010
1000
0100
0010
0100
1000
0010
0100
,
0001
1000
0100
1000
0001
0000
1001
0000
,
1000
1100
0001
0101
,
1000
1100
0001
0101
,
0001
0100
0010
1000
0100
0010
0001
0010
,
0100
1000
0001
0010
0100
1000
0010
0000
,
1000
0100
0000
1100
0000
0000
0001
0010
,
0000
0011
0000
0000
0001
0100
0101
0000
,
0001
0101
1000
1100
,
0001
0011
1000
1010
,
0100
0001
0010
0100
1000
0001
1000
0010
,
1000
0100
1000
0001
0010
0100
1000
0001
,
0100
0101
1000
1100
,
0001
0011
1000
1010
,
1000
0100
1000
0001
0000
0010
0001
0100
,
0010
1000
0100
1000
0000
1000
0001
1000
,
0010
1000
0100
1000
0000
1001
0000
1100
,
0000
0001
1000
0100
1000
0010
1000
0001
,
1000
0100
1000
0001
0010
0001
1000
0010
,
1000
0001
0100
0001
1000
0100
0010
0001
,
1000
0100
1000
0001
0010
0001
1000
0010
,
1000
0001
0100
0001
0100
0001
1000
0010
,
1000
0100
1000
0001
0010
0001
1000
0100
,
1000
0001
0100
0001
1000
0100
0010
0001
,
1000
0010
1000
0001
0100
0001
1000
0100
,
1000
0001
0010
0100
1000
0001
1000
0010
,
1000
0000
0101
0000
0010
1000
0000
0100
,
0000
1000
0001
0010
0000
0100
1000
0000
,
0001
0000
1010
0000
0100
0001
0000
0010
,
0000
0100
1000
0001
0000
1000
0100
0000
,
1100
0000
0011
0000
0001
0010
0100
1000
,
0000
1000
0010
0100
0000
0001
0100
0000
,
0101
0000
1010
0000
1000
0100
1000
0001
,
0010
0100
1000
0001
0100
0010
1000
0100
,
1000
0100
1000
0000
0001
0010
0000
0011
,
0000
0001
0010
0100
0000
0100
1000
0010
,
0100
0000
0100
0001
0000
0001
0100
0000
,
0010
0000
0010
1000
0000
1000
0100
0000
,
1000
0100
0010
0000
0001
0010
0000
0011
,
0000
0010
0100
1000
0000
0001
0100
0010
,
1000
0000
0010
1000
0000
0100
1000
0001
,
0000
0010
0000
0001
0000
0010
0100
1000
,
0001
0000
1000
0000
0100
1000
0000
1100
,
0000
1000
0010
0100
0000
0001
0100
0010
,
1000
0000
0010
1000
0000
0001
1000
0100
,
1000
0000
0001
0010
0000
0001
0100
0001
,
1000
0000
1100
0000
0001
1000
0100
1000
,
0000
1000
0001
0100
0000
0001
0010
0001
,
0010
0000
0010
0001
0000
0001
0010
0000
,
0010
0100
0000
0100
1000
0010
0100
0001
,
1000
0000
1001
0000
1000
0001
0100
0010
;

//---------------dance-single - Renard----------------
#NOTES:
     dance-single:
     Renard:
     Hard:
     9:
     0.741,0.858,0.161,0.000,0.000:
0000
0000
0000
0000
,
0000
0000
0000
0000
,
0000
0000
0000
0000
,
0000
0000
0000
0000
,
1000
0000
0001
0000
0100
0010
0000
1000
,
0000
0010
1000
0100
0000
1000
0001
0000
,
0010
0000
0001
0000
0100
0001
0010
0001
,
1000
0001
1000
0100
1000
0100
1000
0001
,
1000
0000
0001
0000
0100
0010
0000
1000
,
0000
0010
1000
0100
0000
0000
1000
0100
,
1000
0000
0001
0010
0000
0001
0000
1000
,
0000
0010
1000
0001
0000
1000
0100
0000
,
1000
0000
0001
0000
0100
0001
0000
0010
,
0000
0001
1000
0100
0000
0000
1000
0001
,
0100
0000
0010
1000
0000
0010
1000
0001
,
0000
1000
0100
1000
0000
0001
0010
0100
,
1000
0000
0001
0000
0100
0001
0000
1001
,
0000
1000
0100
1000
0000
0001
0100
0001
,
0010
0000
0001
0010
0000
0100
0000
1000
,
0000
0010
1000
0001
0000
1000
0001
0000
,
1001
0000
0101
0000
0001
1000
0000
0100
,
0000
1000
0001
0010
0000
0000
0001
1000
,
0010
0000
0010
1000
0000
1000
0001
0000
,
0001
0010
0000
0010
0100
1000
0100
1000
,
0001
0000
0001
0100
0010
0000
1000
0000
,
0100
1000
0001
0010
,
0100
0000
0100
1000
0010
0000
0100
0000
,
0001
1000
0100
1000
,
0001
0000
0001
0010
0100
0000
0100
1000
,
0010
0100
0001
0100
,
0001
1000
0001
1000
0010
1000
0010
1000
,
0100
1000
0100
1000
0001
1000
0001
1000
,
0100
0000
0100
1000
0010
0000
0100
0000
,
0001
0010
0100
1000
,
0010
0000
0010
0100
0001
0000
0010
0000
,
0100
1000
0100
1000
,
0001
0000
0001
0010
0100
0000
1000
0000
,
0010
0100
0001
1000
,
0100
0000
0100
1000
0010
0000
0010
0100
,
0001
0010
0100
1000
0001
1000
0100
1000
,
0001
0000
1000
0000
0100
0000
1000
0001
,
0010
0000
0001
1000
0010
0000
1000
0000
,
0001
0000
0100
0000
0010
0000
1000
0100
,
1000
0000
0001
0010
0001
0000
1000
0000
,
0010
0000
0010
1000
0000
1000
0001
0000
,
0001
0100
0000
0100
0010
1000
0010
1000
,
0100
0000
1000
0000
0001
0010
0001
0000
,
1000
0000
0100
0000
1000
0100
1000
0000
,
0010
0000
1000
0000
0001
0100
0001
0000
,
1000
0000
0100
0000
1000
0001
1000
0000
,
0110
0000
0010
1000
0000
0101
0000
0000
,
0011
0000
0010
0100
0000
1100
0000
0000
,
1010
0000
1000
0010
0000
0110
0000
0000
,
0001
0000
0100
0010
1000
0100
0010
0001
,
0010
0000
0100
1000
0000
1010
0000
1001
,
0000
1000
0100
1000
0001
1000
0010
1000
,
0100
0000
1000
0000
0001
0010
0001
0000
,
0100
0001
0100
0000
0010
0100
0010
0000
,
1000
0010
1000
0000
0100
1000
0100
0000
,
1000
0100
0010
0001
0010
0100
1000
0001
,
0010
0000
0100
0010
0100
0000
1000
0100
,
1000
0000
0010
1000
0010
0000
0100
0000
,
0001
1000
0100
1000
,
0001
1000
0001
1000
0001
1000
0001
1000
,
0001
0000
0100
0000
0000
0001
0000
1000
,
0000
0000
0000
0100
0000
0100
1000
0000
,
0010
0000
0100
0000
0000
0001
0000
1000
,
0000
0000
0000
0100
0000
0100
1000
0000
,
0010
0000
0100
0000
0000
0001
0000
0010
,
0000
0000
0000
0001
0000
0001
1000
0000
,
0010
0000
0100
0000
0000
0001
0000
0001
,
1000
0100
1000
0100
1000
0100
1000
0100
,
1000
0000
0001
0000
1000
0001
0000
1000
,
0000
0001
1000
0001
0000
1000
0001
1000
,
0010
0000
0010
0100
0000
0100
0010
0000
,
0100
0000
0100
0010
0000
0010
0100
0000
,
0010
1000
0010
0000
1000
0010
0000
1000
,
0000
0010
1000
0010
0000
0000
0100
0001
,
0100
0000
0001
0100
0000
0001
0000
0100
,
0000
0001
0100
0001
0000
0100
0001
0100
,
0001
0010
0001
0010
0001
0010
0001
0010
,
0100
0010
0100
0010
0100
0010
0100
0010
,
0100
1000
0100
1000
0100
1000
0010
1000
,
0010
1000
0010
0100
0010
0100
0010
0100
,
0001
0100
0001
0100
0001
0100
0001
0100
,
0001
0010
0001
0010
0001
0010
0001
0010
,
0100
0010
0100
1000
0100
1000
0010
1000
,
0010
0100
0001
0100
0001
0010
0100
1000
,
1100
0000
0011
0000
0000
0101
0000
1001
;

//---------------dance-single - Renard----------------
#NOTES:
     dance-single:
     Renard:
     Medium:
     7:
     0.415,0.429,0.000,0.000,0.000:
0000
0000
0000
0000
,
0000
0000
0000
0000
,
0000
0000
0000
0000
,
0000
0000
0000
0000
,
0000
0000
0000
0000
,
0000
0000
0000
0000
,
0000
0000
0000
0000
,
0000
0000
0000
0000
,
0000
0000
1000
0000
0001
0100
0000
0001
,
0000
1000
0100
1000
0000
0000
0001
0000
,
0010
0000
0000
0001
0000
1000
0000
0010
,
0000
0100
0001
0100
0000
0001
0000
0000
,
0000
0000
1000
0000
0100
0010
0000
0001
,
0000
0010
0100
1000
0000
0000
0001
0000
,
0100
0000
0000
0001
0000
1000
0000
0100
,
0000
0010
0000
0001
0000
0010
0000
0000
,
0100
0000
1000
0000
0001
0000
0000
0100
,
0000
0001
1000
0001
0000
0000
1000
0000
,
0100
0000
0000
0010
0000
0001
0000
0010
,
0000
0100
1000
0100
0000
1000
0000
0000
,
0000
0000
0001
0000
0100
0000
0000
0001
,
0000
1000
0100
1000
,
0001
0000
0000
0010
0000
0000
0100
0000
,
0000
1000
0000
0000
0001
0100
0001
0000
,
0100
0001
0100
0001
,
0100
0000
0010
0000
,
1000
0100
1000
0100
,
1000
0010
1000
0000
,
0010
0100
0010
0100
,
0001
0000
0010
0000
,
0100
1000
0100
1000
,
0010
0100
0001
0010
,
0100
0100
1000
0010
,
0100
0000
0100
0000
,
0001
0001
0010
0100
,
0010
0000
0010
0000
,
0001
1000
0010
0000
,
1000
0001
0010
0000
,
0001
1000
0100
1000
,
0001
0100
0001
0000
,
1000
0100
1000
0000
,
0001
0010
0001
0000
,
1000
0010
1000
0000
,
0001
0100
0001
0000
,
1000
0000
0000
0100
0000
0000
0010
0000
,
0000
0001
0000
0000
0010
0000
0100
0000
,
1000
0100
1000
0001
,
1000
0010
1000
0000
,
0001
1000
0001
0100
,
0001
0010
0001
0000
,
1000
0100
1000
0001
,
0010
0000
0001
1000
,
0010
0000
0100
0001
,
1000
0000
0100
0010
,
0001
1000
0001
0100
,
0010
0000
0000
0000
,
1000
0010
1000
0010
,
0100
0000
0100
0000
,
0001
0010
0001
0010
,
0100
0000
0100
0000
,
1000
0010
1000
0000
,
0010
1000
0010
0000
,
0100
0001
0100
0000
,
0001
1000
0100
0010
,
0001
0000
0010
0000
0000
0100
0000
1000
,
0000
0000
0000
0001
0000
0000
0100
0000
,
0010
0000
1000
0000
0000
0010
0000
0100
,
0000
0000
0000
0001
0000
0000
0100
0000
,
0010
0000
1000
0000
0000
0100
0000
0010
,
0000
0000
0000
0001
0000
0000
0010
0000
,
0100
0000
1000
0000
0000
0010
0000
0100
,
0001
0100
0010
1000
,
0000
0000
0010
0000
0100
0001
0000
0100
,
0000
0000
0000
0001
0000
0000
1000
0000
,
0100
0000
0000
0010
0000
0001
0000
0010
,
0000
0000
0000
0100
0000
1000
0000
0000
,
0000
0000
0010
0000
0100
0001
0000
0100
,
0000
0000
0000
0010
0000
0000
1000
0000
,
0010
0000
0000
0100
0000
0001
0000
1000
,
0000
0100
0000
0010
0000
0001
0000
0000
,
0010
0000
0100
0000
1000
0001
0000
0010
,
0000
0001
1000
0001
,
0100
0000
0000
0010
0000
1000
0000
0010
,
0000
0000
0000
0100
0000
0001
0000
0000
,
1000
0000
0100
0000
0010
0001
0000
0010
,
0000
0100
0000
1000
,
0100
0000
0000
0010
0000
0000
0001
0000
,
0000
1000
0000
0000
0010
0100
0010
0000
,
0100
0000
0001
0000
0000
0010
0100
1000
;

//---------------dance-single - Renard----------------
#NOTES:
     dance-single:
     Renard:
     Easy:
     3:
     0.357,0.429,0.000,0.086,0.000: // measure 1
0000
0000
0000
0000
,  // measure 2
0000
0000
0000
0000
,  // measure 3
0000
0000
0000
0000
,  // measure 4
0000
0000
0000
0000
,  // measure 5
1000
1000
0000
0001
,  // measure 6
0100
0000
0001
0000
,  // measure 7
0010
0010
0000
0001
,  // measure 8
1000
0000
0001
0000
,  // measure 9
1000
0100
1000
0000
,  // measure 10
0001
0010
0001
0000
,  // measure 11
0100
0001
0100
0000
,  // measure 12
0010
1000
0010
0000
,  // measure 13
1000
0100
0010
0000
,  // measure 14
0001
0000
0010
0000
,  // measure 15
0100
1000
0001
0100
,  // measure 16
0010
1000
0001
0100
,  // measure 17
0001
1000
0100
0000
,  // measure 18
1000
0001
0100
0000
,  // measure 19
0001
0000
1000
0000
,  // measure 20
0100
0000
0010
0000
,  // measure 21
0001
1000
0001
0000
,  // measure 22
0100
0010
0100
0000
,  // measure 23
0010
0000
0010
0000
,  // measure 24
1000
0000
0010
1000
,  // measure 25
0010
0100
0010
0000
,  // measure 26
0100
0000
0100
0000
,  // measure 27
1000
0010
1000
0000
,  // measure 28
0010
0000
0010
0000
,  // measure 29
0100
0001
0100
0000
,  // measure 30
0001
0000
0001
0000
,  // measure 31
0010
0100
0010
0000
,  // measure 32
0100
0010
0100
0000
,  // measure 33
0020
0000
0031
0000
,  // measure 34
0200
0000
0310
0000
,  // measure 35
2000
0000
3100
0000
,  // measure 36
0020
0000
0031
0000
,  // measure 37
0200
0000
0301
0000
,  // measure 38
0010
0000
0200
0000
,  // measure 39
2300
0000
3002
0000
,  // measure 40
0103
0001
0100
0001
,  // measure 41
1000
0000
1000
0000
,  // measure 42
0001
0000
0001
0100
,  // measure 43
0010
0000
0010
0000
,  // measure 44
1000
0000
1000
0010
,  // measure 45
0100
0000
0000
0100
,  // measure 46
0000
0000
0100
0000
,  // measure 47
0001
1000
0001
1000
,  // measure 48
0001
0000
1000
0000
,  // measure 49
0001
1000
0001
1000
,  // measure 50
0001
0000
1000
0000
,  // measure 51
0010
0100
0010
0000
,  // measure 52
0100
0010
0100
0000
,  // measure 53
0010
0100
0010
0000
,  // measure 54
0100
0010
0100
0000
,  // measure 55
0001
1000
0100
0010
,  // measure 56
0001
0000
0000
0000
,  // measure 57
1000
0000
0001
0000
,  // measure 58
0100
0010
0100
0000
,  // measure 59
0010
0000
1000
0000
,  // measure 60
0001
0100
0001
0000
,  // measure 61
1000
0000
0100
0000
,  // measure 62
0010
0001
0010
0000
,  // measure 63
0100
0000
1000
0000
,  // measure 64
0001
0100
0010
1000
,  // measure 65
0001
0000
1000
0000
,  // measure 66
0001
0100
0010
1000
,  // measure 67
0100
0000
0010
0000
,  // measure 68
0001
0000
0010
0100
,  // measure 69
1000
0000
0001
0000
,  // measure 70
0100
0000
0001
1000
,  // measure 71
0100
0000
0010
0000
,  // measure 72
0001
0010
0001
0010
,  // measure 73
0001
0000
1000
0000
,  // measure 74
0001
0000
1000
0000
,  // measure 75
0010
0000
1000
0000
,  // measure 76
0001
0100
0010
1000
,  // measure 77
0100
0000
0010
0000
,  // measure 78
0001
0000
0010
0000
,  // measure 79
0100
0000
1000
0000
,  // measure 80
0001
0100
0010
1000
,  // measure 81
0010
1000
0010
0000
,  // measure 82
0100
0001
0100
0000
,  // measure 83
0001
0010
0001
0000
,  // measure 84
0010
0100
0010
0000
,  // measure 85
0100
1000
0100
0000
,  // measure 86
1000
0010
1000
0000
,  // measure 87
0010
0000
0000
0010
,  // measure 88
0000
0000
0100
0000
,  // measure 89
0001
0000
1000
0000
0000
0100
0000
0010
;
