#TITLE:Love (Piano Trance Mix);
#SUBTITLE:;
#ARTIST:Wiz;
#TITLETRANSLIT:;
#SUBTITLETRANSLIT:;
#ARTISTTRANSLIT:;
#CREDIT:;
#BANNER:love.png;
#BACKGROUND:love-bg.png;
#LYRICSPATH:;
#CDTITLE:;
#MUSIC:love.ogg;
#OFFSET:0.000;
#SAMPLESTART:31.871;
#SAMPLELENGTH:12.000;
#SELECTABLE:YES;
#BPMS:0.000=50.075,22.000=150.240,134.000=75.120,148.000=150.240;
#STOPS:;
#BGCHANGES:;

//---------------dance-single - Renard----------------
#NOTES:
     dance-single:
     Renard:
     Challenge:
     10:
     0.805,0.980,0.221,0.058,1.000:
0000
0000
0000
0000
0000
0000
0000
0000
0000
0000
0000
0000
0000
0000
0000
0000
1000
0000
0001
0100
0001
0000
1000
0000
0001
0000
1000
0001
1000
0000
0001
0000
,
0100
0000
0010
0100
0010
0000
1000
0000
0001
0000
1000
0100
0010
0000
0001
0000
0010
0000
0100
0010
0100
0000
1000
0000
0010
0000
1000
0010
1000
0000
0001
0000
,
0100
0000
0001
0010
0001
0000
0010
0000
0100
0000
1000
0001
1000
0000
0001
0000
0100
0000
0010
0100
0010
0000
1000
0000
0100
0000
0010
0001
0010
0000
0100
0000
,
1000
0000
0001
1000
0001
0000
0100
0000
0010
0000
1000
0000
1100
0000
1000
0000
0010
0000
0100
0001
0010
0000
0100
0000
1000
0000
0001
0000
0101
0000
0001
0000
,
1000
0100
1000
0001
1000
0000
0010
1000
0100
1000
0001
0000
1000
0000
0100
0000
1000
0000
0001
0100
0001
0000
1000
0000
0010
1000
0100
0000
1100
0000
1000
0000
,
0010
0100
0001
0000
0011
0000
0010
0100
1000
0001
0100
0000
0010
0000
1000
0000
0010
0000
0000
0000
0000
0000
0000
0000
0010
0000
0000
0000
0000
0000
0000
0000
,
0010
0010
0010
0010
,
0010
0000
0010
0000
0010
1000
0010
1000
,
0010
0000
1000
0000
0010
0000
1000
0000
0001
0100
0001
0100
0001
0100
0001
0100
,
0001
0100
0010
1000
0010
0100
0001
1000
0001
0000
0000
0000
0100
0000
0001
0000
,
1000
0000
0100
1000
0000
0001
0010
0000
0001
0010
0000
0100
1000
0000
0100
1000
,
0000
0010
1000
0000
0010
0000
1000
0000
0001
0000
0100
0001
1000
0000
0010
1000
,
0001
0000
1000
0100
1000
0000
0001
0000
0010
0000
0100
1000
0100
0000
1000
0000
,
0001
0000
0100
0001
0100
0000
0001
0000
1000
0000
0100
0000
1000
0000
0001
0000
,
0100
0000
0001
0000
0010
0000
0001
0000
1000
0100
1000
0000
0001
0010
0001
0000
,
1000
0010
1000
0000
0001
0000
0100
0000
0010
0000
1000
0100
1000
0000
0001
0010
,
0001
0000
1000
0010
1000
0001
0100
0001
0000
1000
0100
1000
0000
0001
0010
0001
,
0000
1000
0010
0000
1000
0000
0001
0000
0100
0001
0100
0001
0000
1000
0001
1000
,
0000
0100
1000
0100
0000
1000
0001
1000
0001
0000
0010
0000
0001
0000
0010
0000
,
0100
0000
1000
0100
1000
0000
0010
0000
1000
0010
1000
0001
0100
0001
0100
0001
,
0010
0001
0010
0100
0010
0100
1000
0100
1000
0000
0000
0000
0001
1000
0100
1000
,
0010
0000
1000
0000
0001
1000
0001
0000
0001
1000
0010
0000
1010
0000
1000
0000
,
0100
0010
0001
0000
0011
0000
0000
0000
0010
0100
1000
0000
1100
0000
1000
0000
,
0010
0100
0001
0000
0101
0000
0000
0000
0001
1000
0100
0000
1100
0000
1000
0000
,
0001
0100
0010
0000
1010
0000
0000
0000
0010
1000
0001
0000
1010
0000
1000
0000
,
0100
0010
0001
0000
1001
0000
0000
0000
0001
0000
1000
0010
1000
0000
0100
0000
,
1000
0001
1000
0000
1001
0000
0000
0000
0001
0000
0100
0010
1000
0000
0100
0000
,
1000
0100
1000
0000
1100
0000
1000
0000
0001
0000
0100
0010
1000
0000
0100
0010
,
0001
0000
0001
0000
0010
0100
1000
0100
0000
1000
0010
1000
0000
0001
0100
0001
,
0100
0000
0001
0000
1000
0000
0100
0000
0010
0001
0010
0001
0000
0100
0001
0100
,
0000
0010
1000
0010
0000
1000
0100
1000
0000
0001
0010
0100
1000
0000
0001
0000
,
0100
0000
0010
0000
1000
0000
0001
0000
1000
0100
1000
0000
1100
0000
1000
0000
,
0001
0010
0001
0000
0011
0000
0001
0000
0100
0000
0010
1000
0100
0010
0001
0010
,
0100
1000
0001
0100
0010
1000
0100
1000
00M2
M000
0M00
M000
0M00
00M0
0M00
M000
,
02M0
M000
0000
00M0
M000
00M0
M000
0000
M020
0000
M000
M000
M000
0000
M000
0000
,
2000
0000
0000
0000
0000
0000
0000
0000
0000
0000
0000
0000
3333
0000
0000
0000
0001
0000
1000
0100
1000
0000
0001
0000
0010
0000
0001
0010
0001
0000
0010
0000
,
0100
0000
1000
0100
1000
0000
0100
0000
1000
0000
0010
1000
0010
0000
1000
0000
0001
0000
0100
0001
0100
0000
0001
0000
0100
0000
0001
1000
0001
0000
1000
0000
,
1100
0000
0000
0000
1001
0000
0000
0000
0100
0010
1000
0100
1000
0000
0100
0000
,
1100
0000
0100
1000
0001
0000
0010
0100
1000
0000
0001
0100
0010
0000
1000
0100
,
1000
0000
0001
0010
0100
0000
1000
0001
0100
0000
0010
1000
0010
0000
1000
0000
,
0001
0000
1000
0100
1000
0000
0001
0010
0001
0000
1000
0010
1000
0000
0001
0000
,
0100
0000
0010
1000
0100
0000
1000
0000
0001
0010
0100
1000
0001
0000
0100
0000
,
0010
0000
1000
0010
1000
0000
0001
0000
1000
0100
1000
0000
1100
0000
1000
0000
,
0001
0000
0010
0100
1000
0000
0001
0000
0100
0010
0100
0000
0110
0000
0010
0000
,
1000
0000
0100
1000
0001
0000
0010
0001
1000
0000
0001
1000
0001
0000
1000
0000
,
0010
1000
0010
0000
1010
0000
1000
0000
0001
0100
0001
0000
0101
0000
0001
0000
,
0010
0100
0010
0100
0010
0000
0100
0000
1000
0100
1000
0100
1000
0000
0010
0000
,
1000
0010
1000
0010
1000
0000
0010
0000
0100
0001
0100
0001
0100
0000
0001
0000
,
0010
0100
1000
0001
0100
0010
1000
0100
0010
0001
0010
0100
1000
0010
0100
0001
,
2000
0000
0000
0000
0100
0010
0002
0000
0000
0000
3003
0000
;

//---------------dance-single - Renard----------------
#NOTES:
     dance-single:
     Renard:
     Hard:
     9:
     0.661,1.000,0.154,0.086,0.686:
0000
0000
0000
0000
,
0010
0000
0100
0000
0001
0000
0010
0000
0001
1000
0001
1000
0001
1000
0001
1000
0001
0000
0100
0000
0010
0000
1000
0000
0100
1000
0100
1000
0100
1000
0100
1000
,
0010
0000
0100
0000
0001
0000
0010
0000
0001
0100
0001
0100
0001
0000
0100
0000
0001
0000
1000
0100
1000
0000
0001
0000
0010
0001
0010
0001
0010
0001
0010
0001
,
1000
0000
0010
1000
0010
0000
1000
0000
0001
0100
0001
0100
0001
0100
0001
0100
0001
0000
1000
0100
1000
0000
0001
0010
0001
0000
1000
0010
1000
0000
0001
0100
,
0001
0000
1000
0000
0100
0000
0010
0000
0001
0000
0010
0000
0100
0000
1000
0000
0010
0000
0100
0010
0100
0000
0001
0100
0001
0000
0100
0010
0100
0000
0010
1000
,
0010
0000
1000
0100
1000
0000
0001
0010
0001
0000
1000
0010
1000
0000
0001
0000
0100
0000
0000
0000
0000
0000
0000
0000
0100
0000
0000
0000
0000
0000
0000
0000
,
0100
0100
0100
0100
,
0100
0000
0100
0000
0100
0100
0100
0100
,
0100
0000
0100
0000
0100
0000
0100
0000
0100
0001
0100
0001
0100
0001
0100
0001
,
0100
0000
0001
0000
0100
0000
0001
0000
1000
0000
0000
1000
0001
0000
0100
0000
,
0010
0000
0000
1000
0000
0000
0100
0000
0010
0000
0000
0010
0001
0000
0010
0000
,
0100
0000
1000
0000
0010
0000
0100
0000
0001
0000
0000
0001
1000
0000
0100
0000
,
1000
0000
0000
1000
0001
0000
0010
0000
0001
0000
1000
0000
0010
0000
0100
0000
,
0001
0000
1000
0000
0100
0000
0010
0000
0001
0000
0000
0001
0010
0000
0100
0000
,
1000
0000
0000
1000
0010
0000
0100
0000
0001
0000
0000
0001
1000
0000
0100
0000
,
1000
0000
0001
0000
0010
0000
0100
0000
1000
0000
0000
1000
0010
0000
0100
0000
,
0001
0010
0100
1000
0001
1000
0010
1000
,
0100
0000
1000
0000
0001
0000
0010
0000
0001
0000
0000
0001
1000
0000
0010
0000
,
0100
0000
0000
0100
0001
0000
0100
0000
0010
0000
0000
0010
1000
0000
0100
0000
,
0010
0000
0001
0000
0010
0000
0100
0000
1000
0000
0100
1000
0100
0000
1000
0000
,
0001
0000
0010
0001
0010
0000
0001
0000
0100
0000
0000
0000
0010
0000
1000
0010
,
1000
0000
0100
0000
1000
0000
0000
0000
0001
0000
0000
0001
1000
0000
0100
0000
,
0010
0000
0000
0000
0011
0000
0000
0000
0010
0000
0000
0100
1000
0000
0010
0000
,
0100
0000
0000
0000
0101
0000
0000
0000
0100
0000
0000
0010
1000
0000
0100
0000
,
0010
0000
0000
0000
0011
0000
0000
0000
0010
0000
0000
0100
1000
0000
0010
0000
,
0100
0000
0000
0001
0100
0000
0010
0000
1000
0000
0000
0100
1000
0000
0001
0000
,
0010
0000
0000
0000
0011
0000
0000
0000
0010
0000
0000
0100
1000
0000
0010
0000
,
0100
0000
0000
0000
0101
0000
0000
0000
0100
0000
0000
0010
1000
0000
0100
0000
,
1000
1100
1000
1010
,
0100
0000
0000
0000
0101
0000
0000
0000
0001
0010
0001
0010
0001
0000
0010
0000
,
0100
0000
0000
0000
1100
0000
0000
0000
1000
0010
1000
0010
1000
0000
0100
0000
,
1000
0000
0000
0000
1001
0000
0000
0000
0001
0100
0001
0100
0001
0000
0100
0000
,
0010
0100
0010
0100
0010
0000
0100
0000
0010
0000
1000
0000
0100
0000
0010
0000
,
0001
0000
1000
0000
0001
0000
0000
0000
2002
0000
0000
0000
0000
0000
0000
3000
,
0200
0000
0000
0000
0000
0000
0000
0003
0020
0000
0000
0000
0000
0000
0000
0300
,
2000
0000
0000
0000
0000
0000
0030
3000
0010
1000
0010
1000
0100
1000
0100
1000
,
0001
0010
0001
0010
0001
0100
0001
0100
0010
0100
0110
0010
1000
0010
1010
1000
,
1100
0000
0000
0000
0011
0000
0000
0000
1000
0001
1000
0001
1000
0000
0001
0000
,
0100
0000
0010
0000
1000
0000
0100
0010
0001
0000
0010
0100
0000
1000
0001
0000
,
1000
0010
0000
1000
0001
0000
1000
0100
1000
0000
0001
0000
0100
0000
0010
0000
,
1000
0000
0100
1000
0100
0000
1000
0000
0001
0000
0010
0001
0010
0000
0001
0000
,
0100
0010
0000
1000
0001
0000
1000
0100
0000
1000
0001
0000
0010
0000
0001
0000
,
1000
0000
0010
0000
1000
0000
0001
0000
0100
0000
0001
0000
1000
0000
0100
1000
,
0100
0000
1000
0000
0001
0000
0010
0000
0001
1000
0000
0001
0000
1000
0001
1000
,
0001
1000
0010
1000
0100
1000
0001
0010
,
0001
0000
1000
0000
0100
0000
1000
0000
0001
0100
0001
0100
0001
0000
1000
0000
,
0010
0000
1000
0100
1000
0000
0001
0000
0010
0000
0001
0010
0001
0000
1000
0000
,
0010
0000
1000
0010
1000
0000
0001
0000
0100
0000
0010
0000
1000
0000
0100
0000
,
1000
0100
1000
0000
0001
0010
0001
0000
1000
0010
1000
0000
0001
0000
1000
0000
,
2002
0000
0000
3000
1003
0200
0020
0000
0000
0000
0330
0000
;

//---------------dance-single - Renard----------------
#NOTES:
     dance-single:
     Renard:
     Medium:
     7:
     0.455,0.760,0.154,0.019,0.178:
0000
0000
0000
0000
,
1000
0000
0001
0010
0001
0000
1000
0010
1000
0000
0001
0100
0001
0000
1000
0100
,
1000
0000
0001
0010
0001
1000
0010
1000
0100
1000
0100
1000
0001
1000
0001
1000
,
0001
0010
0001
0010
0001
0100
0001
0100
0010
0100
0010
0100
0010
1000
0010
1000
,
0100
1000
0001
0010
0100
1000
0001
0010
0100
1000
0100
0010
0001
1000
0100
1000
,
0001
0010
0100
1000
0001
0100
0010
1000
0010
0000
0000
0000
0010
0000
0000
0000
,
0010
0010
0010
0010
,
0010
0000
0010
0000
1000
0001
1000
0001
,
1000
0001
1000
0001
1000
0001
1000
0001
,
1000
0001
1000
0001
1000
0000
0001
0000
,
0100
0001
0100
0000
0001
0000
1000
0000
,
0100
1000
0100
1000
0010
0000
1000
0000
,
0001
1000
0001
0000
0010
0000
0001
0000
,
1000
0001
1000
0000
0001
0000
0010
0001
,
0010
0000
0001
1000
0001
0000
1000
0010
,
1000
0000
0100
1000
0100
0000
1000
0000
,
0001
0000
0100
0001
0100
0001
0100
0010
,
0100
0010
1000
0010
1000
0000
0100
1000
,
0100
1000
0100
0000
1000
0000
0001
0010
,
0001
0010
0001
0000
1000
0000
0001
0100
,
0001
0000
1000
0100
1000
0000
0001
1000
,
0001
1000
0001
1000
0010
0000
1000
0001
,
0100
0000
0101
0000
0001
0000
1000
0100
,
1000
0000
1100
0000
1000
0000
0001
1000
,
0001
1001
0001
0101
,
0001
0000
0101
0000
0001
0000
1000
0100
,
1000
0000
1100
0000
1000
0000
0001
0010
,
0001
0000
0011
0000
1000
0000
0010
1000
,
0010
1010
0101
0011
,
1100
0000
1010
0000
1000
0000
0010
1000
,
0010
0000
0101
0000
0001
0000
1000
0001
,
1000
1001
0000
1010
,
0000
0101
1000
0001
,
0100
0010
2000
0000
,
0002
0000
0000
0000
0100
0M00
0M00
0000
,
0010
00M0
00M0
3003
0001
0001
0100
0100
,
0001
0000
0001
0000
1000
0000
1000
0000
0100
1000
0100
1000
0001
1000
0001
1000
,
0001
0001
1000
1000
,
0001
0000
0100
0000
0010
1000
0010
1000
,
0100
1000
0100
1000
0010
1000
0010
1000
,
0100
0000
1000
0000
0001
0010
0001
0010
,
0001
0100
0001
0100
0001
0010
0001
0010
,
0001
0000
1000
0000
0100
1000
0100
0000
,
1000
0010
1000
0000
1000
0100
1000
0000
,
0001
0000
0010
0000
0001
0100
0001
0000
,
0010
0001
0010
0000
0010
0001
0010
0000
,
0001
0100
0010
1000
,
0100
1000
0100
1000
0010
1000
0010
1000
,
0001
1000
0001
1000
0001
1000
0001
1000
,
0001
0000
0000
0000
0100
0010
0100
0000
0000
0000
0000
0000
;

//---------------dance-single - Renard----------------
#NOTES:
     dance-single:
     Renard:
     Easy:
     4:
     0.277,0.334,0.029,0.067,0.000: // measure 1
0000
0000
0000
0000
,  // measure 2
0001
0001
0001
0000
0001
0001
0001
0001
,  // measure 3
1000
1000
1000
0000
0010
0010
0010
0010
,  // measure 4
0100
0100
0100
0000
0010
1000
0010
0000
,  // measure 5
0100
0001
0100
0000
0001
0001
1000
0000
,  // measure 6
1000
1000
0001
0000
0100
0000
0100
0000
,  // measure 7
0100
0100
0100
0100
,  // measure 8
0100
0100
0100
0100
,  // measure 9
0100
0100
0100
0100
,  // measure 10
0100
0100
0100
0000
,  // measure 11
0010
1000
0100
0000
,  // measure 12
1000
0001
1000
0000
0001
0000
0000
0000
,  // measure 13
0100
0001
0010
0000
,  // measure 14
0001
1000
0001
0000
0100
0000
0000
0000
,  // measure 15
0010
1000
0100
0000
,  // measure 16
1000
0001
1000
0000
0001
0000
0000
0000
,  // measure 17
0010
0100
1000
0010
,  // measure 18
0100
0000
0001
0000
1000
0001
1000
0000
,  // measure 19
0001
0000
0000
0000
1000
0001
1000
0000
,  // measure 20
0001
0000
0100
0010
,  // measure 21
1000
0000
0001
0000
0001
1000
0001
1000
,  // measure 22
0001
1000
0001
1000
0001
0000
0001
0000
,  // measure 23
0001
0000
1000
1000
,  // measure 24
1000
0000
0010
0010
,  // measure 25
0010
0000
0100
0000
,  // measure 26
0100
0000
0001
0001
,  // measure 27
0001
0000
1000
1000
,  // measure 28
1000
0000
0100
0000
,  // measure 29
0100
0000
0010
0000
,  // measure 30
0010
0000
0001
0001
,  // measure 31
1000
1000
0001
0100
,  // measure 32
0010
1000
0100
0100
,  // measure 33
1000
1000
0010
0010
,  // measure 34
0100
0000
0001
0000
2002
0000
0000
3000
,  // measure 35
0200
0000
0000
0003
0020
0000
0000
0300
,  // measure 36
2000
0000
0000
3030
1000
0000
1000
0000
,  // measure 37
0001
0000
0001
0000
0000
1001
0000
0110
,  // measure 38
0010
0010
0010
0010
,  // measure 39
1000
1000
0010
0010
,  // measure 40
0100
0100
0001
0001
,  // measure 41
1000
0010
0100
0001
,  // measure 42
1000
0100
0010
0001
,  // measure 43
0001
0001
0010
0010
,  // measure 44
0100
0100
1000
1000
,  // measure 45
0001
0010
0100
1000
,  // measure 46
0010
0100
0001
1000
,  // measure 47
0100
0000
1000
0000
0001
1000
0001
1000
,  // measure 48
0001
0100
0001
0000
,  // measure 49
1000
0000
0100
0000
1000
0000
0001
0010
,  // measure 50
0002
0000
2000
3003
;
