#TITLE:Loud Electronic Ferocious;
#SUBTITLE:;
#ARTIST:Ferry Cortsen;
#TITLETRANSLIT:;
#SUBTITLETRANSLIT:;
#ARTISTTRANSLIT:;
#CREDIT:;
#BANNER:loud.png;
#BACKGROUND:loud-bg.png;
#LYRICSPATH:;
#CDTITLE:;
#MUSIC:loud.ogg;
#OFFSET:0.000;
#SAMPLESTART:58.667;
#SAMPLELENGTH:12.000;
#SELECTABLE:YES;
#BPMS:0.000=135.000;
#STOPS:;
#BGCHANGES:;

//---------------dance-single - Renard----------------
#NOTES:
     dance-single:
     Renard:
     Challenge:
     10:
     0.718,0.911,0.459,0.167,0.672:
0000
0000
0000
0000
,
0001
0100
0001
0000
1000
0000
0000
0100
0000
0000
0010
0000
0011
0000
0000
0000
,
0010
0100
1000
0000
0001
0000
0000
0100
0000
0000
0010
0000
1000
0000
0000
0000
,
1000
0100
0010
0000
0001
0000
0000
0010
0000
0000
0100
0000
1100
0000
0000
0000
,
1100
0000
1010
0000
0100
0001
0000
0011
0000
0010
0100
0000
1100
0000
0000
0000
,
0001
0010
0100
0000
1000
0000
0000
0100
0000
0000
0010
0000
0000
0000
0001
0000
,
0010
0100
1000
0000
0100
0000
0000
0010
0000
0000
0001
0000
0000
0000
0010
0000
,
0100
1000
0010
0000
0100
0000
0000
0001
0000
0000
0100
0000
0000
0000
0010
0000
,
1010
0000
1001
0000
1000
0010
0000
0100
0010
0000
0000
0000
0101
0000
0000
0000
,
1001
0000
0000
0000
1000
0000
0100
0010
0001
0000
0010
0000
0100
0000
1000
0000
,
1001
0000
0101
0000
0100
0010
1000
0100
,
0010
0000
0000
0000
0010
0000
0100
1000
0010
0000
0000
0000
0010
0000
0100
0001
,
0100
0000
0010
1000
0010
0000
1000
0000
0001
0000
0100
0000
0001
0000
1000
0000
,
1100
0000
0000
0000
1000
0000
0100
0000
0010
0000
0001
0010
0100
0000
1000
0100
,
1000
0000
1001
0000
1000
0001
0100
0010
,
1000
0010
1000
0000
0001
0000
0100
0010
0000
1000
0100
0000
0010
0000
0001
0000
,
0010
0100
1000
0001
0010
0000
1001
0000
,
2000
0100
0001
3000
0200
0001
1000
0300
,
0020
0000
0001
0000
1000
0030
0000
0000
0002
0000
0010
0000
1000
0003
0000
0000
,
0001
0010
0100
0000
1100
0000
0000
0011
0000
0000
0110
0000
1100
0000
0000
0000
,
1100
0000
1010
0000
0100
0001
0000
0010
0001
0000
0000
0000
0110
0000
0000
0000
,
0100
1000
0100
1000
0010
1000
0010
1000
0001
1000
0001
1000
0001
0000
0000
0000
,
1000
0001
1000
0001
0100
0001
0100
0001
0010
0001
0010
0001
0010
0000
0000
0000
,
0021
0000
0000
1000
0100
0001
0031
0000
,
0011
0000
0110
0000
0100
1000
0010
0000
,
0202
0000
0000
0003
0020
0000
0000
0300
,
2000
0000
0000
0030
0200
0000
0000
3000
,
0020
0000
0000
0000
,
0000
0000
0000
0000
0000
0000
0000
0330
,
0001
0000
0010
0000
0100
0000
0000
0100
1000
0000
0010
0000
0100
0000
0000
0100
,
0001
0000
0100
0000
0010
0000
0000
0010
1000
0000
0100
0000
0010
0000
0000
0010
,
0001
0010
0100
0010
0100
1000
0010
0100
,
0001
0100
0001
0100
0010
0100
0010
0100
0010
1000
0010
1000
0001
1000
0001
1000
,
0001
0000
0000
2000
0100
0000
0010
0000
0001
0000
3000
0000
1001
0000
0000
0000
,
0001
0000
0000
0200
0010
0000
1000
0000
0001
0000
0300
0000
0110
0000
0000
0000
,
0010
1000
0010
0000
1000
0000
0000
0101
0000
0000
1001
0000
0000
0000
1000
0000
,
0100
0000
0010
0000
0001
0010
0000
0100
1000
0000
0000
0000
1001
0000
0000
0000
,
1000
0000
0000
0200
0010
0000
0001
0000
1000
0000
0300
0000
0110
0000
0000
0000
,
0010
0000
0000
0002
0100
0000
0010
0000
1000
0000
0003
0000
0101
0000
0000
0000
,
0001
0100
0001
0000
0101
0000
0000
1010
0000
0000
1001
0000
0000
0000
1000
0000
,
0100
0010
0001
0000
0010
0100
0000
1000
0001
0000
0000
0000
1001
0000
0000
0000
,
0010
1000
0010
1000
0100
1000
0100
1000
0001
0100
0001
0010
0001
0000
0000
0000
,
0100
0001
0100
0001
0010
0001
0010
0001
1000
0010
1000
0100
1000
0000
0000
0000
,
0001
0100
0010
0000
1010
0000
0000
1001
0000
0000
1100
0000
0000
0000
1000
0000
,
0100
0000
0010
0000
0001
0010
0000
0100
1000
0000
0001
0000
1000
0000
0001
0000
,
0100
0001
0100
0001
0010
0001
0010
0001
1000
0010
1000
0100
1000
0000
0000
0000
,
0010
1000
0010
1000
0100
1000
0100
1000
0001
0100
0001
0010
0001
0000
0000
0000
,
1000
0010
0100
0000
0101
0000
0000
1001
0000
0000
0011
0000
0000
0000
0001
0000
,
0010
0000
0100
0000
1000
0100
0000
0010
0001
0000
1000
0000
0001
0000
1000
0000
,
0001
0010
0100
1000
0001
0010
0100
1000
0001
0100
0010
1000
0100
0010
0001
0010
,
0100
1000
0001
0100
0010
1000
0100
0010
0100
1000
0001
0010
0100
0010
0001
1000
,
0010
0100
0001
0100
0010
1000
0100
0010
0100
0010
0001
1000
0001
0100
0001
1000
,
0100
1000
0010
0100
0001
0100
0000
0101
0000
0001
1000
0100
2000
0000
0000
0000
,
3000
0000
0000
0000
;

//---------------dance-single - Renard----------------
#NOTES:
     dance-single:
     Renard:
     Hard:
     8:
     0.542,0.522,0.229,0.052,0.287:
0000
0000
0000
0000
,
1000
0000
0001
0000
0100
0000
0000
0001
0000
0000
1000
0000
0100
0000
0000
0000
,
0010
0000
0001
0000
0010
0000
0000
0100
0000
0000
1000
0000
0001
0000
0000
0000
,
0100
0000
0010
0000
1000
0000
0000
0010
0000
0000
0100
0000
0001
0000
0000
0000
,
1000
0100
0010
0000
0001
0010
0110
0000
,
0100
0000
1000
0000
0010
0000
0000
0100
0000
0000
0001
0000
0000
0000
0100
0000
,
0001
0000
1000
0000
0100
0000
0000
0010
0000
0000
0001
0000
0000
0000
0010
0000
,
0100
0000
1000
0000
0001
0000
0000
0100
0000
0000
0010
0000
0000
0000
1000
0000
,
0010
0000
0100
0000
0001
0100
0000
0001
0100
0000
0000
0000
0110
0000
0000
0000
,
1010
0000
1000
0100
0010
0001
1000
0001
,
0100
0000
1001
0000
1000
0100
0010
0001
,
1000
1001
0100
0110
,
0010
0000
1000
0000
0100
0010
0000
0001
0010
0000
0000
0000
0110
0000
0000
0000
,
0100
1000
0001
0100
0010
1000
0001
0100
,
0010
0000
0110
0000
0010
1000
0100
0000
,
0010
0000
0011
0000
0010
0100
1000
0001
,
0100
0110
0010
1010
,
1000
0000
0000
1000
0100
0000
0010
0000
0001
0000
0000
0001
0010
0000
0100
0000
,
1000
0000
0000
1000
0010
0000
0100
0000
0001
0000
0000
0001
0010
0000
0100
0000
,
1000
0001
1000
0000
0001
0000
0000
1000
0000
0000
0001
0000
0000
0000
1000
0000
,
0010
0000
0100
0000
0010
0100
0000
0010
1000
0000
0000
0000
0001
0000
0000
0000
,
0100
0000
0001
0100
0001
0000
0100
0000
0010
0000
1000
0000
0100
0000
0010
0000
,
0001
0000
1000
0100
1000
0000
0001
0000
0010
0000
0100
0000
1000
0000
0000
0000
,
0001
0100
0001
0000
0100
0000
0000
0010
0000
0000
1000
0000
0000
0000
0100
0000
,
1000
0000
0100
0000
0010
0001
0000
1000
0001
0000
0000
0000
0110
0000
0000
0000
,
0020
0000
2030
0000
,
3200
0000
0320
0000
,
0002
0000
0000
0000
,
0000
0000
0000
0000
0000
0000
0000
0000
0000
0000
0000
0000
0000
0033
0000
0000
,
0001
0010
0001
0000
1000
0100
1000
0000
,
0001
0100
0001
0000
1000
0010
1000
0000
,
0001
0000
0000
0001
0100
0000
0000
0100
0010
0000
0000
0010
1000
0000
0000
1000
,
0100
0010
0001
0010
0100
1000
0001
1000
,
0001
0000
0100
0000
0010
0000
0000
0010
1000
0000
0100
0000
0010
0000
0000
0010
,
0001
0000
0100
0000
0010
0000
0000
0010
1000
0000
0100
0000
0010
0000
0000
0010
,
0001
0000
0010
0000
0100
0000
0000
1100
0000
0000
1100
0000
0000
0000
1000
0000
,
0100
0000
0010
0000
0001
1000
0000
0001
0100
0000
0000
0000
0110
0000
0000
0000
,
0010
0000
1000
0000
0100
0000
0000
0100
0010
0000
0001
0000
0100
0000
0000
0100
,
0010
0000
1000
0000
0100
0000
0000
0100
0010
0000
0001
0100
0000
0000
0000
0100
,
0010
0000
1000
0000
0001
0000
0000
1000
0000
0000
1100
0000
0000
0000
1000
0000
,
0100
0000
0010
0000
0001
1000
0000
0001
0100
0000
0000
0000
0101
0000
0000
0000
,
0001
1000
0100
0000
0010
0001
0100
0000
,
0010
1000
0100
0000
0010
0001
0100
0000
,
0010
0000
1000
0000
0100
0000
0000
1100
0000
0000
1001
0000
0000
0000
1000
0000
,
0100
0000
0010
0000
0001
0010
0000
0001
0010
0000
0000
0000
0011
0000
0000
0000
,
0001
0000
0010
0000
0100
0000
0000
0100
1000
0000
0010
0000
0100
0000
0000
0000
,
0001
0000
0100
0000
0010
0000
0000
0010
1000
0000
0100
0000
0010
0000
0000
0000
,
0001
0000
0010
0000
0100
0000
0000
0110
0000
0000
1100
0000
0000
0000
1000
0000
,
0100
0010
0001
1000
0001
0100
0010
0000
,
1000
0000
0001
0100
0001
0000
1000
0000
0100
0000
0010
0000
0001
0000
1000
0000
,
0100
0000
1000
0100
1000
0000
0001
0000
0010
0000
0100
0000
1000
0000
0001
0000
,
0100
0010
0100
0000
0010
0000
1000
0000
0100
0000
0010
0000
0001
0000
1000
0000
,
0001
0100
0001
0000
0100
0000
0010
0000
1000
0100
1000
0100
0010
0000
0000
0000
;

//---------------dance-single - Renard----------------
#NOTES:
     dance-single:
     Renard:
     Medium:
     5:
     0.366,0.357,0.094,0.135,0.000:
0000
0000
0000
0000
,
1000
0000
0001
0000
1000
0001
1000
0000
,
0010
0000
0100
0000
0010
0100
0010
0000
,
1000
0000
0001
0000
1000
0001
1000
0000
,
0001
0000
0010
0000
0100
1000
0100
0000
,
1000
0000
0001
0000
0100
0001
0100
0000
,
0001
0000
1000
0000
0100
1000
0100
0000
,
1000
0001
0010
0100
,
1000
0001
1000
1001
,
0001
0000
0100
0000
0001
0100
0001
0100
,
0001
0100
0000
0000
,
0001
0000
0000
1000
0100
1000
0100
0000
,
1000
0001
1000
0000
,
0001
0000
0000
1000
0010
1000
0010
1000
,
0010
1000
0001
0100
,
0001
1000
0100
0010
,
0001
0001
0010
0100
,
2000
3001
0200
0310
,
2000
3001
0020
0130
,
1000
0000
0100
0000
1000
0100
1000
0000
,
0001
0000
0010
0001
0010
0000
0001
0000
,
2000
3001
0020
0130
,
2000
3010
0200
0301
,
0010
0000
0100
0000
1000
0001
1000
0000
,
0001
0101
0001
1000
,
0200
0000
0320
0000
,
0032
0000
2003
0000
,
3020
0000
0000
0000
,
0000
0000
0000
0000
,
0130
0100
0001
0001
,
1000
1000
0100
0100
,
0010
0100
0010
0100
0010
0100
0010
0100
,
1000
0001
1000
0001
1000
0000
0001
0000
,
1000
1001
0001
1001
,
0010
0110
0100
0110
,
0001
0000
1000
0000
0001
1000
0001
0000
,
0010
0100
0010
0100
,
1000
0000
0001
0000
0100
0001
0100
0000
,
0001
0000
1000
0000
0100
1000
0100
0000
,
1000
0010
0010
0010
,
0100
0000
0001
0000
0010
0100
1000
0000
,
1001
0001
0100
1000
,
1001
1000
0100
0001
,
1000
0000
0001
0000
1000
0001
1000
0000
,
0001
1000
0001
0100
,
0010
0010
0100
0100
,
0001
0001
1000
1000
,
0100
1000
0100
0000
1000
0000
0100
0000
,
1000
0001
1000
0000
0001
0000
0010
0000
,
0001
0000
1000
0000
0001
0100
0001
1000
,
0001
1000
0100
0010
,
0001
0000
0010
0000
0100
1000
0100
0000
,
1000
0001
0100
1001
;

//---------------dance-single - Renard----------------
#NOTES:
     dance-single:
     Renard:
     Easy:
     3:
     0.374,0.414,0.406,0.406,0.000: // measure 1
0000
0000
0000
0000
,  // measure 2
0000
0000
0000
0000
,  // measure 3
0000
0000
0000
0000
,  // measure 4
0000
0000
0000
0000
,  // measure 5
0000
0000
0000
0000
,  // measure 6
1000
1001
0001
1001
,  // measure 7
1000
1001
0001
1001
,  // measure 8
0010
0110
0100
0110
,  // measure 9
0010
0110
1010
0101
,  // measure 10
2001
0100
0010
3001
,  // measure 11
1002
0100
0010
1003
,  // measure 12
2001
0100
0010
3001
,  // measure 13
1002
0100
0010
1003
,  // measure 14
2001
0100
0010
3001
,  // measure 15
1002
0100
0010
1003
,  // measure 16
2001
0010
0100
3001
,  // measure 17
1002
0010
0100
1003
,  // measure 18
0202
0003
0020
0030
,  // measure 19
2000
3000
0020
0330
,  // measure 20
0100
0001
1100
0011
,  // measure 21
1000
0100
1000
0001
,  // measure 22
0220
0030
2000
3000
,  // measure 23
0002
0003
0020
0330
,  // measure 24
0010
0100
0001
0100
,  // measure 25
0010
0100
1000
0100
,  // measure 26
0020
0000
2030
0000
,  // measure 27
3200
0000
0320
0000
,  // measure 28
0032
0000
0000
0000
,  // measure 29
0000
0000
0000
0000
,  // measure 30
1000
1000
1000
1000
,  // measure 31
1000
1000
1000
1000
,  // measure 32
1000
1000
1000
1000
,  // measure 33
1000
1000
1000
1003
,  // measure 34
1000
1001
0001
1001
,  // measure 35
0010
0110
0100
0110
,  // measure 36
2010
0010
0010
3010
,  // measure 37
0012
0010
0010
0013
,  // measure 38
1000
0001
0100
1001
,  // measure 39
0001
1000
0100
1001
,  // measure 40
1002
0100
0100
0103
,  // measure 41
2001
0100
0100
3100
,  // measure 42
2000
3001
0200
0310
,  // measure 43
2000
3100
0020
0031
,  // measure 44
1000
0001
1000
0001
,  // measure 45
0100
0010
0100
0010
,  // measure 46
2000
3010
0200
0301
,  // measure 47
0020
0130
2000
3001
,  // measure 48
0100
0100
0001
0001
,  // measure 49
1000
0100
0020
0032
,  // measure 50
0013
0110
0100
1100
,  // measure 51
1000
1001
0001
0101
,  // measure 52
0100
0110
0010
1010
,  // measure 53
1000
1001
1000
2200
,  // measure 54
3300
0000
0000
0000
;
