#TITLE:Lost Generation (Nu Foundation Mix);
#SUBTITLE:;
#ARTIST:Interstate;
#TITLETRANSLIT:;
#SUBTITLETRANSLIT:;
#ARTISTTRANSLIT:;
#CREDIT:;
#BANNER:lost.png;
#BACKGROUND:lost-bg.png;
#LYRICSPATH:;
#CDTITLE:;
#MUSIC:lost.ogg;
#OFFSET:0.000;
#SAMPLESTART:21.657;
#SAMPLELENGTH:12.000;
#SELECTABLE:YES;
#BPMS:0.000=177.314;
#STOPS:;
#BGCHANGES:;

//---------------dance-single - Renard----------------
#NOTES:
     dance-single:
     Renard:
     Hard:
     9:
     0.721,0.753,0.549,0.000,0.060:
0000
0000
0000
0000
,
0000
0000
0000
0000
,
0000
0000
0000
0000
,
0000
0000
0000
0000
,
0100
1000
0100
1000
0100
1000
0100
0010
,
0001
0010
0001
0010
0001
0010
0001
0010
,
0001
0100
0001
0100
0001
0100
0001
0100
,
0010
1000
0010
1000
0010
1000
0001
0100
,
0001
0001
0001
0100
0100
0100
0010
0010
,
1000
1000
1000
0100
0100
0100
0010
0010
,
0001
0001
0001
1000
1000
1000
0001
0001
,
0100
0100
0100
0010
0010
0010
1000
1000
,
0001
0001
0001
0100
0100
0100
0001
0001
,
1000
1000
1000
0100
0100
0100
0010
0010
,
0001
0001
0001
1000
1000
1000
0001
0001
,
1000
1000
1000
0010
0010
0010
0100
0100
,
0001
0100
0001
1000
0100
1000
0001
0010
,
0100
1000
0100
1000
0010
1000
0001
0100
,
0001
0010
0001
0100
0010
0100
0001
1000
,
0010
1000
0010
0100
0001
0100
0001
1000
,
0001
0100
0001
1000
0100
1000
0001
0010
,
0100
1000
0100
1000
0010
1000
0001
0100
,
0001
0010
0001
0100
0010
0100
0001
1000
,
0010
1000
0010
0100
0001
0100
0001
1000
,
0001
0100
0010
0100
1000
0100
0010
0100
,
0001
0010
0100
0010
1000
0010
0100
0010
,
0001
0100
0010
0100
1000
0100
0001
0100
,
0001
0010
0100
0010
1000
0010
0100
0010
,
0001
1000
0010
1000
0100
1000
0001
1000
,
0001
0010
0001
0100
0001
1000
0001
1000
,
0100
1000
0010
1000
0001
1000
0010
1000
,
0001
0001
1000
1000
0010
0010
0100
0100
,
0110
0000
0101
0000
0110
0000
0010
1000
,
0100
0000
0110
0000
0011
0000
0010
0100
,
1000
0000
1001
0000
1010
0000
0001
0100
,
0010
1010
1001
1100
,
0011
0000
0110
0000
1100
0000
0001
0010
,
0100
0000
1100
0000
0110
0000
0010
0001
,
1000
0000
1010
0000
0101
0000
0001
0100
,
0010
0000
1000
0010
0100
0000
1001
0000
,
0100
0000
1010
0000
0000
0100
0001
0000
,
0010
0000
1100
0000
0000
1000
0100
0000
,
0010
0000
0011
0000
0000
0010
0100
0000
,
1000
0000
1010
0000
0000
0010
0000
1001
,
0100
0000
0110
0000
0000
0010
1000
0000
,
0001
0000
0110
0000
0000
0010
1000
0000
,
0100
0000
0110
0000
0000
0010
0001
0000
,
0010
0000
0110
0000
0000
0100
1000
0001
,
1001
0000
0000
0000
1001
0000
0000
0000
1001
0000
0000
0001
1000
0001
1000
0000
,
1001
0000
0000
0000
1001
0000
0000
0001
1000
0000
0001
0000
1001
0000
0000
0000
,
1001
0000
0000
0000
1001
0000
0000
0001
1000
0000
0001
0000
1000
0000
0001
0000
,
1001
0000
0000
1000
0001
0000
1000
0000
1001
0000
0000
1000
0001
0000
1000
0000
,
0110
0000
0000
0000
0110
0000
0000
0000
0110
0000
0000
0100
0010
0100
0010
0000
,
0110
0000
0000
0000
0110
0000
0000
0100
0010
0000
0100
0000
0110
0000
0000
0000
,
0110
0000
0000
0000
0110
0000
0000
0100
0010
0000
0100
0000
0010
0000
0100
0000
,
0110
0000
0000
0010
0100
0000
0010
0000
0110
0000
0000
0010
0100
0000
0010
0000
,
1000
1000
0000
0001
0001
0000
0100
0100
,
0010
0010
0000
1000
1000
0000
0100
0100
,
0010
0010
0000
0001
0001
0000
0010
0010
,
0100
0100
0000
1000
1000
0000
0001
0001
,
0100
0100
0000
0010
0010
0000
1000
1000
,
0010
0010
0000
0100
0100
0000
0001
0001
,
1000
1000
0000
0100
0100
0000
0010
0010
,
0001
0001
0000
1000
1000
0000
0001
0001
,
0100
0000
1010
0000
0010
0100
0001
0010
,
0100
0000
1000
0000
0001
0010
0110
0000
,
1100
0000
0001
1000
0010
0100
0001
0000
,
0100
0010
1000
0010
0100
0000
0101
0000
,
0110
0000
0010
1000
0100
0010
0001
0010
,
0100
1000
0001
0010
0100
0000
0110
0000
,
0011
0000
0001
0010
0100
1000
0001
0100
,
0010
0100
0010
1000
0010
0100
1001
0010
;

//---------------dance-single - Renard----------------
#NOTES:
     dance-single:
     Renard:
     Medium:
     6:
     0.425,0.466,0.160,0.020,0.000:
0000
0000
0000
0000
,
0000
0000
0000
0000
,
0000
0000
0000
0000
,
0000
0000
0000
0000
,
0000
0000
0000
0000
,
0000
0000
0000
0000
,
0000
0000
0000
0000
,
0000
0000
0000
0000
,
1000
0000
0001
0000
1000
0000
0010
0100
,
0010
0100
0001
0010
,
0100
0000
1000
0000
0001
0000
0100
0010
,
0100
0010
1000
1001
,
1001
1000
0100
0010
,
0001
0000
0100
0010
0100
0000
1001
0000
,
1001
1000
0100
0010
,
0002
1003
0001
1000
,
0001
0000
0100
0000
0010
0000
1000
0010
,
1000
0000
0100
0000
0010
0000
0001
0010
,
0001
0000
0010
0000
0100
0000
1000
0001
,
1000
0001
0100
0010
,
1000
0000
0100
0000
0010
0000
0001
1000
,
0001
0000
0010
0000
0100
0000
1000
0001
,
1000
0000
0100
0000
0010
0000
0001
1000
,
0001
0010
0100
1000
,
0001
0000
0100
0000
0010
0000
1000
0010
,
1000
0000
0010
0000
0100
0000
0001
0100
,
0001
0000
0100
0000
0010
0000
1000
0010
,
1000
0010
0100
0001
,
1000
0000
0100
0000
0010
0000
0001
0010
,
0001
0000
0010
0000
0100
0000
1000
0100
,
1000
0100
0010
0001
,
1000
1000
0001
0001
,
0100
0010
1000
0010
,
1000
0100
0010
0001
,
1000
0001
0010
0100
,
1000
0001
0100
0110
,
0010
1000
0100
0010
,
0001
1000
0001
1001
,
1001
0001
0100
0010
,
1000
0100
0010
0011
,
0010
0100
1000
0001
,
0100
0010
1000
1001
,
1001
1000
0001
0100
,
0010
1000
0100
0110
,
0010
0100
1000
0010
,
0100
0001
1000
1001
,
1001
0001
0100
0010
,
0100
0100
0010
0010
,
0100
0000
0001
0000
0100
0000
0010
1000
,
0010
1000
0100
0010
,
0001
0000
1000
0000
0100
0000
1000
0100
,
1000
0001
0010
0100
,
1000
0000
0001
0000
0100
0000
0010
1000
,
0010
1000
0001
0100
,
0001
0000
0010
0000
0100
0000
1000
0001
,
1000
0001
0100
0010
,
1000
0100
0010
0001
,
0010
0100
1000
0001
,
0001
1000
0100
0010
,
0001
0010
0100
1000
,
1000
0100
0010
0001
,
1000
0000
0010
0000
0100
0000
0010
0100
,
0010
0000
0100
0000
0001
0000
1000
0001
,
1000
0000
0100
0000
0010
0000
0001
1000
,
0001
0100
0010
1000
,
0100
0000
0010
0000
0001
0000
1000
0001
,
1000
0001
0100
0010
,
1000
0100
0010
0011
,
0010
0100
1000
0001
,
0100
0020
1030
0101
,
0101
0100
0010
1000
,
0100
0000
0010
0000
0001
1000
0001
0100
;

//---------------dance-single - Renard----------------
#NOTES:
     dance-single:
     Renard:
     Easy:
     3:
     0.339,0.429,0.070,0.040,0.000: // measure 1
0000
0000
0000
0000
,  // measure 2
0000
0000
0000
0000
,  // measure 3
0000
0000
0000
0000
,  // measure 4
0000
0000
0000
0000
,  // measure 5
1000
0001
1000
0001
,  // measure 6
0010
0100
0010
0100
,  // measure 7
1000
0001
1000
0001
,  // measure 8
0100
0010
0100
0010
,  // measure 9
1000
1000
1010
0010
,  // measure 10
0100
0001
0100
1001
,  // measure 11
1001
0001
0010
0100
,  // measure 12
1000
0001
0100
0011
,  // measure 13
0011
0100
1000
0001
,  // measure 14
0010
0100
1000
1001
,  // measure 15
1001
1000
0010
0100
,  // measure 16
0002
0103
0002
0103
,  // measure 17
0001
0100
0000
0010
,  // measure 18
1000
0100
0000
0010
,  // measure 19
0001
1000
0000
0001
,  // measure 20
0100
0001
0000
1000
,  // measure 21
0100
0010
0000
0001
,  // measure 22
0010
0100
0000
1000
,  // measure 23
0100
0010
0000
0001
,  // measure 24
1000
0010
0000
1000
,  // measure 25
0010
1000
0001
0100
,  // measure 26
0001
1000
0100
0000
,  // measure 27
0010
0001
1000
0100
,  // measure 28
1000
0001
0010
0000
,  // measure 29
0001
0010
0001
1000
,  // measure 30
0100
1000
0000
0001
,  // measure 31
1000
0010
0001
1000
,  // measure 32
0100
0010
0000
0001
,  // measure 33
1000
0000
0001
0100
,  // measure 34
0001
0000
1000
0001
,  // measure 35
0001
0000
1000
0000
,  // measure 36
0100
0010
0001
1000
,  // measure 37
0001
0000
0100
0000
,  // measure 38
0001
1000
0100
0010
,  // measure 39
0010
0000
0001
0000
,  // measure 40
1000
0010
1000
0001
,  // measure 41
0100
0001
0100
0001
,  // measure 42
0010
0001
0010
0001
,  // measure 43
1000
0100
1000
0100
,  // measure 44
1000
0010
1000
0010
,  // measure 45
0100
0001
0100
0001
,  // measure 46
0010
0001
0010
0001
,  // measure 47
0100
1000
0100
1000
,  // measure 48
0010
0010
0001
0010
,  // measure 49
1000
0100
1000
0100
,  // measure 50
0001
0010
0001
0010
,  // measure 51
1000
0100
1000
0100
,  // measure 52
0001
0010
0001
0010
,  // measure 53
1000
0100
1000
0100
,  // measure 54
0001
0010
0001
0010
,  // measure 55
1000
0100
1000
0100
,  // measure 56
0001
0010
0001
0010
,  // measure 57
1000
0000
0001
0000
,  // measure 58
0100
0000
0010
1000
,  // measure 59
0001
0000
0100
0000
,  // measure 60
0001
0000
0000
0000
,  // measure 61
1000
0000
0100
0000
,  // measure 62
0010
0000
0001
0000
,  // measure 63
1000
0000
0001
0100
,  // measure 64
0001
0000
1000
0000
,  // measure 65
0100
0000
0010
0001
,  // measure 66
1000
0000
0010
0100
,  // measure 67
0100
0000
0001
0000
,  // measure 68
0010
0000
0100
0000
,  // measure 69
1000
0000
0001
0000
,  // measure 70
0010
0000
0100
1000
,  // measure 71
1000
0000
0001
0010
,  // measure 72
0002
1003
0020
0130
;
