#TITLE:Living Daylights II;
#SUBTITLE:;
#ARTIST:DJ Fresh;
#TITLETRANSLIT:;
#SUBTITLETRANSLIT:;
#ARTISTTRANSLIT:;
#CREDIT:;
#BANNER:daylights.png;
#BACKGROUND:daylights-bg.png;
#LYRICSPATH:;
#CDTITLE:;
#MUSIC:daylights.ogg;
#OFFSET:0.000;
#SAMPLESTART:33.043;
#SAMPLELENGTH:12.000;
#SELECTABLE:YES;
#BPMS:0.000=174.000,192.000=87.000,223.500=174.000;
#STOPS:223.500=0.172
;
#BGCHANGES:;

//---------------dance-single - Renard----------------
#NOTES:
     dance-single:
     Renard:
     Hard:
     8:
     0.544,0.854,0.320,0.650,0.048:
0000
0000
0000
0000
,
0000
0000
0000
0000
,
0000
0000
0000
0000
,
0000
0000
0000
0000
,
1000
0000
1000
0000
0000
0001
0000
0000
,
0010
0000
0000
0100
0000
1000
1000
0010
,
0100
0000
0001
0000
0000
0010
0000
0000
,
0002
0000
0000
2000
0000
0000
0000
3003
,
0010
0000
1001
0000
1000
0100
0010
0001
,
1000
0000
0001
0100
0000
0010
1000
0000
,
0100
0000
0011
0000
0001
0010
0100
0000
,
1000
0000
0001
0100
0000
0010
1000
1000
,
0001
0000
1100
0000
0001
0010
0000
1100
,
0000
0010
0001
0100
0010
1000
0001
0100
,
0010
0000
0010
1000
0000
1000
0100
0000
,
0010
0000
0001
1000
0000
0010
1001
0000
,
1000
0010
0100
0000
0001
0000
0010
0100
,
1000
0020
1000
0000
1030
0000
1001
0000
,
0100
0000
0001
0000
1000
0100
0010
0000
,
0001
0000
1000
0010
0000
0100
0001
0010
,
0100
0000
1001
0000
0100
0010
1000
0000
,
0100
0000
0011
0000
0000
0010
0100
0000
,
1000
0100
0000
0001
0100
0000
0010
1000
,
0000
0010
0001
0010
0100
0000
1001
0000
,
0001
0000
0100
0010
1000
0100
0000
0010
,
0001
1000
0000
0110
0000
1001
0000
1000
,
0100
0000
0010
0001
0010
0100
0000
1000
,
0010
0100
0000
0101
0000
1010
0000
1000
,
0100
0000
0010
0001
0010
0100
0000
0010
,
0100
1000
0000
0110
0000
1001
0000
0010
,
1000
0001
0000
0001
0100
0000
0100
0010
,
0000
0010
1000
0000
0100
0010
0000
0002
,
2003
0000
3020
0000
0230
0000
0302
0020
,
0000
0000
0000
0000
0003
0000
0230
2300
,
3020
0230
0000
0002
0300
0000
2003
0002
,
3000
0000
0203
0020
0300
2000
0030
0000
,
3200
0000
0320
0000
0032
2000
0003
0000
,
3020
0000
0230
0002
0300
0020
0003
0200
,
0000
0000
0000
0330
,
0000
0000
0000
0000
0000
0000
0100
0100
,
1001
0000
0000
0000
,
0110
0000
0000
0000
,
2001
0000
3010
0000
,
1002
0000
0103
0000
,
0002
0203
0320
2030
,
3100
0010
0001
0010
0100
1000
0001
0100
,
0010
1000
0100
0000
0110
0000
0000
0000
,
2002
0000
0000
3003
,
2000
0000
0000
0000
3002
0000
0103
0010
2000
0000
0000
3200
0000
0000
0320
0000
,
0032
0000
0000
0000
0000
0000
0013
0100
2000
0000
3020
0000
0230
0000
0302
0000
,
0023
0000
0030
0000
0000
0001
1000
0010
0200
0000
0302
0000
0023
0000
0032
0000
,
2003
0000
0000
0000
3000
0001
0100
0010
2000
0000
0000
3100
0010
0000
0001
1000
,
0020
0000
0000
0000
0230
0000
0302
0000
0023
0000
0000
0032
0000
0000
2003
0000
,
0000
3020
0230
0302
0023
0230
2300
3002
,
0203
0000
0320
2000
0030
0000
0000
0000
3200
0000
0000
0000
0320
0000
0032
0000
,
0200
0000
0000
0000
0000
0000
0000
1313
,
0101
0000
1010
0000
1000
0100
0010
0000
,
0001
0010
0100
0000
1000
0010
0100
0000
,
1010
0000
0101
0000
1000
0100
0000
0010
,
0001
1000
0000
0001
0000
0100
0000
0010
,
1000
0000
0011
0000
0100
1000
0000
0001
,
0100
0010
0000
1001
0000
0110
0000
0010
,
1000
0000
0100
0010
0001
0010
0100
0000
,
1000
0000
0001
0100
0000
0010
1000
0000
,
0001
0000
0110
0000
0010
1000
0000
0100
,
0010
0000
0001
0010
0000
0100
1000
0010
,
0100
0000
0101
0000
0000
1100
0000
0000
,
0110
0000
0010
1000
0100
0010
0001
0010
,
1000
0000
0110
0000
0000
0101
0000
0000
,
1100
0000
1000
0010
0000
0100
0001
0100
,
1000
0100
0000
0010
0100
0000
0010
0001
,
0000
0010
0100
1000
0100
0000
0001
0000
,
2002
0000
0000
0000
,
3003
0000
0000
0000
;

//---------------dance-single - Renard----------------
#NOTES:
     dance-single:
     Renard:
     Medium:
     6:
     0.358,0.474,0.069,0.269,0.000:
0000
0000
0000
0000
,
0000
0000
0000
0000
,
0000
0000
0000
0000
,
0000
0000
0000
0000
,
1000
0000
0001
0000
0000
0100
0000
0000
,
0001
0000
0000
0010
0000
0100
1000
0100
,
1000
0000
0001
0000
0000
0010
0000
0000
,
0001
0000
0000
1000
0000
0000
0000
0000
,
0001
0000
0100
0000
0000
0010
1000
0000
,
0100
0000
0010
0000
0000
0001
1000
0000
,
0001
0000
0100
0000
0000
0010
1000
0000
,
0001
0000
0100
0000
0000
0001
1000
0000
,
0100
0000
0010
0000
0000
0001
1000
0000
,
0001
0000
0100
0000
0000
0010
1000
0000
,
0100
0000
0010
0000
0000
0001
1000
0000
,
0001
0000
0100
0000
0000
0001
0100
0010
,
1000
0000
0001
0000
1000
0000
0100
0010
,
0000
0001
0000
0000
0000
0000
0110
0000
,
0010
0000
1000
0000
0000
0001
0100
0000
,
0001
0000
1000
0000
0000
0100
0010
0000
,
0001
1000
0001
0100
,
0001
1000
0001
0010
,
0001
0000
1000
0000
0100
0000
1000
0010
,
0000
1000
0001
0100
0010
0000
1000
0000
,
0001
0000
0100
0001
0100
0001
0000
1000
,
0100
1000
0000
0001
0000
0010
0000
0001
,
1000
0000
0010
0000
1000
0010
0000
0000
,
0100
0001
0000
0010
0000
0001
0000
1000
,
0100
0000
1000
0000
0001
0100
0000
0000
,
0010
1000
0000
0100
0000
1000
0000
0001
,
0010
0000
0001
0000
1000
0000
0010
0100
,
0000
0001
0010
0001
1000
0000
0010
0000
,
0200
0000
0000
0000
,
0302
0000
0000
0000
,
0023
0000
0230
0000
,
2300
0000
0000
0000
,
3020
0000
0000
0000
,
0230
0000
0000
0302
0000
0000
0000
0023
,
0000
0000
0000
0000
,
0000
0000
0000
0000
,
0031
0000
0000
0000
,
1100
0000
0000
0000
,
1001
0000
1001
0000
,
0110
0000
0110
0000
,
0010
1000
0010
1000
,
0001
0100
0001
0100
0001
0100
0001
0100
,
0001
0010
0001
0000
0010
0000
0000
0000
,
0000
0000
0000
0000
,
0200
0000
2300
3020
,
0230
0000
0302
2003
,
3200
0000
0320
0032
,
0203
0000
0320
2030
,
3200
0000
0320
0032
,
0203
0000
0301
1000
0200
0000
0310
0001
,
0200
0000
0310
1000
0100
0010
0001
0200
,
0020
0000
0000
0000
0000
0000
0330
1001
,
1000
0000
0001
0000
0000
0100
0001
0000
,
1000
0000
0100
0000
0000
0010
0001
0000
,
1000
0000
0010
0000
0000
0100
0010
0000
,
0100
0000
0001
0000
0000
0010
0001
0000
,
0010
0000
0100
0000
0000
1000
0010
0000
,
0100
0000
0001
0000
0000
1000
0001
0000
,
0100
0000
0001
0000
0000
1000
0010
0000
,
1000
0000
0100
0000
0010
0001
1000
0000
,
0001
0000
0100
0000
0000
0001
1000
0000
,
0001
0000
0010
0000
0001
0000
1000
0100
,
1000
0000
0001
0000
0010
0001
0000
0000
,
1000
0000
0001
0000
0100
0000
0010
1000
,
0010
0000
1000
0000
0000
0001
0000
0100
,
0001
0000
1000
0000
0100
0000
0010
0001
,
1000
0000
0001
0000
0100
0000
0010
1000
,
0000
0001
0100
0010
1000
0000
0001
0000
,
0220
0000
0000
0000
,
0330
0000
0000
0000
;

//---------------dance-single - Renard----------------
#NOTES:
     dance-single:
     Renard:
     Easy:
     2:
     0.234,0.312,0.061,0.087,0.000:
0000
0000
0000
0000
,
0000
0000
0000
0000
,
0000
0000
0000
0000
,
0000
0000
0000
0000
,
1000
0000
1000
0000
0000
1000
0000
0000
,
1000
0000
0000
1000
0000
0000
1000
0000
,
1000
0000
1000
0000
0000
1000
0000
0000
,
1000
0000
0000
1000
0000
0000
0000
0000
,
0001
0000
0000
0000
0000
0001
0000
0000
,
1000
0000
0000
0000
0000
1000
0000
0000
,
0100
0000
0000
0000
0000
0100
0000
0000
,
0010
0000
0000
0000
0000
0010
0000
0000
,
0001
0000
0000
0000
0000
0001
0000
0000
,
1000
0000
0000
0000
0000
1000
0000
0000
,
0010
0000
0000
0000
0000
0010
0000
0000
,
0100
0000
0100
0100
,
0010
0100
0000
0100
,
0001
1000
0000
0001
,
0100
0010
0000
0100
,
0010
1000
0000
0010
,
0100
0001
0000
0001
,
1000
0100
0000
0100
,
0010
0001
1000
0001
,
0100
0010
1000
0001
,
1001
0000
1000
0000
,
0100
0000
0010
0001
,
1000
0000
0001
0000
,
0100
0000
0010
1000
,
0010
0000
0100
0000
,
0001
0000
0010
0001
,
1000
0100
0000
0100
,
0010
0001
1000
0001
,
0200
0000
0000
0000
,
0302
0000
0000
0000
,
2003
0000
0000
0000
,
3200
0000
0000
0000
,
2300
0000
0000
0000
,
3002
0000
0203
0000
,
0320
0000
0000
0000
,
0000
0000
0000
0000
,
1030
0000
0000
0000
,
1001
0000
0000
0000
,
0110
0000
0110
0000
,
1001
0000
1001
0000
,
1000
0001
1000
0001
,
1000
1000
0001
0001
,
0100
0100
0100
0000
,
0020
0000
0000
0000
,
0130
0000
0001
1000
,
0100
0000
0010
0001
,
1000
0000
0010
0100
,
0001
0000
1000
0100
,
0010
0000
0001
1000
,
0010
0000
0100
0001
,
1000
0000
0100
0010
,
0002
0000
0000
0000
0000
0000
0003
0110
,
0010
1000
0000
0010
,
0100
0001
0000
0100
,
0001
0010
0000
0001
,
0010
0100
0000
1000
,
0010
1000
0000
0001
,
0100
0010
0000
1000
,
0100
0010
0000
0001
,
1000
0001
0100
0010
,
1000
0000
0010
0000
0000
0100
0000
0000
,
0001
0000
0000
1000
,
0100
0000
0010
0000
0000
0001
0000
0000
,
1000
0000
0000
0001
,
0100
0000
0001
0000
0000
1000
0000
0000
,
0100
0000
0000
0010
,
0001
0000
0000
1000
0000
0000
0010
0000
,
0000
0100
0001
1000
,
0100
0000
0000
0000
;

//---------------dance-single - Renard----------------
#NOTES:
     dance-single:
     Renard:
     Challenge:
     9:
     0.625,0.935,0.346,0.130,0.372: // measure 1
0000
0000
0000
0000
,  // measure 2
0000
0000
0000
0000
,  // measure 3
0000
0000
0000
0000
,  // measure 4
0000
0000
0000
0000
,  // measure 5
1010
0000
0101
0000
0000
1001
0000
0000
,  // measure 6
1100
0000
0000
0011
0000
0001
1000
0010
,  // measure 7
0100
0000
1001
0000
0000
0110
0000
0000
,  // measure 8
1010
0000
0000
0101
0000
0000
0000
0000
,  // measure 9
1000
0000
0001
0100
0010
1000
0100
0010
,  // measure 10
0001
0010
1000
0010
0100
0001
0100
0000
,  // measure 11
0100
0000
1000
0000
0010
0100
0010
0001
,  // measure 12
1000
0100
0010
1000
0100
0010
0001
0010
,  // measure 13
0100
0000
0101
0000
0100
1000
0010
0100
,  // measure 14
0001
0000
1100
0000
0100
0010
1000
0100
,  // measure 15
0010
0000
0011
0000
0010
0100
0001
0100
,  // measure 16
1000
0010
0100
0001
0100
1000
0110
0000
,  // measure 17
0010
1000
0100
0010
0001
0010
1000
0010
,  // measure 18
0100
0001
0100
0000
0100
0000
1001
0000
,  // measure 19
0001
1000
0010
0000
0010
0100
0001
0000
,  // measure 20
0001
0100
1000
0100
0010
0100
1000
0100
,  // measure 21
0001
0100
0010
0000
1000
0100
0010
0001
,  // measure 22
0100
0010
1000
0010
0001
0000
0011
0000
,  // measure 23
0010
0100
1000
0100
0001
1000
0100
0010
,  // measure 24
0000
0010
0001
0010
0100
0000
1001
0000
,  // measure 25
0110
0000
1001
0010
0100
0001
0000
0010
,  // measure 26
0100
1000
0000
0110
0000
1001
0000
1000
,  // measure 27
0100
0000
0110
0100
1000
0010
0000
0110
,  // measure 28
0100
0001
0000
0011
0000
0110
0000
0100
,  // measure 29
1000
0000
0110
0100
0001
0010
0000
0110
,  // measure 30
0100
1000
0000
1010
0000
1001
0000
0001
,  // measure 31
0100
0010
1000
0010
0001
0010
0100
1000
,  // measure 32
0100
0001
0010
0100
1000
0010
0100
0001
,  // measure 33
0020
0000
0000
0000
,  // measure 34
0230
0000
0000
0000
,  // measure 35
2300
0000
3002
0000
,  // measure 36
0203
0000
0000
0000
,  // measure 37
0302
0000
0023
0000
,  // measure 38
2030
0000
3002
0000
,  // measure 39
0203
0000
0000
0000
,  // measure 40
0000
0000
0000
0000
,  // measure 41
1300
0000
0000
0000
,  // measure 42
0011
0000
0000
0000
,  // measure 43
0101
0000
1010
0000
,  // measure 44
0101
0000
0011
0000
,  // measure 45
1100
0011
0101
1010
,  // measure 46
1000
0000
0010
0000
0100
0000
0001
0000
0010
0100
1000
0001
0010
0100
0010
0001
,  // measure 47
1000
0010
0100
0000
2002
0000
0000
0003
,  // measure 48
0020
0000
0000
0000
0000
0000
0000
3030
,  // measure 49
1000
0010
0100
0001
0000
0001
0010
0100
1000
0010
0100
0001
0000
0001
1000
0100
,  // measure 50
0010
0001
1000
0010
0000
0010
0100
0001
0010
0100
0010
0001
1000
0010
0100
0001
,  // measure 51
0010
0100
1000
0010
0000
0010
0100
0001
0010
0100
1000
0010
0000
0010
0100
0001
,  // measure 52
0010
0100
1000
0100
0000
0100
1000
0001
0010
0100
1000
0010
0100
0001
0010
0100
,  // measure 53
1000
0010
0100
0001
0000
0001
0010
0100
1000
0001
0100
0010
0000
0010
1000
0100
,  // measure 54
0010
0100
1000
0010
0000
0010
0100
0001
0010
0100
1000
0010
0100
0001
0010
0100
,  // measure 55
0010
0001
1000
0010
0000
0010
0100
0001
0010
0100
1000
0010
0000
0010
0100
0002
,  // measure 56
0020
0000
0000
0000
0000
0000
0000
1033
,  // measure 57
0010
0000
0100
1000
0000
0010
0100
0000
0001
0000
0010
0000
0100
0000
1000
0000
,  // measure 58
0010
0000
0100
0001
0000
1000
0010
0000
1000
0000
0100
0000
0010
0000
0001
0000
,  // measure 59
0010
0000
0100
1000
0000
0001
0010
0000
0100
0000
1000
0000
0001
0000
0100
0000
,  // measure 60
0010
0000
1000
0010
0000
0100
0001
0000
0010
0000
0100
0000
1000
0000
0001
0000
,  // measure 61
0010
0000
0100
1000
0000
0001
0010
0000
0100
0000
1000
0000
0001
0000
0100
0000
,  // measure 62
0010
0000
1000
0010
0000
0100
0001
0000
1000
0000
0100
0000
0010
0000
0001
0000
,  // measure 63
0010
0000
0100
1000
0000
0001
0010
0000
0100
0000
1000
0000
0001
0000
0100
0000
,  // measure 64
0010
0000
1000
0010
0000
0100
0001
0000
0010
0000
0100
0000
1000
0000
0001
0000
,  // measure 65
0010
0000
0100
1000
0000
0001
0010
0000
0001
0000
1000
0000
0010
0000
0100
0000
,  // measure 66
0001
0000
0010
0100
0000
1000
0010
0000
0100
0000
0001
0000
0010
0000
0100
0000
,  // measure 67
1000
0000
0001
0100
0000
0010
1000
0000
0100
0000
0010
0000
0001
0000
0010
0000
,  // measure 68
0100
1000
0010
0100
0001
0010
0100
1000
,  // measure 69
0010
0000
0100
0001
0000
1000
0010
0000
1000
0000
0100
0000
0010
0000
0001
0000
,  // measure 70
0010
0000
0100
1000
0000
0001
0010
0000
0100
0000
1000
0000
0001
0000
0100
0000
,  // measure 71
0010
1000
0100
0010
0001
0010
0100
1000
,  // measure 72
0010
0100
0001
0010
0100
0000
1010
0000
,  // measure 73
1111
0000
0000
0000
;
