#TITLE:Little Nappy;
#SUBTITLE:;
#ARTIST:D-Mode-D and Emoticon;
#TITLETRANSLIT:;
#SUBTITLETRANSLIT:;
#ARTISTTRANSLIT:;
#CREDIT:;
#BANNER:nappy.png;
#BACKGROUND:nappy-bg.png;
#LYRICSPATH:;
#CDTITLE:;
#MUSIC:nappy.ogg;
#OFFSET:0.000;
#SAMPLESTART:14.360;
#SAMPLELENGTH:12.000;
#SELECTABLE:YES;
#BPMS:0.000=200.000;
#STOPS:193.000=0.150
,194.500=0.150
,197.000=0.150
,197.500=0.150
,198.000=0.300
,199.000=0.150
,199.500=0.150
,201.000=0.150
,201.500=0.150
,234.500=0.150
,236.000=0.150
,237.500=0.150
,240.500=0.150
,287.000=0.150
,287.500=0.150
;
#BGCHANGES:;

//---------------dance-single - Renard----------------
#NOTES:
     dance-single:
     Renard:
     Hard:
     9:
     0.816,0.723,0.524,0.021,0.000:
0000
0000
0000
0000
,
0000
0000
0000
0000
,
0000
0000
0000
0000
,
0000
0000
0000
0000
,
0001
0100
0001
0100
0001
0100
0001
0100
,
0010
0100
0010
0100
0010
0100
0010
0100
,
0001
0100
0001
0100
0001
0100
0001
0100
,
0010
0100
0010
0100
0010
0100
0010
0100
,
0001
1000
0001
1000
0100
1000
0100
1000
,
0001
1000
0001
1000
0010
1000
0010
1000
,
0100
1000
0100
1000
0001
0010
0001
0010
,
0001
1000
0010
1000
0010
0000
1010
0000
,
1000
0001
0100
0010
0000
1010
0000
1001
,
0000
1100
0000
1001
0000
1000
0100
0010
,
0001
0010
0100
0000
0100
1000
0010
1000
,
0000
1010
0000
1001
0000
1000
0100
0010
,
0001
0000
0010
0100
0000
1100
0000
1001
,
0000
1010
0000
1100
0000
1000
0100
0010
,
0001
0010
0100
0000
1000
0001
0100
0010
,
0000
0110
0000
0101
0000
0001
1000
0100
,
1000
0000
0001
0100
0000
1001
0000
1100
,
0000
1001
0000
1001
0000
1000
0010
0100
,
0001
1000
0100
0000
1000
0001
0010
0001
,
0000
1010
0000
1001
0000
1000
0100
0010
,
0001
0000
0010
0100
0000
0110
0000
1100
,
0000
0011
0000
0110
0000
0100
1000
0010
,
0100
0001
0100
0000
0010
1000
0001
1000
,
0000
1100
0000
1001
0000
1000
0001
0100
,
0010
1000
0100
0010
0001
0010
0100
1000
,
0010
0100
0001
0010
0100
1000
0010
0100
,
0001
0010
0100
1000
0100
0010
0001
0100
,
0010
1000
0100
0010
0001
0100
0010
1000
,
0010
0100
0001
0100
0010
1000
0100
0010
,
0001
0100
0010
1000
0010
0100
0001
0100
,
0010
1000
0100
0010
0001
0100
0010
1000
,
0100
1000
0001
0010
0001
1000
1001
0000
,
0001
0100
0010
1000
0100
0010
0001
0010
,
0100
1000
0010
0100
0001
0100
0010
1000
,
0100
1000
0001
0010
0001
1000
0010
0100
,
0001
0100
0001
1000
0100
1000
0001
0010
,
0001
1000
0010
0100
0001
0010
0100
1000
,
0010
0100
0001
0010
0100
1000
0001
0010
,
0100
0001
0100
0010
0001
0100
0010
0000
,
1100
1100
1100
1001
,
1000
0001
0100
0001
1000
0001
0100
0001
,
1000
0010
1000
0001
1000
0100
1000
0001
,
1000
0100
1000
0100
1000
0010
1000
0010
,
1000
0001
1000
0001
0100
0001
0100
0001
,
0010
0001
1000
1000
0010
1000
0001
1000
,
0001
1000
0001
0001
1000
0001
0100
0001
,
1001
0000
0001
1000
0001
0000
1000
0001
,
0100
0001
1000
0001
0100
0001
1000
0001
,
0100
0001
1000
0001
0100
0001
1000
0001
,
1000
0100
1000
0001
1000
0100
1000
0001
,
1000
0100
1000
0001
1000
0001
0100
0010
,
0100
1000
0100
0010
0100
1000
0100
0001
,
0010
0001
0010
0001
0010
0001
0010
0100
,
0010
0100
1000
0100
1000
0100
1000
0001
,
0010
0001
0010
0000
0001
1000
1000
0001
,
1000
0001
1000
0100
1000
0001
1000
0001
,
1000
0001
0100
0000
0001
1000
0000
1100
,
0000
0011
0000
1001
0000
0101
0000
0000
,
0001
0100
0010
1000
0100
0000
1000
0100
,
0010
0001
0000
0011
0000
0110
0000
0100
,
1000
0010
0100
0000
0001
0100
0000
1001
,
0000
1100
0000
1001
0000
1001
0000
0000
,
1000
0001
0100
0010
1000
0000
0001
1000
,
0100
1000
0000
1001
0000
1001
0010
0100
,
0010
0100
0010
0000
1000
0010
0000
1010
,
0000
1001
0000
1100
0000
1001
0000
0000
,
1000
0100
0010
0001
0010
0000
0100
1000
,
0001
0100
0000
0010
0000
1000
0010
1001
,
0001
0100
0001
1000
0100
1000
0001
0010
,
0000
0011
0000
1001
0000
1000
0100
0010
,
0001
0010
0100
1000
0010
0100
0001
0010
,
0100
1000
0100
0010
0001
0100
0010
2000
,
0002
0000
0000
0000
0000
3003
0000
0000
;

//---------------dance-single - Renard----------------
#NOTES:
     dance-single:
     Renard:
     Medium:
     6:
     0.320,0.438,0.105,0.000,0.000:
0000
0000
0000
0000
,
0000
0000
0000
0000
,
0000
0000
0000
0000
,
0000
0000
0000
0000
,
1001
0000
0000
0000
,
0000
0000
0000
0000
,
0110
0000
0000
0000
,
0000
0000
0000
0000
,
1001
0000
0000
0000
,
0110
0000
0000
0000
,
1001
0000
0110
0000
,
1001
0110
1001
0000
,
1000
0000
0100
1000
0000
0000
0000
0000
,
0001
0000
0001
0000
,
0010
0000
0001
1000
0000
0000
0000
0000
,
0010
0000
0100
0000
,
0001
0000
1000
0100
0000
0000
0000
0000
,
1000
0000
0001
0000
,
0010
0000
0100
1000
0000
0000
0000
0000
,
0001
0000
0100
0000
,
0010
0000
1000
0010
0000
0000
0000
0000
,
0100
0000
0001
0000
,
0010
0000
0100
1000
,
0001
0000
0100
0000
,
0001
0000
1000
0100
0000
0000
0000
0000
,
1000
0000
0001
0000
,
0010
0000
0001
1000
0000
0000
0000
0000
,
0001
0000
0010
0000
,
0100
1000
0100
0000
,
1000
0000
0001
0000
,
0100
0001
0100
0000
,
0001
0000
0010
0000
,
0100
1000
0100
0000
,
1000
0000
0010
0000
,
0100
0001
0100
0000
,
0001
0010
0001
0000
,
1000
1000
0100
0100
,
0010
0010
0001
0001
,
1000
1000
0010
0010
,
0100
0100
0001
0001
,
1000
0100
0010
0001
,
0010
0000
0100
0000
1000
0001
1000
0000
,
0001
0010
0100
1000
,
0001
0000
1000
0001
1000
0000
0000
0000
,
0001
0000
0001
0000
,
0100
0010
1000
0000
,
0100
0000
0010
0000
,
0001
1000
0010
0100
,
0001
0000
0000
1000
0000
0000
0001
0000
,
0000
0000
1000
1000
1000
0000
0001
1000
,
0001
0000
0000
1000
0001
0000
0100
0000
,
0000
0100
0000
0100
,
0000
0100
0010
1000
,
0000
0100
0000
1000
,
0000
0001
0010
0001
,
0000
0001
1000
0001
,
0000
0100
0010
0100
,
0000
0001
0000
1000
,
0100
0000
1000
0000
0001
0000
0000
1000
,
0000
0000
0001
0000
0000
1000
0000
0001
,
0000
1000
0001
0000
0100
0001
0000
1000
,
0000
0100
0000
0010
0000
0001
0000
0000
,
0000
0010
0000
0100
,
0000
1000
0000
0001
0000
0100
0000
0000
,
0000
0000
0010
0000
0100
0001
0000
0100
,
0000
0010
0000
1000
0000
0100
0000
0000
,
0000
0010
0000
0001
,
0000
1000
0000
0010
0000
0100
0000
0000
,
0000
0000
0001
0000
0100
0001
0000
1000
,
0000
0100
0000
1000
0000
0001
0000
0000
,
0000
0100
0000
0010
,
0000
1000
0000
0001
0000
0100
0000
0001
,
1000
0000
0100
0010
0000
0001
0000
0010
,
0000
0100
0000
1000
0000
0000
0001
0000
,
0100
0000
0000
0000
0001
0000
0000
1000
,
0000
0100
0000
0010
0000
0000
0001
0000
,
0110
0000
0000
0000
;

//---------------dance-single - Renard----------------
#NOTES:
     dance-single:
     Renard:
     Easy:
     3:
     0.340,0.398,0.031,0.000,0.000: // measure 1
0000
0000
0000
0000
,  // measure 2
0000
0000
0000
0000
,  // measure 3
0000
0000
0000
0000
,  // measure 4
0000
0000
0000
0000
,  // measure 5
1000
0000
0000
0000
,  // measure 6
0000
0000
0000
0000
,  // measure 7
0001
0000
0000
0000
,  // measure 8
0000
0000
0000
0000
,  // measure 9
0100
0000
0000
0000
,  // measure 10
0010
0000
0000
0000
,  // measure 11
1000
0000
0010
0000
,  // measure 12
0100
0001
1000
0000
,  // measure 13
0100
0000
0010
0000
,  // measure 14
0001
1000
0010
0100
,  // measure 15
0001
0000
1000
0000
,  // measure 16
0100
0010
0001
1000
,  // measure 17
0010
0000
0100
0000
,  // measure 18
0001
1000
0100
0010
,  // measure 19
0001
0000
1000
0000
,  // measure 20
0001
0100
0010
0010
,  // measure 21
1000
0000
0100
0000
,  // measure 22
1000
0001
0010
0100
,  // measure 23
1000
0000
0001
0000
,  // measure 24
0100
0010
1000
0001
,  // measure 25
0100
0000
0001
0000
,  // measure 26
1000
0100
0010
0001
,  // measure 27
1000
0000
0001
0000
,  // measure 28
0100
0010
1000
0001
,  // measure 29
0100
0001
0100
0001
,  // measure 30
0100
0010
0100
0010
,  // measure 31
1000
0010
1000
0010
,  // measure 32
1000
0100
1000
0100
,  // measure 33
0010
0100
0010
0100
,  // measure 34
0010
0001
0010
0001
,  // measure 35
0100
0001
0100
0001
,  // measure 36
0100
0010
1000
1001
,  // measure 37
1000
0100
0010
0001
,  // measure 38
0001
0010
0100
1000
,  // measure 39
1000
0010
0100
0001
,  // measure 40
0001
0100
0010
0000
,  // measure 41
1000
0010
0100
0001
,  // measure 42
0100
0001
0100
0001
,  // measure 43
1000
0010
1000
0010
,  // measure 44
1000
0001
0100
0000
,  // measure 45
0001
0000
0001
0000
,  // measure 46
1000
0000
0010
0100
,  // measure 47
0001
0000
1000
0000
,  // measure 48
0001
0100
0001
1000
,  // measure 49
0100
0000
0000
0001
,  // measure 50
0000
1000
0010
0100
,  // measure 51
0001
1000
0100
0010
,  // measure 52
0000
0010
0000
0010
,  // measure 53
0000
0010
0001
1000
,  // measure 54
0000
1000
0000
1000
,  // measure 55
0000
0010
0100
0001
,  // measure 56
0000
0001
0010
0100
,  // measure 57
0000
0100
1000
0010
,  // measure 58
0000
0100
0000
0001
,  // measure 59
0000
0000
1000
0000
0001
0000
0000
0100
,  // measure 60
0000
0000
0010
0000
0000
1000
0000
0010
,  // measure 61
0000
1000
0010
0000
0100
0000
0001
0000
,  // measure 62
0100
0010
1000
0010
,  // measure 63
1000
0100
1000
0100
,  // measure 64
0010
0001
0010
0100
,  // measure 65
0000
1000
0010
0100
,  // measure 66
0001
0100
0010
1000
,  // measure 67
0000
0001
0010
0100
,  // measure 68
1000
0001
0100
0001
,  // measure 69
1000
0100
0000
1000
,  // measure 70
0100
0010
0001
1000
,  // measure 71
0001
0010
0000
0100
,  // measure 72
1000
0001
0100
1010
,  // measure 73
0100
0010
0001
0010
,  // measure 74
0100
1000
0010
0100
,  // measure 75
0001
0010
0100
1000
,  // measure 76
0010
0100
0001
0010
,  // measure 77
1001
0000
0000
0000
;
