#TITLE:Light Emitting Diode G;
#SUBTITLE:;
#ARTIST:Neko;
#TITLETRANSLIT:;
#SUBTITLETRANSLIT:;
#ARTISTTRANSLIT:;
#CREDIT:;
#BANNER:led.png;
#BACKGROUND:led-bg.png;
#LYRICSPATH:;
#CDTITLE:;
#MUSIC:led.ogg;
#OFFSET:0.000;
#SAMPLESTART:12.138;
#SAMPLELENGTH:12.000;
#SELECTABLE:YES;
#BPMS:0.000=158.178;
#STOPS:;
#BGCHANGES:;

//---------------dance-single - Renard----------------
#NOTES:
     dance-single:
     Renard:
     Challenge:
     11:
     0.980,1.000,0.340,0.000,1.000:
0000
0000
0000
0000
,
0000
0000
0000
0000
,
0000
0000
0000
0000
,
0000
0000
0000
0000
,
1001
0000
0001
0100
0001
0000
0100
0000
0010
0000
1000
0100
0000
1000
0001
0000
,
0010
0000
0100
1000
0001
0000
1000
0000
0010
0000
1000
0000
1001
0000
0000
0000
,
1001
0000
0001
0100
0010
0000
1000
0000
1010
0000
1000
0100
0010
0000
0001
0000
,
0011
0010
0110
0100
1100
0000
1001
0000
,
1000
0100
1000
0000
0100
0000
1000
0001
1000
0000
0001
0000
1000
0001
1000
0000
,
0001
0000
0100
0001
0100
0000
0001
0000
0010
0001
0010
0000
0001
0000
0010
0100
,
0010
0000
0100
0000
1000
0100
1000
0000
0100
0000
1000
0010
1000
0000
0010
0000
,
0100
0001
0000
0010
0100
0000
1000
0000
0001
1000
0000
0010
1000
0000
0001
0000
,
0100
0001
0100
0000
0001
0000
0100
0010
0100
0000
0010
0000
1000
0010
1000
0000
,
0010
0000
1000
0100
1000
0000
0100
0000
0010
0100
0010
0000
0100
0000
0010
0001
,
0010
0000
0001
0000
0010
0100
0010
0000
0100
0000
1000
0000
0100
1000
0100
0000
,
1000
0000
0010
0000
0100
0000
0001
0100
0010
0000
1000
0100
0010
0000
0001
0000
,
0010
0100
0010
0000
0100
0000
1000
0100
1000
0000
0100
0000
0010
0001
0010
0000
,
0001
0000
0010
0100
0010
0000
0100
0000
1000
0100
1000
0000
0100
0000
1000
0010
,
1000
0000
0010
0000
0100
0001
0100
0000
0001
0000
0010
0100
1000
0000
0001
0000
,
1000
0000
0010
0000
0100
0000
0001
0100
0001
0000
1000
0010
1000
0000
0010
0000
,
1000
0100
1000
0000
0100
0000
0010
0100
0010
0000
0100
0000
0010
0001
0010
0000
,
0001
0000
0010
0100
0010
0000
0100
0000
1000
0100
1000
0000
0100
0000
1000
0010
,
1000
0000
0010
0000
0100
0000
0001
0010
0001
0000
0010
0000
0100
0000
1000
0000
,
0010
0100
0001
1000
0010
0100
0000
0010
0000
1000
0000
0001
1000
0000
0000
0000
,
0001
0000
0100
0001
1000
0000
0100
1000
0001
0000
1000
0010
1000
0000
0001
1000
,
0100
0000
1000
0001
1000
0000
0010
1000
0001
0000
1000
0100
1000
0000
0001
1000
,
0010
1000
0100
0010
0001
0000
0010
0000
0000
0000
0100
0000
1000
0000
0000
0000
,
1010
0000
0101
0000
1000
0100
1100
0000
,
0001
0100
0001
0010
0001
0000
1000
0001
0100
0001
0010
0000
0001
1000
0001
0010
,
0001
0000
0100
0001
1000
0001
0010
0000
0001
0100
0001
1000
0010
0000
1000
0000
,
0100
0010
0001
0010
0100
0000
1000
0000
0001
0000
0000
0000
1010
0000
0000
0000
,
0101
0000
0011
0000
0010
0100
1100
0000
,
0100
1000
0010
1000
0001
0000
1000
0000
0100
0000
0010
0000
0001
0000
0010
0000
,
0001
0010
0001
0100
0001
0000
1000
0000
0010
0000
0100
0000
0010
0000
1000
0000
,
0100
0010
0001
0010
0100
0000
0110
0000
0000
0000
0100
1000
0010
0000
1000
0000
,
0001
0000
0100
0010
1000
0000
0100
0010
0001
0000
0010
0000
0100
0000
1000
0000
,
0001
0100
0001
0100
0001
0000
0100
0010
0100
0010
0100
0000
0010
1000
0010
1000
,
0010
0000
1000
0000
0100
0000
0010
0000
0001
0010
0100
1000
0001
0000
1000
0000
,
0010
1000
0001
1000
0100
0000
1000
0000
0010
0000
1000
0000
0001
0000
1000
0000
,
1100
0000
0000
0000
1010
0000
0000
0010
1000
0000
0001
0000
1001
0000
0000
0000
,
0001
0000
0000
0001
0100
0000
0010
0000
1000
0000
0000
1000
0100
0000
0010
0000
,
0001
0000
0000
0001
0010
0000
0100
0000
1000
0000
0000
1000
0010
0000
0100
0000
,
0001
0000
0000
0001
0010
0000
0100
0000
1000
0000
0000
1000
0100
0000
0010
0000
,
0001
0000
0000
0001
0100
0000
0010
0000
1000
0000
0100
0000
0010
0000
0001
0000
,
1000
0000
0000
1000
0010
0000
0100
0000
0001
0000
0000
0001
0100
0000
0010
0000
,
0110
0000
0000
0010
1000
0000
0100
0000
1000
0000
0001
0000
0010
0000
0100
0000
,
0110
0000
0000
0100
1000
0000
0010
0000
1010
0000
0000
0010
0100
0000
0001
0000
,
0101
0100
0110
0010
1010
0000
1001
0000
,
0001
0010
0100
1000
0100
0010
0001
0100
0010
1000
0100
0010
0001
0100
0010
1000
,
0100
0010
0001
0010
0100
1000
0001
0100
0010
1000
0100
1000
0001
0010
0100
1000
,
0001
0100
0010
1000
0100
0010
0001
0010
0100
1000
0001
0100
0010
1000
0100
0010
,
0100
1000
0001
0010
0100
0010
0001
0100
0010
1000
0100
0010
0001
0010
0100
1000
,
0001
0100
0010
1000
0100
1000
0001
0010
0100
0010
0001
0100
0010
1000
0100
0010
,
0001
1000
0100
1000
0001
0010
0001
0100
0010
1000
0001
1000
0100
0010
0001
0010
,
0100
1000
0001
0100
0001
0100
0010
1000
0010
1000
0100
0010
0001
0010
0100
0000
,
1100
0110
0011
1001
,
0001
0100
0010
1000
0100
1000
0001
0010
0001
1000
0010
1000
0001
0100
0001
0100
,
0010
1000
0100
0010
0001
0010
0100
1000
0001
0100
0010
1000
0100
0010
0001
0100
,
0010
1000
0100
0010
0001
0100
0010
1000
0100
1000
0001
0010
0001
1000
0100
1000
,
0001
0100
0010
1000
0001
0010
0100
0010
0001
0010
0100
1000
0001
0100
0010
1000
,
0001
0100
0001
0100
0010
1000
0100
0010
0001
0010
0100
1000
0001
0100
0010
1000
,
0010
1000
0010
1000
0100
0010
0001
0010
0100
1000
0001
0100
0010
1000
0100
1000
,
0001
1000
0001
0000
1100
0000
0001
0010
0001
0010
0001
0000
1100
0000
0001
0000
,
1010
0000
0001
0000
0110
0000
0001
0000
1000
0100
0010
0001
0100
0010
1000
0100
;

//---------------dance-single - Renard----------------
#NOTES:
     dance-single:
     Renard:
     Hard:
     9:
     0.785,0.734,0.160,0.000,0.489:
0000
0000
0000
0000
,
0000
0000
0000
0000
,
0000
0000
0000
0000
,
0000
0000
0000
0000
,
0001
0000
1000
0000
0100
0000
1000
0000
0001
0000
0100
0001
0000
0100
0001
0000
,
1000
0000
0100
0000
0010
0000
0001
0000
1000
0100
0000
1000
0000
0100
1000
0000
,
0010
0000
0100
0000
0001
0000
0010
0000
0001
1000
0000
0001
0000
0100
0001
0000
,
0100
0010
1000
0100
0010
0000
1001
0000
,
1000
0000
0001
0000
0100
0001
0000
0100
0001
0000
1000
0000
0010
0000
1000
0000
,
0100
0000
0010
0000
0001
0010
0000
0001
0010
0000
0100
0000
1000
0000
0001
0000
,
0100
0000
0010
0000
1000
0100
0000
1000
0100
0000
1000
0000
0010
0000
0100
0000
,
0001
0100
0001
0000
0100
0000
0010
0000
1000
0010
1000
0000
0010
0000
1000
0000
,
0100
0000
0010
0000
0001
0000
1000
0000
0100
0000
1000
0001
0000
1000
0001
0000
,
1000
0000
0001
0000
0100
0000
0010
0000
1000
0000
0001
1000
0000
0001
1000
0000
,
0001
0000
0100
0000
0010
0000
1000
0000
0001
0000
1000
0001
1000
0000
0001
0000
,
1000
0000
0100
0000
0010
0000
0001
0010
0001
0000
0010
0000
0001
0000
0010
0000
,
0100
0000
1000
0000
0001
0000
0100
0000
0010
0000
1000
0010
1000
0000
0010
0000
,
1000
0000
0100
0000
0010
0000
0001
0000
1000
0000
0001
0100
0001
0000
0100
0000
,
0001
0000
0100
0000
0010
0000
1000
0000
0100
0000
0010
0001
0010
0000
0100
0000
,
1000
0100
1000
0000
0100
0000
1000
0000
0001
1000
0001
0000
1000
0000
0001
0000
,
1000
0000
0010
1000
0010
0000
1000
0000
0001
0000
0100
0001
0100
0000
0001
0000
,
0010
0000
0001
0010
0001
0000
0010
0000
0100
0000
1000
0100
1000
0000
0100
0000
,
1000
0001
0100
0010
1000
0100
0010
0001
,
0010
0000
0100
0000
1000
0001
0000
0100
0000
0010
0000
1000
0010
0000
0000
0000
,
1000
0010
1000
0010
0100
0010
0100
0010
,
0100
0001
0100
0001
0010
0001
0010
0001
,
0010
0100
0010
0100
1000
0100
1000
0100
,
1000
0000
0001
0100
0001
0000
0100
0001
0100
0000
0001
0100
0001
0000
0100
0000
,
0001
0100
0010
1000
0100
0010
0001
0010
,
0100
1000
0001
0100
0010
1000
0100
0010
,
0001
0010
0100
1000
0001
0100
0010
1000
,
0100
0000
1000
0100
1000
0000
0100
1000
0100
0000
1000
0100
1000
0000
0100
0000
,
1000
0010
0100
0001
1000
0100
0010
0100
,
1000
0001
0010
0100
0010
0001
0100
0010
,
1000
0100
1000
0001
0010
0001
1000
0010
,
0100
0000
0001
0100
0001
0000
0100
0010
0100
0000
0010
0100
0010
0000
0100
0000
,
0010
1000
0100
0010
0001
0010
0100
1000
,
0010
0100
0001
1000
0100
0010
0001
1000
,
0001
0100
0010
1000
0100
0010
0001
0010
,
0011
0000
0000
0000
0110
0000
0000
0100
1000
0000
0010
0000
1010
0000
0000
0000
,
1000
0010
1000
0010
1000
0010
1000
0010
,
1000
0001
1000
0001
1000
0100
1000
0100
,
1000
0001
0010
0001
0010
0001
0010
0001
,
0100
0001
0100
0001
0100
0001
0100
0010
,
1010
0010
1000
0100
1000
0100
1000
0100
,
1100
0100
0010
0011
0010
0001
0011
0001
,
0101
0001
0100
0010
1010
1000
0100
1000
,
1100
0011
1001
0110
,
0010
1000
0010
0000
0100
0000
0001
0100
0000
0001
0100
0000
0001
0000
0100
0000
,
0010
1000
0010
0000
1000
0100
0000
1000
0100
0000
1000
0100
0000
1000
0100
0000
,
0010
0001
0010
0000
0100
1000
0000
0100
1000
0000
0100
1000
0000
0100
1000
0000
,
0001
0010
0001
0000
0010
0000
0001
0000
0010
0000
0100
0000
1000
0000
0001
0000
,
0100
0001
0100
0000
0001
0100
0000
0001
0100
0000
0001
0000
0100
0000
0010
0000
,
1000
0100
1000
0000
0100
1000
0000
0100
1000
0000
0100
0000
1000
0000
0010
0000
,
0100
0001
0100
0000
0001
1000
0000
0001
1000
0000
0001
0000
1000
0000
0100
0000
,
0010
0000
0001
0000
0010
0000
0100
0000
1000
0000
0001
1000
0001
0000
1000
0000
,
0001
0100
0001
0000
0100
0010
0000
0100
0010
0000
0100
0010
0000
0100
0010
0000
,
1000
0010
1000
0000
0010
1000
0000
0010
1000
0000
0010
1000
0000
0010
1000
0000
,
0100
1000
0100
0000
1000
0100
0000
1000
0100
0000
1000
0100
0000
1000
0100
0000
,
0010
0001
1000
0001
0100
0010
1000
0100
,
0010
0001
0010
0000
0001
0010
0000
0001
0010
0000
0001
0010
0000
0001
0010
0000
,
0100
1000
0100
0000
1000
0100
0000
1000
0100
0000
1000
0100
0000
1000
0100
0000
,
1000
0000
0010
1000
0010
0000
1000
0000
0001
0000
0100
0001
0100
0000
0001
0000
,
0100
0000
0000
0000
0101
0000
0000
0000
1010
0000
0000
0000
0001
0100
0001
0100
;

//---------------dance-single - Renard----------------
#NOTES:
     dance-single:
     Renard:
     Medium:
     7:
     0.519,0.542,0.230,0.000,0.000:
0000
0000
0000
0000
,
0000
0000
0000
0000
,
0000
0000
0000
0000
,
0000
0000
0000
0000
,
1001
0000
0000
0000
,
1010
0000
0000
0101
0000
0000
0011
0000
,
1100
0000
1010
0000
,
1001
0110
1001
0110
,
1001
0000
1000
0100
0010
0001
0010
0000
,
0100
1000
0100
0010
0001
0000
0010
0100
,
1000
0100
0010
0000
0001
0010
0100
1000
,
0100
0000
0010
0001
0010
0100
1000
0000
,
0001
0100
0010
1000
0010
0000
0100
0001
,
0100
0010
1000
0000
0010
0100
0001
0100
,
0010
0000
1000
0010
0100
0001
0100
0000
,
0010
0000
1000
0000
0001
1000
0100
0000
,
1000
0000
1000
0001
0000
0001
0100
0000
,
0100
0010
0000
0010
1000
0000
1000
0100
,
0000
0100
0010
0000
0010
0001
0000
0001
,
0010
0100
1000
0010
,
0100
0000
0100
0001
0000
0001
1000
0000
,
1000
0010
0000
0010
1000
0000
1000
0100
,
0000
0100
0010
0000
0010
0001
0000
0001
,
1000
0001
1000
0000
0001
0000
0110
0000
,
0010
0010
1000
1000
,
0001
0001
0100
0100
,
0001
1000
0001
1000
0001
0000
0001
0000
,
1000
1000
0001
0001
,
1000
0100
0010
0001
,
0010
0100
1000
0010
,
1000
0001
1000
0001
0100
0000
0100
0000
,
0001
1000
0100
1000
0001
1000
0100
0000
,
0100
1000
0010
0000
0010
0000
0010
0000
,
0100
0001
0010
0000
0010
0000
0010
0000
,
0001
0100
0010
1000
0000
0000
0010
0000
,
1000
1000
0100
0100
,
1000
0010
1000
0000
1000
0000
1000
0000
,
0001
0100
0001
0000
0001
0000
0001
0000
,
1000
0010
1000
0000
0100
1000
0100
0000
,
0011
1100
1001
0110
,
0010
0000
0010
1000
0100
0000
0100
1000
,
0001
0000
0001
0010
0100
0000
0100
1000
,
0010
0000
0010
0100
0001
0000
0001
1000
,
0100
0100
0100
0000
,
1000
0000
1000
0010
0100
0000
0100
0001
,
0010
0000
0010
0100
1000
0000
1000
0000
,
0010
0000
0010
0100
0001
0000
0001
1000
,
0100
0011
1100
1001
,
0001
0100
0001
0100
0010
0100
0010
0100
,
0010
1000
0010
1000
0010
0100
0010
0100
,
0001
0100
0001
0100
0010
0100
0010
0100
,
0010
1000
0010
1000
0010
0100
0010
0100
,
0010
1000
0010
1000
0100
1000
0100
1000
,
0100
0010
0100
0010
0001
0010
0001
0010
,
0100
0010
0100
0010
0100
1000
0100
1000
,
0001
1000
0001
1000
0001
0100
0001
0100
,
0010
0100
0010
0100
0010
1000
0010
1000
,
0001
1000
0001
1000
0100
1000
0100
1000
,
0001
0010
0001
0010
0100
1000
0100
1000
,
0010
1000
0010
1000
0001
0100
0001
0100
,
0001
1000
0001
1000
0100
1000
0100
1000
,
0001
0010
0001
0010
0001
1000
0001
1000
,
0001
1001
0000
0110
,
0000
0000
1001
0000
0110
0000
0010
1000
;

//---------------dance-single - Renard----------------
#NOTES:
     dance-single:
     Renard:
     Easy:
     4:
     0.321,0.382,0.180,0.190,0.000: // measure 1
0000
0000
0000
0000
,  // measure 2
0000
0000
0000
0000
,  // measure 3
0000
0000
0000
0000
,  // measure 4
0000
0000
0000
0000
,  // measure 5
0000
1001
0000
1001
,  // measure 6
0000
1001
0000
1001
,  // measure 7
0000
0110
0000
0110
,  // measure 8
0010
1000
0100
1001
,  // measure 9
1000
1000
0100
0100
,  // measure 10
0010
0010
0001
0001
,  // measure 11
1000
0000
0100
0000
,  // measure 12
0010
0000
0001
0000
,  // measure 13
1000
1000
0010
0010
,  // measure 14
0100
0100
0001
0001
,  // measure 15
1000
0000
0010
0000
,  // measure 16
0100
0000
0001
0000
,  // measure 17
1000
0100
1000
0100
,  // measure 18
0010
0100
0010
0100
,  // measure 19
0001
0100
0001
0100
,  // measure 20
0010
0100
0010
0100
,  // measure 21
1000
0100
1000
0010
,  // measure 22
0100
0010
0100
0010
,  // measure 23
0001
0010
0001
0010
,  // measure 24
0100
0000
0000
1001
,  // measure 25
0201
0000
0010
0000
,  // measure 26
1000
0000
0010
0000
,  // measure 27
0001
0001
0301
0000
,  // measure 28
0001
1000
0100
0010
,  // measure 29
0120
0000
0001
0000
,  // measure 30
0100
0000
0001
0000
,  // measure 31
0001
0000
0031
0000
,  // measure 32
0001
0010
0100
0100
,  // measure 33
2100
0000
0010
0000
,  // measure 34
0001
0000
0100
0000
,  // measure 35
0010
0010
3010
0000
,  // measure 36
0010
1000
0001
0000
,  // measure 37
0102
0000
0010
0000
,  // measure 38
1000
0000
0100
0000
,  // measure 39
1000
1000
1003
0000
,  // measure 40
1001
1001
1001
1001
,  // measure 41
2000
0000
0000
0000
,  // measure 42
3002
0000
0203
0000
,  // measure 43
0320
0000
0000
0000
,  // measure 44
2030
0000
3200
0000
,  // measure 45
0320
0000
0032
0000
,  // measure 46
0203
0000
0000
0320
0000
0000
2030
0000
,  // measure 47
3200
0000
0320
0000
,  // measure 48
0032
0000
2000
0003
3001
0000
1001
0000
,  // measure 49
0001
0001
1000
1000
,  // measure 50
0001
0001
1000
1000
,  // measure 51
0010
0010
0100
0100
,  // measure 52
0010
0010
0100
0100
,  // measure 53
0001
0001
0100
0100
,  // measure 54
0010
0010
1000
1000
,  // measure 55
0001
0001
1000
1000
,  // measure 56
0100
1000
0010
0000
,  // measure 57
1000
0001
1000
0001
,  // measure 58
1000
0000
0001
0000
1000
0001
1000
0001
,  // measure 59
1000
0001
1000
0001
,  // measure 60
1000
1000
0001
0000
,  // measure 61
0100
0100
0010
0010
,  // measure 62
0100
0010
0100
0010
,  // measure 63
0100
0010
0100
0000
0010
0100
0010
0000
,  // measure 64
1000
0001
0000
1001
;
