#TITLE:Lift Me Up;
#SUBTITLE:;
#ARTIST:Moby;
#TITLETRANSLIT:;
#SUBTITLETRANSLIT:;
#ARTISTTRANSLIT:;
#CREDIT:;
#BANNER:lift.png;
#BACKGROUND:lift-bg.png;
#LYRICSPATH:;
#CDTITLE:;
#MUSIC:lift.ogg;
#OFFSET:0.000;
#SAMPLESTART:35.710;
#SAMPLELENGTH:12.000;
#SELECTABLE:YES;
#BPMS:0.000=120.975;
#STOPS:;
#BGCHANGES:;

//---------------dance-single - Renard----------------
#NOTES:
     dance-single:
     Renard:
     Hard:
     7:
     0.414,0.441,0.213,0.039,0.194:
0000
0000
0000
0000
,
0000
0000
0000
0000
,
0001
0100
0010
1000
0100
1000
0001
0010
,
0001
0100
0010
0010
1000
0100
0010
0010
,
0001
0010
0100
1000
0001
0100
0001
1000
,
0100
0010
0001
0001
0010
0100
1000
1000
,
0001
0000
0100
0010
1000
0000
0100
0010
,
0001
0000
0000
0000
1000
0000
0001
0000
0100
0000
0000
0100
0000
0000
0100
0000
,
0010
0000
1000
0000
0010
0000
0000
0000
0100
0000
0000
0100
0000
0000
0100
0000
,
0001
0000
0010
0000
0100
0000
0000
0000
1000
0000
0000
1000
0000
0000
1000
0000
,
0010
0000
0100
0000
0001
0000
0000
0000
0010
0000
0000
0010
0000
0000
0010
0000
,
0001
0000
0010
0000
0100
0000
0000
0000
1000
0000
0000
0001
0000
0000
1000
0000
,
0010
0000
0100
0000
0001
0000
0000
0000
0100
0000
0000
0001
0000
0000
1000
0000
,
0100
0010
0001
0000
0010
0000
0100
0000
,
1000
0000
0001
0000
0100
0000
0000
0000
0010
0000
0000
1000
0000
0000
0010
0000
,
0100
0000
0001
0000
0010
0000
0000
0000
0100
0000
0000
1000
0000
0000
0001
0000
,
0100
0000
0010
0000
1000
0000
0000
0000
0010
0000
0000
0100
0000
0000
0001
0000
,
0100
0000
0010
0000
1000
0010
0000
0000
0100
0000
0000
0001
0000
1000
0001
0000
,
0100
0010
1000
0100
0010
0001
0010
0100
,
1000
0000
0010
0000
0100
0000
0001
0000
0100
0000
0000
0000
,
0001
1000
0010
0100
0001
0100
0010
0000
,
1000
0000
0001
0000
0100
0000
0010
0000
1000
0000
0000
0000
,
1010
1000
0010
0000
0101
0100
0010
0000
,
1000
0000
0010
0000
0100
0000
0001
0000
0010
0000
0000
0000
,
0010
0100
1000
0000
1001
1000
0010
0000
,
1000
0000
0001
0000
0010
0000
0100
0000
1000
0000
0000
0000
,
0001
0100
0010
0000
0010
1000
0100
0000
,
0010
0001
1000
0000
0001
0000
0001
1000
,
0010
0000
0010
0100
0001
0000
0001
1000
,
0100
0000
0100
0000
1000
0100
0001
0100
,
1000
0000
1000
0000
1000
0010
0001
0010
,
1000
0000
1000
0000
0001
0010
1000
0010
,
0001
0000
0001
0000
0001
0100
1000
0100
,
0001
0000
1000
0000
0001
1000
0001
0000
,
1000
0000
0001
0000
0100
0000
0000
0000
0010
0000
0000
1000
0000
0000
0010
0000
,
0100
0000
0001
0000
0010
0000
0000
0000
0100
0000
0000
1000
0000
0000
0001
0000
,
0100
0000
0010
0000
1000
0000
0000
0000
0010
0000
0000
0100
0000
0000
0001
0000
,
1000
0000
0100
0000
0010
0000
0001
0000
0010
0000
0100
0000
1000
0001
1000
0000
,
1001
1000
1010
0000
1001
1000
1010
0000
,
1000
0000
0001
0000
0010
0000
0100
0000
1000
0000
0000
0000
,
1001
0001
0101
0000
1001
0001
0101
0000
,
1000
0000
0010
0000
0100
0000
0001
0000
1000
0000
0000
0000
,
1001
1000
1100
0000
1001
1000
1100
0000
,
1000
0000
0001
0000
0010
0000
0100
0000
1000
0000
0000
0000
,
1001
0001
0011
0000
1001
0001
0011
0000
,
1001
0000
0001
0000
1000
0000
0110
0000
0100
0000
0000
0000
,
2002
0000
0000
3000
,
0200
0000
0000
0003
0020
0000
0000
0330
;

//---------------dance-single - Renard----------------
#NOTES:
     dance-single:
     Renard:
     Challenge:
     9:
     0.624,0.581,0.077,0.029,0.615:
0000
0000
0000
0000
,
0000
0000
0000
0000
,
0001
0100
0001
0000
0100
0000
0001
0000
0100
0000
0001
0000
0100
0000
0001
0000
,
1000
0010
1000
0000
0010
0000
1000
0000
0100
1000
0100
0000
1000
0000
0100
0000
,
0010
0001
0010
0000
0100
0000
0010
0000
0100
0000
1000
0000
0100
0000
1000
0000
,
0001
1000
0001
1000
0001
0000
1000
0000
0010
1000
0010
1000
0010
0000
1000
0000
,
0001
0000
0000
0001
0100
0000
0010
0000
1000
0000
0000
1000
0100
0000
0010
0000
,
0001
0000
0000
0001
1000
0000
0001
0000
0100
0000
0000
0010
0000
0000
1000
0000
,
0010
0000
0000
0010
0100
0000
0001
0000
1000
0000
0000
1000
0000
0000
1000
0000
,
0001
0000
0010
0000
0100
0000
0000
0000
1000
0000
0000
0001
0000
0000
0010
0000
,
0100
0000
1000
0000
0001
0000
0100
0010
1000
0000
0000
0001
0000
0000
0100
0000
,
0010
0000
1000
0000
0001
0000
0010
0100
1000
0000
0000
0001
0000
0000
0100
0000
,
0010
0000
1000
0000
0001
0000
1000
0100
0010
0000
0000
0001
0000
0000
0010
0000
,
0100
0000
1000
0000
0001
0000
0100
0010
1000
0000
0000
0010
0000
0000
0100
0000
,
0001
0000
0100
0010
1000
0000
0010
0000
0100
0000
0100
0001
0000
0001
1000
0000
,
0100
0000
0010
0001
0010
0000
0100
0000
1000
0000
1000
0001
0000
0001
0100
0000
,
0010
0000
1000
0010
0100
0000
0001
0000
0100
0000
0100
0010
0000
0010
1000
0000
,
0001
0000
0010
0000
0100
1000
0000
0000
0001
0000
0000
0100
0000
0010
1000
0010
,
1000
0010
0100
0000
0101
0000
0000
0000
0010
1000
0100
0000
1100
0000
0000
0000
,
0100
0000
0100
0010
0000
0010
0001
0000
1000
0000
0001
0100
0010
0000
1000
0000
,
0100
0010
0001
0000
0011
0000
0010
0000
0100
1000
0001
0000
1001
0000
1000
0000
,
0010
0000
0010
1000
0000
1000
0001
0000
0100
0000
0100
0010
0000
0010
1000
0000
,
0100
0010
0001
0000
0011
0000
0010
0000
0100
1000
0001
0000
1001
0000
1000
0000
,
0010
0000
0010
1000
0000
1000
0001
0000
0100
0000
0100
0010
0000
0010
1000
0000
,
0100
0010
0001
0000
0011
0000
0010
0000
0100
1000
0001
0000
1001
0000
1000
0000
,
0010
0000
0010
0100
0000
0100
0001
0000
0100
0000
0010
0000
1000
0010
1000
0000
,
0001
0000
0001
0100
0010
0000
0010
1000
0100
0000
0100
0010
0001
0000
0001
1000
,
0001
0000
0001
0100
0010
0000
0010
1000
0100
0000
0100
1000
0001
0000
0001
0010
,
0100
0000
0100
1000
0001
0000
0001
0100
0010
0000
0010
1000
0100
0000
0100
0010
,
0001
0000
0001
0010
0100
0000
1000
0000
0001
0000
1000
0000
0001
0000
1000
0000
,
0001
0000
0001
0100
0010
0000
0010
1000
0100
0000
0100
0010
0001
0000
0001
0010
,
0100
0000
0100
1000
0010
0000
0010
0100
0001
0000
0001
1000
0100
0000
0100
0010
,
0001
0000
0001
0010
0100
0000
0100
1000
0001
0000
0001
0010
0100
0000
0100
1000
,
0001
0000
0001
0100
0010
0000
0010
1000
0010
0000
0010
0100
0001
0000
0001
0000
,
0100
0000
0010
0000
1000
0000
0010
0000
0100
0000
0100
0001
0000
0001
0100
0000
,
0010
0000
1000
0000
0100
0000
0010
0000
0001
0000
0001
0010
0000
0010
0100
0000
,
1000
0000
0001
0000
1000
0000
0010
0000
0100
0000
0100
0001
0000
0001
0100
0000
,
0010
0000
1000
0000
0010
0000
1000
0000
0001
0100
0001
0100
0001
0100
0001
0100
,
0001
0100
0010
1000
0010
0000
1000
0000
0100
0010
0001
0010
0100
0000
0010
0000
,
0100
0000
0100
1000
0000
1000
0001
0000
0100
0000
0100
0010
0000
0010
1000
0000
,
0010
0100
0001
0100
0010
0000
1000
0000
0100
0010
0001
0010
0100
0000
1000
0000
,
0001
0000
0001
0100
0000
0100
0010
0000
1000
0000
1000
0010
0000
0010
0100
0000
,
0001
0100
0010
1000
0100
0000
0010
0000
0001
0010
0100
1000
0001
0000
0100
0000
,
0010
0000
0010
1000
0000
1000
0001
0000
1000
0000
0100
0000
0010
0000
0001
0010
,
0100
1000
0001
0100
0010
0000
1000
0000
0010
0100
0001
0100
0010
0000
1000
0000
,
0100
0000
0100
0010
0000
0010
0001
0000
1000
0001
1000
0001
1000
0000
0010
0000
,
0200
0000
0000
0000
,
0002
0000
0020
0000
,
0333
0000
0000
0000
;

//---------------dance-single - Renard----------------
#NOTES:
     dance-single:
     Renard:
     Medium:
     5:
     0.263,0.302,0.000,0.039,0.000:
0000
0000
0000
0000
,
0000
0000
0000
0000
,
0000
0000
0000
0000
,
0000
0000
0000
0000
,
1000
1000
1000
1000
,
0001
0000
0001
0000
0001
0000
0001
0100
,
0010
0000
0010
0000
1000
0000
0010
0100
,
0010
0000
0100
0000
0001
0000
0010
0001
,
0010
0000
0100
0000
1000
0000
0100
1000
,
0100
0000
1000
0000
0010
0000
0100
0001
,
0100
0000
0001
0000
1000
0000
0100
1000
,
0100
0000
1000
0000
0001
0000
0010
0001
,
0010
0000
0001
0000
1000
0000
0010
1000
,
0010
0100
0001
1000
,
0100
0000
0100
0000
,
0010
0000
0010
0000
,
0001
0001
1000
1000
,
0001
0100
0001
0000
1000
0000
0100
0000
,
1000
0001
1000
0000
0010
0100
0010
0000
,
1000
0000
0100
1000
0001
0000
0001
0000
,
0100
0100
0010
0010
,
1000
0000
0100
1000
0001
0000
0001
0000
,
0010
0100
1000
0100
,
1000
0000
0001
1000
0001
0000
0100
0000
,
0001
0010
0100
1000
,
0001
0000
0100
0001
0100
0000
0010
0000
,
1000
0100
0000
1000
,
0001
0000
0010
0100
,
1000
0000
0100
0000
1000
0000
0001
1000
,
0001
1000
0001
0100
,
0001
0010
0001
1000
,
0100
0000
1000
0000
0001
0000
0010
0001
,
0010
0000
0001
0000
1000
0000
0010
1000
,
0010
1000
0001
0100
,
0001
0000
1000
0000
,
0001
0000
1000
0000
,
0001
0001
1000
1000
,
0010
0100
0010
0100
0010
0100
0010
0100
,
0001
0001
1000
1000
,
0001
0010
0100
1000
,
0001
1000
0010
0100
,
0001
0000
1000
0001
1000
0000
0001
0000
,
0010
0100
1000
0001
,
0010
0000
0100
0010
0100
0000
1000
0000
,
0001
0100
0001
0100
,
0010
1000
0010
1000
,
0200
0000
0320
0000
,
0032
0000
2000
0000
,
3003
0000
0000
0000
;

//---------------dance-single - Renard----------------
#NOTES:
     dance-single:
     Renard:
     Easy:
     2:
     0.209,0.256,0.077,0.136,0.000: // measure 1
0000
0000
0000
0000
,  // measure 2
0000
0000
0000
0000
,  // measure 3
1000
0000
1000
0000
,  // measure 4
0001
0000
0001
0000
,  // measure 5
1000
0000
1000
0000
,  // measure 6
0001
0000
0001
0000
,  // measure 7
0100
0100
0000
0010
,  // measure 8
1000
0000
1000
0100
,  // measure 9
0010
0000
0010
0001
,  // measure 10
0100
0000
0100
0001
,  // measure 11
1000
0000
1000
0100
,  // measure 12
0010
0000
0001
1000
,  // measure 13
0010
0000
0010
0100
,  // measure 14
0001
0000
1000
0000
,  // measure 15
0100
0000
0010
0000
,  // measure 16
0001
0000
1000
0000
,  // measure 17
0010
0100
0010
0100
,  // measure 18
0001
1000
0001
1000
,  // measure 19
0100
1100
1000
1100
,  // measure 20
0200
0000
0320
0000
,  // measure 21
0031
0011
0010
0011
,  // measure 22
0001
0000
1000
0000
,  // measure 23
0020
0130
0020
0130
,  // measure 24
0001
0000
1000
0000
,  // measure 25
0002
0013
0200
1300
,  // measure 26
0001
0000
1000
0000
,  // measure 27
0010
0010
0000
0100
,  // measure 28
0001
0000
0010
0100
,  // measure 29
1000
0000
0001
0100
,  // measure 30
0010
0000
1000
0010
,  // measure 31
0100
0000
0001
0010
,  // measure 32
0100
0000
1000
0010
,  // measure 33
0100
0000
0001
0010
,  // measure 34
0100
0000
1000
0000
,  // measure 35
0010
0000
0100
0000
,  // measure 36
0001
0000
0010
0000
,  // measure 37
0100
0000
1000
0000
,  // measure 38
0001
0001
1000
1000
,  // measure 39
0001
0101
0001
0101
,  // measure 40
0002
0000
2003
0000
,  // measure 41
3100
1100
1000
1100
,  // measure 42
0020
0000
0032
0000
,  // measure 43
1003
0001
1000
0001
,  // measure 44
0200
0000
0320
0000
,  // measure 45
1030
1000
0100
0100
,  // measure 46
0010
0001
0010
0100
,  // measure 47
1000
0000
0000
0000
,  // measure 48
0020
0000
0230
0000
,  // measure 49
0300
0000
0000
0000
;
