#TITLE:Life is a Construct;
#SUBTITLE:;
#ARTIST:Arkitech and Double Decker;
#TITLETRANSLIT:;
#SUBTITLETRANSLIT:;
#ARTISTTRANSLIT:;
#CREDIT:;
#BANNER:construct.png;
#BACKGROUND:construct-bg.png;
#LYRICSPATH:;
#CDTITLE:;
#MUSIC:construct.ogg;
#OFFSET:0.000;
#SAMPLESTART:54.834;
#SAMPLELENGTH:12.000;
#SELECTABLE:YES;
#BPMS:0.000=175.075;
#STOPS:;
#BGCHANGES:;

//---------------dance-single - Renard----------------
#NOTES:
     dance-single:
     Renard:
     Challenge:
     11:
     0.864,1.000,0.243,0.194,0.729:
0000
0000
0000
0000
,
0000
0000
0000
0000
,
0000
0000
0000
0000
,
0000
0000
0000
0000
,
1000
0100
0010
0001
0010
0100
1000
0001
0100
0001
1000
0010
1000
0100
0010
0000
,
0001
0010
0100
1000
0100
0010
0001
1000
0010
1000
0001
0100
0001
1000
0100
0000
,
0010
0001
1000
0001
0010
0100
1000
0001
1000
0100
0010
0001
1000
0001
0010
0100
,
1000
0001
1000
0001
1000
0001
1000
0001
1000
0000
0000
0000
0000
0000
0000
0000
,
0001
0000
0100
0000
0010
1000
0000
0001
0100
0000
0001
1000
0000
0100
0010
0000
,
0001
0000
1000
0000
0001
0100
0000
0010
1000
0000
0001
0100
0000
0001
1000
0000
,
0100
0000
0010
0000
0001
0010
0000
0100
1000
0000
0001
0010
0000
0100
1000
0000
,
0010
0000
0100
0000
0001
0100
0000
0010
1000
0000
0001
1000
0000
0100
0010
0000
,
0100
0000
1000
0000
0001
0100
0000
0010
1000
0000
0001
0100
0000
0010
0100
0000
,
1000
0000
0100
0000
0001
0010
0000
0100
0010
0000
1000
0010
0000
0100
1000
0000
,
0010
0000
0100
0000
0001
0100
0000
0001
1000
0000
0100
1000
0000
0010
1000
0000
,
0001
0000
0010
0000
0100
1000
0000
0001
0100
0000
0001
1000
0000
0100
1000
0000
,
1000
0000
0010
0000
0100
0001
0000
1000
0010
0000
1000
0001
0000
0010
0100
0000
,
1000
0000
0001
0000
1000
0010
0000
0100
0001
0000
1000
0010
0000
1000
0001
0000
,
0010
0000
0100
0000
1000
0100
0000
0010
0001
0000
1000
0100
0000
0010
0001
0000
,
0100
0000
0010
0000
1000
0010
0000
0100
0001
0000
1000
0001
0000
0010
0100
0000
,
0010
0000
0001
0000
1000
0010
0000
0100
0001
0000
1000
0010
0000
0100
0010
0000
,
0001
0000
0010
0000
1000
0100
0000
0010
0100
0000
0001
0100
0000
0010
0001
0000
,
0100
0000
0010
0000
1000
0010
0000
1000
0001
0000
0010
0001
0000
0100
0001
0000
,
1000
2000
0001
3002
0200
0000
0303
0000
,
0001
0000
1000
0001
1000
0000
0100
1000
0000
1000
0100
0000
0010
0000
0001
0000
,
1000
0000
0010
0100
0010
0000
1000
0001
0000
0001
0100
0000
0010
0000
1000
0000
,
0100
0000
0010
0001
0010
0000
0100
1000
0100
1000
0001
0000
0010
0000
0001
0000
,
1000
0000
0001
0100
0001
0000
1000
0100
0000
1000
0001
0000
0100
0000
0010
0000
,
1010
0000
1000
0010
1000
0000
0000
0001
0101
0000
0001
0100
0001
0000
0000
0100
,
0101
0000
0100
0001
0100
0000
0000
0010
0110
0000
0010
1000
0010
0000
0000
1000
,
1010
0000
0000
0101
0000
0000
0011
0000
0100
1000
0100
0000
0010
0000
0010
0000
,
0001
0000
0000
0000
0000
1000
0000
0000
0000
0000
0001
0000
0000
0000
0000
0100
0000
0000
0000
0000
0010
0000
0000
0000
0000
0000
0000
0000
0000
0000
0000
0000
,
1000
0000
0010
0000
0100
0000
0010
0100
0000
0100
0001
0000
0010
0000
0100
0000
,
1000
0000
0100
0000
1100
0000
0000
0100
0000
0010
0001
0000
0011
0000
0000
0000
,
0010
0000
0100
0000
1100
0000
1000
0010
0000
0100
0001
0000
0100
0000
0010
0000
,
1000
0000
0001
0000
0101
0000
0000
0000
0100
0010
1000
0000
1010
0000
0000
0000
,
1000
0000
0100
0000
0110
0000
0000
0010
0000
0001
0010
0000
0100
0000
1000
0000
,
0001
0000
1000
0000
1010
0000
0000
0001
0000
0100
0010
0000
0101
0000
0000
0000
,
0100
0000
0010
0000
1000
0000
0100
0010
0000
0100
0010
0000
0010
0000
0001
0000
,
0010
0000
0100
1000
0010
0000
0001
0000
0010
0100
0010
0000
0100
0000
0010
0000
,
0100
0000
0010
1000
0010
0000
0100
0001
0000
0001
0100
0000
0101
0000
0100
0000
,
0010
0000
1000
0100
0010
0000
0100
1000
0000
1000
0010
0000
1010
0000
0010
0000
,
0100
0000
0001
0010
0001
0000
0100
0001
0000
0001
0100
0000
0101
0000
0100
0000
,
0010
0000
1000
0001
0100
0000
0001
1000
0000
1000
0100
0000
1100
0000
1000
0000
,
0010
0000
1000
0001
0100
0000
0001
0000
1000
0000
0100
1000
0000
0100
1000
0000
,
0001
0000
0010
0100
1000
0000
0001
0000
0100
0000
0010
1000
0000
0010
1000
0000
,
0001
0000
1000
0100
1000
0000
0001
0000
0010
0000
0100
0010
0000
0001
0010
0000
,
0100
0000
1000
0001
0010
0000
0001
0000
1000
0000
0001
0100
0000
1000
0100
0000
,
0020
0200
0002
0333
,
0010
1000
0100
0010
0000
0010
0001
0000
,
0020
0200
2000
3330
,
1000
0010
0100
0010
0000
0010
0100
0000
,
0002
0200
0020
0333
,
0001
0100
0010
0010
0000
0010
1000
0000
,
2000
0200
0020
3330
,
1000
0100
0010
0010
0000
0010
0001
0000
,
0001
0100
0010
1000
0100
0010
0100
1000
,
0001
0010
0100
0010
0001
0100
0010
0001
,
0010
1000
0100
0010
1000
0010
0100
1000
,
0010
0001
0010
0100
1000
0100
0001
0010
,
0100
0010
0100
0010
0001
0010
0001
0010
,
1000
0010
1000
0010
0100
0010
0100
0010
,
0100
1000
0100
1000
0001
0010
0001
0010
,
0001
0100
0010
1000
0100
0010
0001
0010
,
0010
0100
1000
0010
0100
0001
0100
0010
,
1000
0100
1000
0001
0010
0001
0100
0010
,
1000
1000
0010
0010
0100
0100
0001
0001
,
0010
0010
0100
0100
1000
1000
0001
0001
,
0101
0000
0100
0110
0000
0010
1010
0000
,
1000
1100
0000
0100
0110
0000
0011
0000
,
0002
0200
0000
0020
0000
0000
0300
0000
,
2000
0030
0000
0200
0000
0000
0000
3303
;

//---------------dance-single - Renard----------------
#NOTES:
     dance-single:
     Renard:
     Hard:
     8:
     0.612,0.595,0.301,0.029,0.000:
0000
0000
0000
0000
,
0000
0000
0000
0000
,
0000
0000
0000
0000
,
0000
0000
0000
0000
,
1000
0100
1000
0100
1000
0100
1000
0100
,
0010
0001
0010
0001
0010
0001
0010
0001
,
1000
0010
1000
0010
1000
0010
1000
0010
,
1000
0000
0001
0000
,
0100
0001
0100
0001
1000
0000
0100
0000
,
1000
0100
1000
0100
0010
0000
0001
0000
,
1000
0010
1000
0010
0100
0000
0001
0000
,
1000
0100
1000
0100
0010
0000
0001
0000
,
1000
0001
1000
0001
0100
0000
0010
0000
,
1000
0100
1000
0100
0010
0000
0001
0000
,
0100
0001
0100
0001
0010
0000
1000
0000
,
0100
1000
0100
0010
0001
1000
0010
0100
,
0001
0000
0001
0100
0010
1000
0100
0010
,
0001
0000
0001
0010
0100
1000
0001
0100
,
0001
0000
0001
1000
0100
0010
0001
0000
,
1000
0000
1000
0001
0100
0010
1000
0000
,
1000
0010
0100
0001
1000
0000
0100
0000
,
0010
0001
0010
0100
1000
0000
0001
0000
,
0100
0010
1000
0001
0100
0010
1000
0100
,
0010
0001
1000
0000
,
0001
0000
0101
0000
0001
1000
0100
0010
,
0001
0000
1001
0000
1000
0010
0100
0001
,
1000
0000
1001
0000
1000
0100
0010
0001
,
0010
0100
1000
0001
0100
0000
0110
0000
,
1000
0000
1010
0000
1000
0010
0100
0001
,
0010
0011
0010
0110
,
0100
1000
0100
1000
0001
1000
0001
0100
,
0010
0000
0000
0000
,
0010
1000
0010
1000
0001
0000
0101
0000
,
0001
1000
0100
0010
0001
0000
0011
0000
,
0001
0010
0100
1000
0001
0000
0101
0000
,
0001
1000
0100
0000
1100
0000
1001
0000
,
1000
0010
0100
0000
0100
0000
0101
0000
,
0001
1000
0100
0000
0100
0000
1100
0000
,
1000
0010
0100
0001
0010
0000
0011
0000
,
0001
0010
0100
1000
0001
0000
0101
0000
,
0001
0000
1001
0000
1000
0100
0010
0001
,
1000
0000
1001
0000
0001
0100
0010
0000
,
1000
0000
1010
0000
1000
0100
0010
0000
,
0001
0010
0100
1000
0001
0000
1001
0000
,
1000
0010
0100
0001
1000
0000
1001
0000
,
1000
0100
0010
0001
1000
0000
1001
0000
,
0001
0010
0100
1000
0001
0000
1001
0000
,
1000
0001
0100
0010
1000
0001
0100
0010
,
1000
1001
1000
1100
,
1000
0100
0010
0001
0000
0001
0010
0000
,
0001
0010
0100
0000
0110
0000
0100
0000
,
1000
0001
0100
0010
0000
1000
0010
0000
,
1010
0000
1001
0000
1000
0100
0010
0000
,
0001
0010
0100
1000
0000
1000
0001
0000
,
0001
0100
0010
0000
1010
0000
1001
0000
,
1000
0100
0010
0001
0010
0100
1000
0001
,
0100
0010
0100
0010
1000
0010
1000
0010
,
1000
0001
1000
0001
1000
0100
0010
0001
,
0010
0001
0010
0001
0100
0001
0100
0001
,
1000
0001
1000
0001
0100
0010
1000
0100
,
0010
0000
0010
0001
0000
0001
0010
0000
,
0010
0100
0000
0100
1000
0010
0100
0001
,
1000
0000
1000
0100
0000
0100
0010
0000
,
0010
0001
0010
0100
1000
0001
0100
0010
,
1000
0010
1000
0001
1000
0001
1000
0100
,
1000
0001
1000
0010
1000
0100
0010
0001
,
1000
0001
1000
0001
0100
0001
0010
0001
,
1000
0001
0100
0001
1000
0010
1000
0100
,
0010
0000
0010
0001
0000
0001
0010
0000
,
0010
0100
0000
0100
1000
0000
1000
0000
,
2020
0000
0000
0030
,
0002
0000
0000
0000
,
3003
0000
0000
0000
;

//---------------dance-single - Renard----------------
#NOTES:
     dance-single:
     Renard:
     Medium:
     6:
     0.394,0.455,0.097,0.107,0.000:
0000
0000
0000
0000
,
0000
0000
0000
0000
,
0000
0000
0000
0000
,
0000
0000
0000
0000
,
1000
0001
1000
0000
0001
1000
0001
0000
,
1000
0001
1000
0000
0001
1000
0001
0000
,
0010
0100
0010
0100
0010
0100
0010
0100
,
0010
0000
1000
0000
,
0001
0100
0001
1000
,
0100
1000
0100
0000
1000
0000
0000
0000
,
0001
0010
0100
1000
,
0001
0100
0001
0000
1000
0000
0000
0000
,
0001
0010
0100
1000
,
0001
0010
0001
0000
1000
0000
0010
0000
,
0100
0000
0001
0000
1000
0000
0100
1000
,
0010
0000
0100
0000
0001
1000
0001
0000
,
1000
0100
0010
0001
,
1000
0001
1000
0000
0001
0100
0001
0000
,
1000
0010
0100
0001
,
1000
0010
1000
0000
0100
1000
0100
0000
,
1000
0001
0010
0100
,
1000
0100
1000
0000
0001
1000
0001
0000
,
0100
0010
1000
0100
,
0010
0001
0010
0001
0010
0000
0000
0000
,
0100
1100
1000
0001
,
0100
0010
1000
0100
,
0010
0110
0010
0001
,
1000
0010
0100
0001
,
1000
1001
0001
0100
,
0110
1000
1010
1000
,
1001
1001
0110
0110
,
1001
0000
0000
0000
,
0001
1000
0000
1000
,
0000
0100
0000
0100
,
0000
0010
0000
0010
,
0000
0001
0000
0001
,
1000
0001
0000
1000
,
0001
0100
0000
0010
,
1000
0010
0000
0100
,
0001
1000
0100
1000
,
0001
0000
0010
0000
0000
0001
1000
0000
,
0001
0000
0100
0000
0000
0010
1000
0000
,
0001
0000
1000
0000
0000
0100
1000
0000
,
0001
0000
0010
0000
0000
0100
1000
0000
,
0001
0000
0010
0000
0000
0001
1000
0000
,
0010
0000
0100
0000
0000
0001
1000
0000
,
0100
0000
0010
0000
0000
0001
1000
0000
,
0010
0100
0001
1000
,
0200
0000
1300
0000
,
0010
0000
1000
0010
0000
0000
0000
0000
,
0200
0000
0301
0000
,
0010
0000
0001
0010
0000
0000
0000
0000
,
0200
0000
0310
0000
,
0001
0000
1000
0001
0000
0000
0000
0000
,
0200
0000
0310
0000
,
1000
0000
0010
1000
0000
0000
0000
0000
,
0001
0001
0100
0100
,
0010
0000
0010
0000
1000
0000
1000
0100
,
0010
0010
0001
0001
,
1000
0000
1000
0000
0010
0000
0010
0100
,
0001
0000
0001
1000
0000
1000
0100
0000
,
0100
0010
0000
0010
0001
0000
1000
0000
,
0001
0000
0001
0100
0000
0100
0001
0000
,
1000
0100
0010
0001
,
1000
0000
1000
0001
0000
0001
0100
0000
,
0100
0010
0000
0010
1000
0000
0100
0000
,
0010
0000
0010
0001
0000
0001
1000
0000
,
1000
0001
0000
0001
0100
0000
0010
0000
,
2000
0000
3200
0000
,
0320
0000
0032
2003
,
3020
0000
0000
0000
,
0200
0000
0000
0000
,
0330
0000
0000
0000
;

//---------------dance-single - Renard----------------
#NOTES:
     dance-single:
     Renard:
     Easy:
     2:
     0.322,0.350,0.068,0.262,0.000: // measure 1
0000
0000
0000
0000
,  // measure 2
0000
0000
0000
0000
,  // measure 3
0000
0000
0000
0000
,  // measure 4
0000
0000
0000
0000
,  // measure 5
1000
0001
1000
0001
,  // measure 6
0100
0010
0100
0010
,  // measure 7
1000
0001
0100
0010
,  // measure 8
1000
0100
0010
0000
,  // measure 9
0001
0001
1000
0001
,  // measure 10
1000
1000
0001
1000
,  // measure 11
0001
0001
1000
0001
,  // measure 12
1000
1000
0001
1000
,  // measure 13
0010
0010
0100
0010
,  // measure 14
0100
0100
0010
0100
,  // measure 15
0001
0001
1000
0100
,  // measure 16
0010
0001
1000
0010
,  // measure 17
1000
1000
0010
0100
,  // measure 18
0001
0001
1000
0100
,  // measure 19
0010
0010
0100
1000
,  // measure 20
0001
0001
0100
0010
,  // measure 21
1000
1000
0010
0100
,  // measure 22
0001
0001
0100
0010
,  // measure 23
1000
1000
0100
0010
,  // measure 24
0001
1000
1001
0000
,  // measure 25
0001
1001
0000
1000
,  // measure 26
0000
0010
0000
0100
,  // measure 27
0001
1001
0000
1000
,  // measure 28
0000
0100
0000
0010
,  // measure 29
0001
1001
0000
1001
,  // measure 30
0000
0110
0000
0110
,  // measure 31
0010
0010
0100
0100
,  // measure 32
0020
0000
0000
0000
,  // measure 33
1030
0000
1000
0010
,  // measure 34
0100
0000
0100
0000
,  // measure 35
0001
0000
0001
1000
,  // measure 36
0100
0000
0100
0000
,  // measure 37
0010
0000
0010
0001
,  // measure 38
1000
0000
1000
0000
,  // measure 39
0010
0000
0010
0100
,  // measure 40
0001
1000
0001
1000
,  // measure 41
0100
0000
1000
0000
,  // measure 42
0001
0000
0010
0001
,  // measure 43
1000
0000
0010
0000
,  // measure 44
0100
0001
1000
0100
,  // measure 45
0010
0000
0001
0000
,  // measure 46
0010
0100
1000
0001
,  // measure 47
0100
0000
0010
0000
,  // measure 48
1000
0010
0100
0001
,  // measure 49
1000
0000
0100
0000
,  // measure 50
1000
0001
0100
0000
,  // measure 51
0001
0000
1000
0000
,  // measure 52
0100
0010
0001
0000
,  // measure 53
1000
0000
0001
0000
,  // measure 54
0100
0001
1000
0000
,  // measure 55
0100
0000
0010
0000
,  // measure 56
0001
1000
0010
0100
,  // measure 57
0002
0000
2003
0000
,  // measure 58
3200
0000
0320
0031
,  // measure 59
2000
0000
3020
0000
,  // measure 60
0230
0000
0302
0013
,  // measure 61
0200
0000
2300
0000
,  // measure 62
3002
0000
0203
0310
,  // measure 63
2000
0000
3020
0000
,  // measure 64
0230
0000
0302
1003
,  // measure 65
0200
0000
0320
0000
,  // measure 66
0032
0000
1003
0010
,  // measure 67
0200
0000
0302
0000
,  // measure 68
2003
0000
3100
0010
,  // measure 69
0002
0000
0000
0000
,  // measure 70
0203
0000
0000
0000
,  // measure 71
0320
0000
0000
0000
,  // measure 72
2000
0000
0000
0000
,  // measure 73
3030
0000
0000
0000
;
