#TITLE:Life as We Know It;
#SUBTITLE:;
#ARTIST:Scott Brown;
#TITLETRANSLIT:;
#SUBTITLETRANSLIT:;
#ARTISTTRANSLIT:;
#CREDIT:;
#BANNER:life.png;
#BACKGROUND:life-bg.png;
#LYRICSPATH:;
#CDTITLE:;
#MUSIC:life.ogg;
#OFFSET:0.000;
#SAMPLESTART:44.651;
#SAMPLELENGTH:12.000;
#SELECTABLE:YES;
#BPMS:0.000=172.000;
#STOPS:;
#BGCHANGES:;

//---------------dance-single - Renard----------------
#NOTES:
     dance-single:
     Renard:
     Hard:
     8:
     0.508,0.539,0.286,0.064,0.212:
0000
0000
0000
0000
,
0000
0000
0000
0000
,
0000
0000
0000
0000
,
0000
0000
0000
0000
,
0000
1000
0000
1000
0000
1000
0000
1000
,
0000
0001
0000
0001
0000
0001
0000
0001
,
0000
0100
0000
0100
0000
0100
0000
0100
,
0010
0000
1000
0001
0100
0001
0000
0000
,
1000
0000
0000
0001
0000
0000
0100
0000
0000
0000
0010
0000
0000
1000
0000
0000
,
0001
0000
0000
1000
0000
0000
0100
0000
0000
0000
0010
0000
0000
0001
0000
0000
,
1000
0000
0000
0001
0000
0000
0100
0000
0000
0000
0010
0000
0000
1000
0000
0000
,
0001
0000
0000
1000
0000
0000
0100
0000
0000
0000
0010
0000
0001
0000
1000
0000
,
0001
0000
0000
0100
0000
0000
0010
0000
0000
0000
1000
0000
0000
0001
0000
0000
,
1000
0000
0000
0100
0000
0000
0010
0000
0000
0000
0001
0000
0000
1000
0000
0000
,
0001
0000
0000
0100
0000
0000
0010
0000
0000
0000
1000
0000
0000
0001
0000
0000
,
0100
0000
0000
0010
0000
0000
1000
0000
0000
0000
0001
0000
0100
0000
0010
0000
,
1000
0000
0001
0000
0100
0000
0010
1000
,
0000
1001
0000
1100
0000
1000
0000
0001
,
0010
0000
0001
0000
1000
0000
0001
0100
,
0000
0101
0000
1001
0000
0011
0000
0001
,
1000
0000
0001
0000
0100
0000
0010
1000
,
0000
1100
0000
1001
0000
1010
0000
1000
,
0001
0000
1000
0000
0100
0000
0010
0002
,
2000
0000
0000
3003
,
1000
0001
1000
0000
1000
0000
0001
0100
,
0000
0010
0000
1000
0000
0100
0000
0010
,
0001
0000
1000
0000
0001
0000
0100
0001
,
0000
1000
0000
0100
0000
0010
0000
0001
,
1000
0001
0100
0000
0001
0000
1000
0100
,
0000
1000
0000
0001
0000
0010
0000
0001
,
1000
0000
0010
0000
0100
0000
0001
2000
,
0001
0000
0010
0010
0010
0000
3001
0000
,
1001
0000
0110
0000
1001
0000
0100
0010
,
0000
1001
0000
0110
0000
1001
0000
1000
,
0100
0000
0010
0000
0001
0000
0010
0100
,
0000
1000
0000
0001
0000
0100
0000
0010
,
1000
0010
1000
0001
1000
0100
0010
0000
,
0001
0010
0000
0100
0000
1000
0000
0010
,
0100
0001
0010
0001
0000
1000
0001
0000
,
0100
0010
0000
1000
0000
0100
0000
0010
,
0001
0000
1000
0000
0001
0000
0100
0010
,
0000
0110
0000
1001
0000
1001
0000
1000
,
0100
0000
0010
0000
0001
0000
1000
0002
,
0000
0100
0000
0100
0000
0103
0000
0100
,
0001
0000
0101
0000
0100
0010
1000
0100
,
0010
0001
0000
0010
0000
0100
0000
1000
,
0001
0100
0001
0100
0000
0100
0010
1000
,
0002
0000
1000
1000
2000
0000
3003
0000
,
1000
0000
0000
0001
0000
0000
0100
0000
0000
0000
0010
0000
0000
0110
0000
0000
,
0010
0000
0000
1000
0000
0000
0100
0000
0000
0000
0010
0000
0000
0110
0000
0000
,
0010
0000
0000
0001
0000
0000
1000
0000
0000
0000
0001
0000
0000
0101
0000
0000
,
0001
0000
0000
0100
0000
0000
0010
0000
0000
0000
1000
0000
0000
0100
0000
0000
,
1000
0000
0000
0001
0000
0000
0010
0000
0000
0000
1001
0000
0000
1001
0000
0000
,
1000
0000
0000
0010
0000
0000
0100
0000
0000
0000
0110
0000
0000
0110
0000
0000
,
0010
0000
0000
1000
0000
0000
0001
0000
0000
0000
1001
0000
0000
1001
0000
0000
,
1000
0000
0001
1000
0001
0100
0010
0000
,
1000
0000
0000
1000
0001
0000
0100
0000
0000
0000
0010
0000
1000
0001
0000
0000
,
1000
0000
0000
0100
0010
0000
0001
0000
0000
0000
1000
0000
0001
1000
0000
0000
,
0001
0000
0000
0100
0010
0000
1000
0000
0000
0000
0001
0000
1000
0100
0000
0000
,
1000
0000
0100
0010
0001
1000
0000
0000
,
0001
0000
0000
0001
0010
0000
0100
0000
0000
0000
1000
0000
0001
0100
0000
0000
,
0001
0000
0000
0100
0010
0000
1000
0000
0000
0000
0100
0000
0010
0001
0000
0000
,
1000
0000
0000
0001
0000
0000
0100
0000
0000
0000
0010
0000
0000
1000
0000
0000
,
0001
0000
1000
0100
0010
0001
0000
0000
;

//---------------dance-single - Renard----------------
#NOTES:
     dance-single:
     Renard:
     Medium:
     5:
     0.339,0.370,0.000,0.085,0.000:
0000
0000
0000
0000
,
0000
0000
0000
0000
,
0000
0000
0000
0000
,
0000
0000
0000
0000
,
0000
1000
0000
1000
0000
0001
0000
1000
,
0000
0001
0000
0001
0000
1000
0000
0001
,
0000
0100
0000
0100
0000
0010
0000
0100
,
0010
0100
0010
0000
,
1000
0000
0010
0000
1000
0001
1000
0000
,
0001
0000
1000
0000
0001
0100
0001
0000
,
1000
0100
0010
0001
,
1000
1000
0001
0001
,
1000
0000
0001
0000
1000
0100
1000
0000
,
0001
0000
0010
0000
0001
0010
0001
0000
,
1000
0001
0100
0010
,
1000
0001
0000
0100
,
0010
0000
0100
0000
0010
0000
0100
0010
,
0000
1000
0000
0001
0000
1000
0000
0000
,
0100
0000
0010
0000
0001
0000
1000
0001
,
0000
0100
0000
0010
0000
1000
0000
0000
,
0001
0000
1000
0000
0100
0000
0010
0001
,
0000
1000
0000
0001
0000
0100
0000
0000
,
0010
0000
1000
0000
0001
0000
0200
0002
,
0000
0000
0000
0303
,
0001
0000
0001
0000
0002
0000
0000
0100
,
0000
0100
0000
0100
0000
0103
0000
0000
,
0010
0000
0010
0000
0020
0000
0000
1000
,
0000
1000
0000
1000
0000
1030
0000
0000
,
0100
0000
0100
0000
0200
0000
0000
1000
,
0000
1000
0000
1000
0000
1300
0000
0000
,
0001
0000
0001
0000
0001
0000
0001
0010
,
0002
0000
0000
0000
,
1003
0000
0001
0000
1000
0000
0001
0100
,
0000
0001
0000
1000
0000
0100
0000
0000
,
1000
0000
0001
0000
0010
0000
0001
1000
,
0000
0001
0000
0100
0000
0010
0000
0000
,
1000
0000
0001
0000
1000
0000
0100
1000
,
0000
0001
0000
0010
0000
0001
0000
0000
,
1000
0000
0001
0000
0100
0000
0010
1000
,
0000
0001
0000
1000
0000
0100
0000
0000
,
1000
0000
0001
0000
0010
0000
0001
1000
,
0000
0001
0000
1000
0000
0001
0000
0000
,
0100
0000
0010
0000
1000
0000
0001
1000
,
0000
0001
0000
0100
0000
0010
0000
0000
,
1000
0000
0001
0000
0100
0000
0010
0100
,
0000
0001
0000
1000
0000
0010
0000
0000
,
1000
0000
0001
0000
0100
0000
0010
2000
,
0002
0000
0000
3003
,
1000
1000
0000
1000
,
0001
0001
0000
0001
,
0100
0100
0000
0100
,
0010
0100
0010
0000
,
1000
1000
0000
1000
,
0001
0001
0000
0001
,
0100
0100
0000
0001
,
1000
0001
1000
0000
,
0001
1000
0000
1000
,
0001
1000
0000
0001
,
1000
0001
0000
1000
,
0001
1000
0001
0000
,
1000
0001
0000
1000
,
0001
1000
0000
0001
,
1000
0001
0000
1000
,
0001
0001
1000
0000
;

//---------------dance-single - Renard----------------
#NOTES:
     dance-single:
     Renard:
     Easy:
     2:
     0.278,0.373,0.169,0.169,0.000: // measure 1
0000
0000
0000
0000
,  // measure 2
0000
0000
0000
0000
,  // measure 3
0000
0000
0000
0000
,  // measure 4
0000
0000
0000
0000
,  // measure 5
1000
1000
1000
1000
,  // measure 6
0001
0001
0001
0001
,  // measure 7
1000
1000
0001
0002
,  // measure 8
2000
0000
0000
3003
,  // measure 9
1000
1001
0000
1001
,  // measure 10
0001
1001
0000
1001
,  // measure 11
1000
1001
0000
1001
,  // measure 12
0100
0010
0100
0010
,  // measure 13
1000
1001
0000
1001
,  // measure 14
0001
1001
0000
1001
,  // measure 15
1000
0001
1000
0001
,  // measure 16
0100
0010
0100
0000
,  // measure 17
0001
0001
0001
0000
,  // measure 18
1000
0000
1000
0000
,  // measure 19
1000
1000
1000
0000
,  // measure 20
0001
0000
0001
0000
,  // measure 21
0100
0100
0100
0000
,  // measure 22
0010
0000
0010
0000
,  // measure 23
1000
0010
2000
0002
,  // measure 24
0000
0000
0000
3003
,  // measure 25
2000
0001
0001
0000
,  // measure 26
0001
0000
0001
0000
,  // measure 27
3002
0000
0000
0000
,  // measure 28
0203
0000
0000
0000
,  // measure 29
0320
0000
1000
0000
,  // measure 30
1000
0000
0230
0000
,  // measure 31
0302
0000
2003
0000
,  // measure 32
0002
0000
0000
3003
,  // measure 33
1001
1001
1001
0000
,  // measure 34
0010
0000
0010
0000
,  // measure 35
0100
0000
0100
0000
,  // measure 36
0010
0000
0010
0000
,  // measure 37
1001
1001
1001
0000
,  // measure 38
0100
0000
0100
0000
,  // measure 39
0010
0000
0010
0000
,  // measure 40
0100
0000
0100
0000
,  // measure 41
0001
1000
0001
0000
,  // measure 42
0100
0000
0100
0000
,  // measure 43
0010
0000
0010
0000
,  // measure 44
1000
0001
1000
0000
,  // measure 45
0001
0100
0001
1000
,  // measure 46
0001
0010
0001
1000
,  // measure 47
0001
0100
0001
2000
,  // measure 48
0002
0000
0000
3003
,  // measure 49
1000
1000
0000
0000
,  // measure 50
0001
0001
0000
0000
,  // measure 51
1000
1000
0000
0000
,  // measure 52
0001
0000
0001
0000
,  // measure 53
0100
0100
0000
0000
,  // measure 54
0010
0010
0000
0000
,  // measure 55
0100
0100
0000
0000
,  // measure 56
0010
0000
0010
0000
,  // measure 57
1000
0010
1000
0000
,  // measure 58
0001
0100
0001
0000
,  // measure 59
1000
0100
1000
0000
,  // measure 60
0001
0010
0001
0000
,  // measure 61
1000
0001
0000
1000
,  // measure 62
0001
0100
0000
0001
,  // measure 63
1000
0010
0000
1000
,  // measure 64
0002
0000
2000
0000
,  // measure 65
3003
0000
0000
0000
;
