#TITLE:Lick My Plump Fox Nuts;
#SUBTITLE:;
#ARTIST:Emoticon feat. Renard and Kitsune²;
#TITLETRANSLIT:;
#SUBTITLETRANSLIT:;
#ARTISTTRANSLIT:;
#CREDIT:;
#BANNER:fox.png;
#BACKGROUND:fox-bg.png;
#LYRICSPATH:;
#CDTITLE:;
#MUSIC:fox.ogg;
#OFFSET:0.000;
#SAMPLESTART:41.279;
#SAMPLELENGTH:12.000;
#SELECTABLE:YES;
#BPMS:0.000=180.150,96.000=90.075,110.000=180.150;
#STOPS:221.500=0.167
,224.500=0.167
;
#BGCHANGES:;

//---------------dance-single - Renard----------------
#NOTES:
     dance-single:
     Renard:
     Hard:
     9:
     0.725,0.777,0.451,0.128,0.290:
0000
0000
0000
0000
,
0000
0000
0000
0000
,
0000
0000
0000
0000
,
0000
0000
0000
0000
,
1000
0000
0001
0100
0000
0100
0010
1000
,
0000
1000
0100
0010
0000
0010
0001
0010
,
0100
0000
0100
1000
0000
0010
0100
0001
,
0100
1001
0000
0110
0000
1010
0101
0000
,
0001
0100
0000
1000
0010
0000
0001
0100
,
0000
0000
0010
0000
1000
0000
0100
0000
1000
0000
0001
1000
0001
0000
1000
0000
,
0100
0010
0000
0001
0010
0000
1000
0010
,
0000
0000
0100
0000
1000
0000
0010
0000
0100
0000
0001
0100
0001
0000
0000
0000
,
1000
0010
0000
0001
0100
0000
1000
0010
,
0000
0000
1000
0000
0100
0000
0010
0000
0001
0000
0010
0001
0010
0000
0000
0000
,
0001
0010
0000
0100
1000
0000
0001
0010
,
0000
0000
0011
0000
2100
0000
0000
0000
3001
0000
0001
1000
0001
0000
0001
0000
,
1000
0010
0000
0001
0100
0000
1000
0010
,
0000
0000
1000
0000
0100
0000
0010
0000
0001
0000
0010
0000
0100
0000
1000
0100
,
1000
0001
0000
0010
0100
0000
1000
0010
,
0000
0000
0100
0000
0001
0000
0100
0000
0010
0000
1000
0001
1000
0000
0000
0000
,
1000
0100
0000
0001
0010
0000
1000
0100
,
0000
0000
1000
0000
0010
0000
0100
0000
0001
0000
1000
0001
1000
0000
0000
0000
,
0100
1000
0000
0001
0010
0000
0001
1000
,
0010
0100
0110
0000
1001
0110
1001
0000
,
0002
0000
0000
0000
0100
0000
0010
0000
1000
0000
0000
0000
1003
0100
0010
0002
,
1000
0000
0100
0010
1000
0000
1003
0000
,
2000
0000
0000
0000
0100
0000
0010
0000
0001
0000
0000
0000
3001
0010
0100
1000
,
0002
0100
0203
0301
0002
0203
0310
1000
,
0200
0000
1300
0000
1100
0000
MM00
0000
1000
0000
0100
0000
1000
0010
0000
1000
,
0001
0000
1000
0010
0000
1000
0100
0000
1000
0000
0100
0000
0010
0000
0001
0000
,
0010
0000
0100
0000
1000
0000
0000
0000
0001
0000
0100
0000
0001
0010
0000
0001
,
1000
0000
0001
0100
0000
0001
1000
0000
0001
0000
0100
0000
0010
0000
1000
0000
,
0100
0000
0010
0000
0001
0000
0000
0000
1000
0000
0100
0000
1000
0010
0000
1000
,
0001
0000
1000
0010
0000
1000
0100
0000
1000
0000
0100
0000
0010
0000
0001
0000
,
0010
0000
0100
0000
1000
0000
0000
0000
0001
0000
0010
0000
0001
0100
0000
0001
,
1000
0000
0001
0100
0000
0010
1000
0000
0001
0000
0100
0001
0100
0000
0010
1000
,
0010
1000
0010
0000
1000
0000
1000
0000
0001
0000
0100
0000
0010
0000
1000
0000
,
0100
0000
0000
0100
0000
0000
0100
0000
1000
0000
0001
0000
0010
0000
0001
0000
,
1000
0000
0000
1000
0000
0000
1000
0000
0010
0000
0100
0000
0001
0000
0010
0000
,
0100
0000
0000
0100
0000
0000
0100
0000
1000
0000
0010
0000
0100
0000
0001
0000
,
0100
0000
0000
0100
0000
0000
0100
0000
0001
0000
0010
0000
0100
0000
1000
0000
,
0001
0000
0000
0001
0000
0000
0001
0000
0100
0000
0010
0000
1000
0000
0100
0000
,
0010
0000
0000
0010
0000
0000
0010
0000
0100
0000
1000
0000
0010
0000
0100
0000
,
0001
0000
0000
0001
0000
0000
0001
0000
0000
0000
0000
0000
1000
0001
1000
0001
,
1000
0000
1001
0000
0101
0000
0110
0MM0
,
1100
0000
0110
0MM0
0101
0000
0011
00MM
,
0110
0000
1010
M0M0
0110
0000
1100
0100
,
0101
0000
0000
0001
0100
0000
1000
0000
0010
0000
1000
0001
1000
0000
0002
0000
,
0200
0000
0313
00M0
0101
0000
1100
MM00
,
0110
0000
0101
0M0M
1001
0000
1100
MM00
,
0110
0000
0011
00MM
1010
0010
0110
0000
,
0110
0010
0011
0000
1001
0MM0
0110
M00M
,
2002
00M0
3013
00M0
1001
0000
0001
0000
,
1000
1000
0001
0001
,
1000
0000
1000
0000
0001
0001
1000
1000
,
0001
0000
0000
1000
0000
0000
0001
0000
0000
1000
0000
0000
0000
00M1
0000
1M00
0000
0000
0000
001M
0000
M100
0000
0000
,
0000
1MM1
0001
0000
0100
0010
0000
1000
,
0100
0000
0000
1000
0001
0000
0010
0100
,
1000
0000
0001
0000
0100
0000
0010
1000
,
0001
0000
1000
0100
0010
0000
0011
0000
,
0110
0000
1100
0000
1000
0010
0000
0100
,
0001
0000
0000
0001
0100
0000
0010
1000
,
0001
0000
1000
0000
0100
0000
0010
0001
,
0010
0000
0100
0010
0100
0000
1100
0010
,
1001
0000
0000
0000
1000
0000
0100
0000
0010
0000
0001
0000
0010
0000
0100
1000
,
0000
0001
0010
0000
0100
0000
1000
0000
0010
0000
0100
0000
0001
0000
0100
0010
,
0000
1000
0010
0000
1000
0000
0001
0000
0010
0000
0100
0000
1000
0000
0001
1000
,
0000
0001
0100
0000
0010
0000
1000
0000
0100
0000
0010
0000
0001
0000
0010
0100
,
0000
1000
0001
0000
0100
0000
0010
0000
1000
0000
0100
0000
0010
0000
0001
0010
,
0000
0100
1000
0000
0001
0000
0100
0000
0010
0000
1000
0000
0100
0000
1000
0001
,
0000
0010
0001
0000
1000
0000
0010
0000
0100
0000
0001
0000
1000
0000
0100
1000
,
0000
0001
0010
0000
0000
0000
0000
0000
0001
0010
0001
0010
0001
0000
00MM
0000
,
0011
0000
0000
0000
;

//---------------dance-single - Renard----------------
#NOTES:
     dance-single:
     Renard:
     Medium:
     6:
     0.435,0.601,0.000,0.079,0.000:
0000
0000
0000
0000
,
0000
0000
0000
0000
,
0000
0000
0000
0000
,
0000
0000
0000
0000
,
1000
0000
0000
0001
0000
0100
0001
0100
,
0000
0001
1000
0001
0000
1000
0100
0000
,
1000
0000
0000
0001
0000
0010
0001
0000
,
1000
0000
0001
0000
0000
0100
0010
0000
,
1000
0000
0000
0010
0000
0000
0100
0000
,
0000
0001
1000
0000
0100
1000
0100
0000
,
1000
0000
0000
0001
0000
0000
0010
0000
,
0000
0001
1000
0000
0001
0100
0001
0000
,
1000
0000
0000
0100
0000
0000
0010
0000
,
0000
0001
1000
0000
0010
1000
0010
0000
,
1000
0000
0000
0001
0000
0000
0100
0001
,
1000
0000
0100
0000
0010
0001
0010
0000
,
0100
1000
0100
1000
,
0001
0000
0100
0000
0001
1000
0001
0000
,
1000
0100
0010
0001
,
1000
0000
0010
0000
0100
0001
0100
0000
,
0001
1000
0000
0001
1000
0000
0001
1000
,
0000
0010
0100
0001
,
0010
0100
0000
0010
0100
0000
0010
0100
,
1000
0000
0001
0000
0000
0100
0001
0000
,
2000
0000
3100
0010
0002
0000
0013
0100
,
2000
0000
3010
0100
0002
0000
0013
0100
,
2000
0000
3010
0100
0002
0000
1003
0100
,
0020
0032
1003
0001
,
0000
0100
0001
0000
1000
0000
0100
0000
,
0010
0001
0010
0100
,
1000
0001
1000
0000
0001
0000
0010
0000
,
0100
1000
0100
0010
,
0001
1000
0001
0000
0010
0000
0100
0000
,
1000
0100
0010
0001
,
1000
0001
1000
0000
0001
0000
0010
0000
,
0100
1000
0100
0010
,
0001
1000
0001
0000
1000
0000
0010
0000
,
0100
0001
0100
0010
,
1000
0001
1000
0000
0010
0000
0100
0000
,
0001
0100
0010
1000
,
0001
1000
0001
0000
1000
0000
0010
0000
,
0100
0001
0100
0010
,
1000
0001
1000
0000
0010
0000
0100
0000
,
0001
1000
0100
0000
,
1000
0001
1000
1000
,
0100
1000
0100
1000
0100
0000
1000
0000
,
0001
0010
0001
1000
,
0001
0100
0001
1000
,
0100
0100
0010
0001
,
1000
0001
0100
0001
,
0100
0001
0100
0000
0001
0000
0100
0000
,
0010
0000
1000
0000
0100
1000
0100
0000
,
1000
0100
0100
1000
,
0100
1000
0100
1000
,
0100
0000
1000
0000
0001
1000
0001
1000
,
0001
1000
0001
1000
0000
0001
0000
1000
,
0000
0001
0100
0000
0000
0001
0000
0000
,
1000
0000
0000
0100
0010
0000
0001
0010
,
0100
0000
1000
0000
0000
0001
0000
0000
,
0010
0000
0000
0100
1000
0000
0001
1000
,
0001
0000
0100
0000
0000
0001
0000
0000
,
1000
0000
0000
0100
1000
0000
0001
1000
,
0001
0000
1000
0000
0000
0010
0000
0000
,
0100
0000
0000
0001
0100
0000
0001
1000
,
0001
1000
0100
1000
,
0100
0010
0100
0010
,
0100
0010
0001
0010
,
0001
1000
0001
1000
,
0001
0100
0010
0100
,
0010
1000
0010
1000
,
0010
0100
0001
1000
,
0100
0000
0010
0000
0001
0000
1000
0001
,
1000
0000
0000
0000
;

//---------------dance-single - Renard----------------
#NOTES:
     dance-single:
     Renard:
     Easy:
     2:
     0.337,0.389,0.010,0.079,0.000: // measure 1
0000
0000
0000
0000
,  // measure 2
0000
0000
0000
0000
,  // measure 3
0000
0000
0000
0000
,  // measure 4
0000
0000
0000
0000
,  // measure 5
1000
0000
1000
0001
,  // measure 6
1000
0000
1000
0001
,  // measure 7
1000
0000
0001
1000
,  // measure 8
0001
0100
0010
1000
,  // measure 9
0001
0100
0000
0000
,  // measure 10
0001
0100
0001
0000
,  // measure 11
1000
0100
0000
0000
,  // measure 12
1000
0100
1000
0000
,  // measure 13
0001
0010
0000
0000
,  // measure 14
0001
0010
0001
0000
,  // measure 15
1000
0010
0000
0000
,  // measure 16
2000
3002
0203
0320
,  // measure 17
1030
0010
1000
0010
,  // measure 18
0100
0001
0100
0000
,  // measure 19
0001
0010
0001
0010
,  // measure 20
0100
0100
1000
0000
,  // measure 21
0010
0000
1000
0000
,  // measure 22
0001
0100
0001
0000
,  // measure 23
1000
0000
0100
0000
,  // measure 24
0010
0001
1000
0100
,  // measure 25
0020
0001
0001
0031
,  // measure 26
0002
1000
1000
1003
,  // measure 27
2000
0100
0100
3100
,  // measure 28
0200
0010
0010
0010
,  // measure 29
0010
0310
0010
0010
,  // measure 30
0010
0000
0100
0100
,  // measure 31
0100
0000
0010
0100
,  // measure 32
0010
0100
0010
0100
,  // measure 33
0010
0000
0001
0001
,  // measure 34
0001
0000
1000
1000
,  // measure 35
1000
0000
0001
1000
,  // measure 36
0001
1000
0001
1000
,  // measure 37
0001
0000
1000
0000
,  // measure 38
0001
0001
0100
0000
,  // measure 39
0010
0010
1000
0000
,  // measure 40
0100
0100
0010
0000
,  // measure 41
0001
0001
1000
0000
,  // measure 42
0010
0010
0100
0000
,  // measure 43
0001
0001
0010
0000
,  // measure 44
0100
0100
1000
0101
,  // measure 45
1000
0001
1000
1000
,  // measure 46
1000
1000
0001
0001
,  // measure 47
0001
0001
1000
0001
,  // measure 48
1000
0001
0100
0010
,  // measure 49
0100
0010
1000
1000
,  // measure 50
1000
1000
0001
0001
,  // measure 51
0001
0001
1000
0100
,  // measure 52
1000
0100
0010
0001
,  // measure 53
1000
0100
0010
0010
,  // measure 54
0010
0010
0010
0010
,  // measure 55
0010
0010
0010
0010
,  // measure 56
0010
0000
0010
0000
0000
0010
0000
0010
,  // measure 57
0000
0010
0001
0000
0001
0000
0001
0000
,  // measure 58
0001
0000
1000
1000
,  // measure 59
1000
0001
0001
0001
,  // measure 60
0001
0100
0010
0100
,  // measure 61
0100
0010
0010
0010
,  // measure 62
0010
0000
1000
0001
,  // measure 63
1000
0100
0100
0100
,  // measure 64
0100
0010
0001
1000
,  // measure 65
0001
0100
0000
0001
,  // measure 66
1000
0100
0000
0010
,  // measure 67
0001
1000
0000
0010
,  // measure 68
0100
0001
0000
1000
,  // measure 69
0100
0010
0000
0001
,  // measure 70
1000
0010
0000
0100
,  // measure 71
0001
1000
0000
0100
,  // measure 72
0010
0000
0001
0000
1000
0000
0001
0100
,  // measure 73
0001
0000
0000
0000
;
