#TITLE:Libera Me;
#SUBTITLE:;
#ARTIST:Cranky;
#TITLETRANSLIT:;
#SUBTITLETRANSLIT:;
#ARTISTTRANSLIT:;
#CREDIT:;
#BANNER:libera.png;
#BACKGROUND:libera-bg.png;
#LYRICSPATH:;
#CDTITLE:;
#MUSIC:libera.ogg;
#OFFSET:0.000;
#SAMPLESTART:5.818;
#SAMPLELENGTH:12.000;
#SELECTABLE:YES;
#BPMS:0.000=165.000;
#STOPS:;
#BGCHANGES:;

//---------------dance-single - Renard----------------
#NOTES:
     dance-single:
     Renard:
     Hard:
     9:
     0.690,0.747,0.242,0.099,0.402:
0000
0000
0000
0000
,
0000
0000
0000
0000
,
0000
0000
0000
0000
,
2002
0000
0000
0000
3000
M103
001M
0100
,
1010
0000
0000
0000
0100
0000
0001
0010
0100
0000
0000
0000
0010
0000
0100
0000
,
1000
0000
0000
0000
0010
0000
0100
0010
0100
0000
0000
0000
0010
0000
0000
0000
,
1000
0000
0100
0010
0001
0000
0010
0000
,
0100
0000
0000
0000
1000
0000
0000
0010
0100
0000
0001
0000
0100
0000
0010
0000
,
1000
0000
0000
0000
0010
0000
0100
0010
0100
0000
0010
0000
0100
0000
0001
0000
,
0010
0000
0000
0000
0100
0000
1000
0000
0001
0000
1000
0001
1000
0000
0001
0000
,
0100
0000
0000
0100
0010
0000
1000
0000
0100
0000
0000
0100
0010
0000
0001
0000
,
0010
0000
0100
0000
1000
0000
0001
0000
0100
0000
0001
0000
1000
0001
1000
0000
,
0002
0000
0000
0000
0100
0000
0000
0000
0010
0000
0000
0000
1003
0000
M10M
0010
,
0200
0000
0000
0000
0001
0000
0000
0000
1000
0000
0000
0000
0310
0000
1MM0
0001
,
2000
0000
0000
0000
0100
0000
0000
0000
0010
0000
0000
0000
3001
0000
M10M
0010
,
0100
0000
0000
0100
0010
0000
0000
1000
0010
0000
0000
0100
0001
0000
0000
0010
,
0100
0000
0000
0100
0001
0000
0000
0001
0100
0000
0000
0100
1000
0000
0010
0100
,
0020
0000
1000
0000
0100
0000
0031
00MM
,
0010
0000
1000
0000
0100
0000
0001
0000
0100
0000
0000
1000
0000
0000
0010
0000
,
0200
0000
0001
0000
0010
0010
0310
0MM0
,
1000
0000
1000
0000
10M0
0000
0010
1000
0010
1000
0010
0000
0100
0000
0100
0000
,
010M
0000
0001
0100
0001
0100
0001
0000
0010
0000
0010
0000
001M
0000
0001
0010
,
0001
0010
0001
0000
0010
0000
0010
0000
0M10
0000
0100
0010
0100
0010
0100
0000
,
1000
0000
1000
0000
1M00
0000
0100
1000
0100
1000
0100
0000
1000
0000
1000
0000
,
10M0
0000
0010
1000
0010
1000
0010
0000
0100
0000
0100
0000
010M
0000
0001
0100
,
0001
0100
0001
0000
0010
0000
0000
MM11
0000
0000
0010
0000
0100
0000
0000
11MM
,
0000
1000
0001
0010
0100
1000
0001
0100
,
0010
1000
0100
0000
0100
0010
0001
0010
,
0100
1000
0010
0000
0010
0100
0001
0100
,
0010
0000
1000
0000
0001
0000
1000
0001
1000
0000
0001
1000
0001
0000
1000
0001
,
1000
0001
0100
0010
1000
0100
0000
0100
,
0010
0001
0010
0100
1000
0001
0000
0001
,
0100
0010
1000
0100
0010
0001
0010
0100
,
1000
0000
0000
0001
0000
0000
0100
0000
0001
0000
0100
0000
0010
0000
1000
0000
0010
0000
0100
0000
0001
0000
1000
0000
,
0010
0100
0010
2MM2
0000
0000
0MM0
0000
0000
0MM0
0000
0000
,
0MM0
0MM0
0MM0
0MM0
,
0MM0
0000
0MM0
0000
30M3
0010
0100
0010
,
0110
1000
0110
0001
,
0110
1010
1001
0110
,
0010
0001
0010
0100
1000
0001
0010
0001
,
1000
0000
0010
0000
0100
0000
0001
0000
0100
0000
0000
0100
0010
0000
1000
0000
,
0100
0000
0000
0100
0010
0000
0001
0000
0010
0000
0000
0010
0100
0000
1000
0000
,
0001
0000
0000
0001
0100
0000
0010
0000
1000
0000
0001
0000
1000
0000
0000
0000
,
0001
0000
0100
0001
0100
0000
0010
0000
1000
0000
0000
0000
0100
0000
0010
0000
,
0001
0000
0010
0100
0010
0000
0100
0000
1000
0000
0000
0000
0001
0000
0100
0000
,
0010
0000
0010
1000
0010
0100
0001
0100
,
0010
0000
1000
0000
0100
0000
0010
0000
0001
0000
0010
0001
0010
0000
0000
0000
,
0100
0000
1000
0010
0100
0001
0100
0010
,
1000
0101
1010
1001
,
1100
0000
0010
0001
1000
0000
0100
0000
,
0011
0000
0010
0100
1000
0001
0100
0000
,
0010
0000
1000
0100
0010
0000
0001
0010
,
0100
0000
1000
0001
1000
0000
0001
0000
0100
0000
0010
0000
1000
0000
0000
0000
,
0001
0000
1000
0000
0001
0000
1000
0001
1000
0001
1000
0000
0010
0000
0100
0000
,
0010
0000
0100
0010
0100
0010
0100
0000
0010
0000
1000
0000
0010
0000
1000
0010
,
1000
0010
1000
0000
0001
0000
0100
0000
0001
0000
0100
0001
0100
0001
0100
0000
,
0010
1000
0010
0100
0001
1000
0100
0010
0001
0010
0100
1000
,
0001
0100
0010
1000
0000
0000
1001
0000
0000
0110
0000
0000
,
1001
1100
1M11
0000
,
11M1
0000
0000
0000
;

//---------------dance-single - Renard----------------
#NOTES:
     dance-single:
     Renard:
     Medium:
     5:
     0.387,0.455,0.297,0.022,0.000:
0000
0000
0000
0000
,
0000
0000
0000
0000
,
0000
0000
0000
0000
,
0000
0000
0000
0000
,
1000
0000
1100
0000
1000
0000
0100
0010
,
0001
0000
0011
0000
0001
0000
0010
0100
,
0010
0110
0010
0001
,
1000
0000
0001
0000
0100
0000
0010
0100
,
0010
0100
0110
0110
,
0001
0000
1000
0001
1000
0000
1001
0000
,
1001
1000
0100
0010
,
0110
0010
0001
1000
,
0010
0000
0010
0000
0100
0000
0100
0001
,
0100
0000
0001
0000
1000
0000
0100
1000
,
0100
0000
1000
0000
0100
0000
0010
0100
,
0010
0001
1000
0001
,
0100
0010
1000
0010
,
0100
0001
1000
0100
,
0010
0010
0100
1100
,
0001
0001
0100
0101
,
0001
0101
0000
1001
,
1001
0000
1100
1100
,
0000
0011
0011
0000
,
1000
1010
1000
0100
,
0101
0100
0001
0011
,
0010
0100
0000
1000
,
0000
0010
0100
0001
,
1000
0000
0100
0000
1000
0100
1000
0000
,
0000
0001
0010
0100
,
1000
0000
0001
0000
0100
0010
0100
0000
,
0010
1000
0100
0010
,
0001
0000
0010
0000
0100
1000
0100
0000
,
1000
0001
0001
0100
,
0100
0010
1000
0001
,
1000
0200
0000
0000
,
0000
0000
0000
0000
,
0000
0000
0000
0000
,
0310
0010
0001
0001
,
1000
0010
1000
1010
,
1000
1000
0001
0001
,
0100
0001
0100
0000
0001
0000
1001
0000
,
1000
0100
0010
0001
,
1000
0010
0110
0100
,
0001
1000
0100
0010
,
0001
0000
0010
0000
0100
1000
0100
0000
,
1000
0000
1000
0000
0001
0100
0001
0000
,
1000
0000
1000
0000
0100
1000
0100
0000
,
1000
0001
0010
0001
,
1000
0010
1000
0000
0001
0100
0001
0000
,
1000
0000
0100
0000
0010
0000
0001
1000
,
0001
0000
0010
0000
0100
0000
1000
0001
,
1000
0010
0100
0001
,
1000
0000
0100
0000
0010
0000
0001
1000
,
0001
0100
0110
0010
,
1000
1100
1000
0001
,
0011
0010
0100
1000
,
0020
0000
0000
0000
,
0000
0000
1000
0100
,
0001
0100
0130
0000
,
1001
0000
0000
0000
;

//---------------dance-single - Renard----------------
#NOTES:
     dance-single:
     Renard:
     Easy:
     2:
     0.319,0.390,0.165,0.341,0.000: // measure 1
0000
0000
0000
0000
,  // measure 2
0000
0000
0000
0000
,  // measure 3
0000
0000
0000
0000
,  // measure 4
0000
0000
0000
0000
,  // measure 5
1000
1000
0002
0103
,  // measure 6
0001
0001
0020
0130
,  // measure 7
1000
1000
0020
0130
,  // measure 8
0001
1000
0001
0000
,  // measure 9
2000
0000
3100
0010
,  // measure 10
0002
0000
0013
0100
,  // measure 11
2000
0000
0000
3001
,  // measure 12
0200
0000
0302
0023
,  // measure 13
0230
1300
0020
0130
,  // measure 14
0002
0013
0010
0000
,  // measure 15
0002
1003
0020
0130
,  // measure 16
0002
1003
0100
1000
,  // measure 17
0002
0000
0203
0000
,  // measure 18
0302
0000
2003
0000
,  // measure 19
3200
0000
0010
0010
,  // measure 20
0320
0000
0000
0000
,  // measure 21
0031
0011
0000
1000
,  // measure 22
1100
0000
1000
1010
,  // measure 23
0000
0100
0100
0001
,  // measure 24
1000
1100
1000
0001
,  // measure 25
0011
0001
0100
0101
,  // measure 26
0001
1000
0000
0001
,  // measure 27
0000
2000
0000
3100
,  // measure 28
0010
0002
0000
0013
,  // measure 29
0100
2000
0000
3002
,  // measure 30
0000
0203
0000
0320
,  // measure 31
0000
2030
0000
3010
,  // measure 32
0100
0002
0000
0103
,  // measure 33
0010
1000
0001
1000
,  // measure 34
0000
0001
1000
0001
,  // measure 35
0000
2000
0000
0000
,  // measure 36
0000
0000
0000
0000
,  // measure 37
0000
0000
0000
0000
,  // measure 38
3001
0001
0100
0100
,  // measure 39
0010
0010
1000
0100
,  // measure 40
0010
0000
0001
0000
,  // measure 41
1000
0100
0010
0001
,  // measure 42
1000
0000
0001
0000
,  // measure 43
0010
0100
1000
0001
,  // measure 44
0100
0001
1000
0010
,  // measure 45
1000
0001
0100
0000
,  // measure 46
0001
0000
1001
0000
,  // measure 47
1000
0001
1001
0000
,  // measure 48
1000
0010
1000
0000
,  // measure 49
0001
0100
0001
0000
,  // measure 50
1000
0000
1100
0000
,  // measure 51
0010
0001
0011
0000
,  // measure 52
0001
0100
0001
0000
,  // measure 53
1000
0010
1000
0001
,  // measure 54
0100
0000
0101
0001
,  // measure 55
0000
1001
1000
0000
,  // measure 56
1100
1000
0000
1001
,  // measure 57
0002
0000
0000
0000
,  // measure 58
0000
0000
0100
0100
,  // measure 59
0100
0100
0103
0000
,  // measure 60
1001
0000
0000
0000
;
