#TITLE:Let's All Get Down;
#SUBTITLE:;
#ARTIST:Plus System;
#TITLETRANSLIT:;
#SUBTITLETRANSLIT:;
#ARTISTTRANSLIT:;
#CREDIT:;
#BANNER:getdown.png;
#BACKGROUND:getdown-bg.png;
#LYRICSPATH:;
#CDTITLE:;
#MUSIC:getdown.ogg;
#OFFSET:0.000;
#SAMPLESTART:43.767;
#SAMPLELENGTH:12.000;
#SELECTABLE:YES;
#BPMS:0.000=175.475,188.000=263.213,194.000=175.475,254.000=263.213,260.000=175.475;
#STOPS:;
#BGCHANGES:;

//---------------dance-single - Renard----------------
#NOTES:
     dance-single:
     Renard:
     Hard:
     8:
     0.626,0.602,0.458,0.709,0.000:
0000
0000
0000
0000
,
0000
0000
0000
0000
,
0000
0000
0000
0000
,
0000
0000
0000
0000
,
1000
0002
0200
0313
,
0001
0000
0001
0000
2000
0200
3310
0000
,
0100
2000
0002
3013
,
0001
0100
0010
1000
0002
0200
1303
0000
,
0001
0200
0000
0300
0010
2000
0000
3000
,
0100
0020
0000
0030
0001
2000
0000
3000
,
0010
0200
0000
0300
0001
2000
0000
3000
,
0100
0020
0000
0030
2002
0000
0000
3003
,
1000
0020
0000
0030
0100
0002
0000
0003
,
0010
0200
0000
0300
1000
0002
0000
0003
,
0100
0020
0000
0030
1000
0002
0000
0003
,
0010
0200
0000
0300
2002
0000
0000
3003
,
0101
0000
0110
0000
1100
0000
1000
0100
,
0001
0000
0010
0000
0100
1000
0100
0000
,
1100
0000
0110
0000
0011
0000
0001
0010
,
1000
0000
1000
0000
0010
0100
0010
0000
,
0011
0000
0110
0000
1010
0000
1000
0010
,
0001
0000
0001
0000
0100
1000
0100
0000
,
1100
0000
0110
0000
0101
0000
0001
0100
,
0010
0000
0010
0000
1000
0010
1000
0001
,
1000
0002
0100
0000
1003
0020
0100
0000
,
0031
0020
1000
0000
0130
0002
1000
0000
,
0103
0000
0110
0000
1001
0000
0001
0100
,
1000
0000
1100
0000
1000
0100
0001
0100
,
0001
2000
0100
0000
3100
0020
0001
0000
,
0031
0020
1000
0000
1030
0002
0100
0000
,
0103
2000
0010
0000
3001
0200
0010
0000
,
0020
0000
0300
0130
,
0101
0000
0110
0000
1100
0000
1000
0100
,
0001
0000
1000
0000
0100
1000
0100
0000
,
1100
0000
0120
0000
0031
0000
0001
0010
,
1000
0000
1010
0000
0010
0001
0100
0010
,
1000
0000
0010
0000
1010
0000
0010
0001
,
0010
0000
1010
0000
0010
0100
0001
0100
,
1000
0000
1200
0000
0301
0000
0001
1000
,
0100
0000
0110
0000
0010
0001
0010
1000
,
0010
0000
0110
0000
0011
0000
1000
0010
,
0001
0000
0011
0000
0001
0010
1000
0010
,
0001
0000
0012
0000
1003
0000
1000
0100
,
0002
0000
0203
0000
0310
1000
0010
0001
,
0010
0000
0210
0000
0301
0000
0001
0100
,
1000
0000
1100
0000
0100
0010
1000
0100
,
0001
0000
0101
0000
0110
0000
0100
1000
,
0002
0000
0000
0203
0000
0000
0320
0000
,
0000
2030
0000
0000
3001
0000
1000
0000
,
0010
0000
0100
0000
0001
0001
1000
1000
,
0010
0010
0100
0000
0001
0000
1000
0000
,
0010
0000
0100
0000
0001
1000
0001
1000
,
0010
1000
0100
0000
0010
0000
0001
0000
,
1000
0000
0100
0000
1000
0001
0010
0001
,
1000
0100
1000
0010
,
1000
0000
0100
0000
1000
0001
0010
0001
,
1000
0100
1000
0002
,
0200
0313
0001
2000
,
0200
3310
1000
0002
,
2000
0000
3013
0000
0001
0001
1000
2000
,
0002
3013
1001
0110
,
2002
3013
1000
2000
,
0200
3310
0110
1001
,
0220
0000
1331
0000
0002
0000
0000
0203
,
0000
0000
0320
0000
0000
2030
0000
0000
,
3000
0000
0000
0000
;

//---------------dance-single - Renard----------------
#NOTES:
     dance-single:
     Renard:
     Medium:
     6:
     0.371,0.352,0.000,0.229,0.000:
0000
0000
0000
0000
,
0000
0000
0000
0000
,
0000
0000
0000
0000
,
0000
0000
0000
0000
,
0002
0000
2000
0003
,
0020
0030
0002
0003
,
0002
0003
0200
0300
,
0002
0000
0000
3013
,
1000
0000
0001
0000
,
0100
0000
0001
0000
,
1000
0000
0002
0000
,
2000
0000
0020
3033
,
1000
0000
0001
0000
,
1000
0000
0002
0000
,
2000
0003
0000
0000
0002
0000
0000
0000
,
0020
0000
0000
0000
0000
0000
0033
3000
,
1000
1000
1000
0000
,
0001
0001
0001
0000
,
0100
0100
0100
0000
,
0010
0010
0010
0000
,
1000
1000
1000
0000
,
0001
0001
0001
0000
,
0100
0100
0100
0000
,
0010
0010
0010
0000
,
1000
0010
1000
0010
,
0100
0100
0001
0100
,
0001
0001
0001
0010
,
0100
0100
0010
0100
,
1000
1000
1000
0100
,
1000
0001
0100
0001
,
1000
0001
0010
0100
,
1000
0100
1000
0001
,
1000
0000
0001
0000
0100
0000
0001
1000
,
0001
1000
0100
0000
,
1000
0000
0001
0000
0100
0000
0001
1000
,
0001
1000
0001
0000
,
0010
0000
0001
0000
1000
0000
0001
0100
,
0001
1000
0100
0000
,
0010
0000
0001
0000
1000
0000
0010
0100
,
0010
0100
0001
1000
,
0001
0000
1000
0000
0100
0000
1000
0001
,
1000
0001
0100
0001
,
1000
0000
0100
0000
1000
0000
0001
1000
,
0001
0100
0001
1000
,
0100
0000
1000
0000
0001
0000
0010
0001
,
0010
0001
1000
0010
,
1000
0000
0001
0000
0100
0000
0001
1000
,
0002
0000
0000
2003
0000
0000
3200
0000
,
0000
0320
0000
0000
0031
0000
0001
0000
,
0010
0010
0100
0100
,
1000
0100
1000
0000
0001
0000
0001
0000
,
0100
0100
0010
0010
,
1000
0001
1000
0000
0001
0000
0001
0000
,
0010
0010
0100
0100
,
1000
0001
1000
0000
0001
0000
0001
0000
,
0100
0100
0010
0010
,
1000
0001
1000
0000
0100
0000
0010
0000
,
0001
1000
0001
0010
,
0100
1000
0100
0010
,
0001
1000
0001
0010
,
0100
1000
0100
0000
1000
0000
0100
0000
,
0010
0001
0010
0100
,
1000
0001
1000
0100
,
0010
0000
0001
0000
2000
0000
0000
3002
,
0000
0000
0203
0000
0000
0310
0000
0000
;

//---------------dance-single - Renard----------------
#NOTES:
     dance-single:
     Renard:
     Easy:
     3:
     0.312,0.352,0.000,0.000,0.000: // measure 1
0000
0000
0000
0000
,  // measure 2
0000
0000
0000
0000
,  // measure 3
0000
0000
0000
0000
,  // measure 4
0000
0000
0000
0000
,  // measure 5
1000
0001
1000
0001
,  // measure 6
0100
0010
0100
0010
,  // measure 7
1000
0001
1000
0001
,  // measure 8
0100
0010
0100
0010
,  // measure 9
1000
1000
1000
1000
,  // measure 10
0001
0001
0001
0001
,  // measure 11
0100
0100
0100
0100
,  // measure 12
0010
0010
0010
0010
,  // measure 13
1000
1000
1000
1000
,  // measure 14
0001
0001
0001
0001
,  // measure 15
0010
0010
0010
0010
,  // measure 16
0100
0100
0100
0100
,  // measure 17
1000
0001
1000
0001
,  // measure 18
0100
0000
0100
0000
0010
0100
0010
0000
,  // measure 19
0100
0100
0100
0100
,  // measure 20
0001
0000
0001
0000
1000
0001
1000
0000
,  // measure 21
0100
0000
0100
0000
0100
0000
0010
0100
,  // measure 22
0010
0010
0001
1000
,  // measure 23
0010
0000
0010
0000
0010
0000
0100
0001
,  // measure 24
0100
0001
0100
0001
,  // measure 25
1000
0000
0100
0000
1000
0000
0100
1000
,  // measure 26
0100
1000
0100
0000
,  // measure 27
0010
0000
0001
0000
0010
0000
0001
0010
,  // measure 28
0001
0010
0001
0000
,  // measure 29
0100
0000
0001
0000
0100
0000
0001
0100
,  // measure 30
0001
0000
0100
0000
,  // measure 31
0010
0000
1000
0000
0010
0000
1000
0010
,  // measure 32
1000
0000
0000
0000
,  // measure 33
0010
0000
0010
0000
,  // measure 34
0100
0000
0100
0000
,  // measure 35
0001
0000
0001
0000
,  // measure 36
1000
0000
1000
0000
,  // measure 37
0100
0000
0100
0000
,  // measure 38
0010
0000
0010
0000
,  // measure 39
0001
0000
0001
0000
,  // measure 40
0010
0000
0100
0000
,  // measure 41
1000
0000
1000
0000
,  // measure 42
0001
0100
0001
0000
,  // measure 43
1000
0000
0100
0000
,  // measure 44
1000
0010
1000
0000
,  // measure 45
0001
0000
0100
0000
,  // measure 46
0001
0000
1000
0100
,  // measure 47
1000
0000
0001
0000
,  // measure 48
0010
0000
0000
0001
0000
0000
1000
0000
,  // measure 49
0000
0001
0000
0000
0100
0000
0000
0000
,  // measure 50
0100
0000
0001
0000
,  // measure 51
1000
0001
1000
0000
,  // measure 52
0100
0000
1000
0000
,  // measure 53
0001
0010
0001
0000
,  // measure 54
1000
0000
0010
0000
,  // measure 55
0100
0001
0100
0000
,  // measure 56
0010
0000
1000
0100
,  // measure 57
1000
0001
0010
0001
,  // measure 58
0010
0001
1000
0100
,  // measure 59
1000
0000
0010
1000
,  // measure 60
0010
1000
0001
0100
,  // measure 61
0001
0000
1000
0100
,  // measure 62
1000
0100
0010
0001
,  // measure 63
0010
0000
0001
1000
,  // measure 64
0001
0000
0100
0000
0010
0000
0000
1000
,  // measure 65
0000
0000
0100
0000
0000
0010
0000
0000
;
