#TITLE:Let Them Eat War;
#SUBTITLE:;
#ARTIST:Bad Religion;
#TITLETRANSLIT:;
#SUBTITLETRANSLIT:;
#ARTISTTRANSLIT:;
#CREDIT:;
#BANNER:war.png;
#BACKGROUND:war-bg.png;
#LYRICSPATH:;
#CDTITLE:;
#MUSIC:war.ogg;
#OFFSET:-0.020;
#SAMPLESTART:25.917;
#SAMPLELENGTH:12.000;
#SELECTABLE:YES;
#BPMS:0.000=215.250;
#STOPS:;
#BGCHANGES:;

//---------------dance-single - Ryvard----------------
#NOTES:
     dance-single:
     Ryvard:
     Hard:
     9:
     0.647,0.885,0.385,0.229,0.031:
0000
0000
0000
0000
,
0000
0000
0000
0000
,
0000
0000
0000
0000
,
0000
0000
0000
0000
,
0000
0000
0000
0000
,
0000
0000
0000
0000
,
0000
0000
0000
0000
,
0000
0000
0000
0000
0000
0000
0001
0010
,
0001
0100
0001
1000
0100
1000
0010
1000
,
0100
0010
0001
0000
1000
0000
0001
0000
,
0000
1000
0100
0001
0100
0010
0001
1000
,
0001
0010
0100
0000
,
0000
0000
0001
0010
0100
1000
0010
0000
,
0100
0000
0001
0100
0010
1000
0010
0100
,
0001
0011
0100
1100
,
0100
0010
0100
0000
0000
0000
0000
0000
,
0000
0000
0001
0100
0010
0000
0101
0000
,
0100
0010
1000
0001
0010
0000
0010
0000
,
0000
0000
0001
0010
1000
0010
0001
0000
,
1000
0001
0110
0000
,
0000
0000
0001
0100
0001
0000
0001
0010
,
0001
0000
1000
0100
1000
0000
0010
1000
,
0010
0000
0100
0001
0100
0000
0001
0010
,
0100
1000
0010
0100
0001
0100
1000
0100
,
1001
0000
1001
0000
0010
1000
0010
1000
,
0001
0000
1001
0000
0100
0010
0100
0001
,
0100
0000
1001
0000
0010
0100
0010
0100
,
0000
0001
1001
0000
0010
1000
0100
0000
,
0010
1000
0010
0100
0010
0001
0010
0100
,
1000
0000
0001
0100
1000
0100
0010
0100
,
0010
0000
0010
0100
0000
0100
0010
0000
,
0010
0100
0000
0010
0100
0000
1001
0000
,
0001
1000
0001
1000
0001
0010
0001
0010
,
0001
1001
2000
0200
,
0011
0000
0020
0000
0002
0000
0000
3333
,
0000
0000
0000
0000
0002
0003
2000
3000
,
0020
0030
0200
0300
,
0002
0000
1003
0001
0100
0000
0100
0000
,
0020
0030
0000
1001
,
0010
0000
0100
0000
0000
0000
0001
1000
,
0001
0000
0000
0010
0100
0000
0000
0001
,
0000
1001
1000
0000
,
0002
0000
0000
0200
0000
0000
0010
0303
,
0000
0010
1000
0000
,
1000
0010
0100
0001
0000
0100
0002
0000
,
0003
0001
1000
0000
0010
0000
0000
0100
,
0001
1000
0001
1000
0000
0010
0100
0000
,
0001
0100
0001
0100
0010
1000
0010
1000
,
1001
0000
0001
1000
0001
0000
0010
0100
,
0010
1010
0101
0000
,
0000
0001
1000
0100
0010
0100
1000
0010
,
0100
0001
1000
0000
1002
0000
1000
0003
,
0000
0000
1000
0100
0001
0100
1000
0000
,
0010
0100
0001
0000
0100
0000
0000
0000
,
0000
0001
0100
1000
0100
0001
1000
0010
,
1000
0000
0110
0000
1000
0010
1000
0010
,
0100
0000
0001
1000
0001
0000
0100
0000
,
0010
1000
0010
0000
0001
0100
0001
0000
,
0110
0000
0001
0100
0010
1000
0010
0000
,
0010
0100
0010
0000
1010
0000
0101
0000
,
1010
0000
0001
0100
0001
0000
0100
0000
,
0010
1000
0010
0000
0100
0000
0001
0000
,
2200
0000
0000
0001
3310
0000
0000
0000
,
0000
0001
0010
1000
,
0010
0000
0001
0100
0001
0100
0001
0100
,
0001
0000
0010
0100
0010
0100
0010
0100
,
0110
0000
0010
0000
1000
0100
0001
0100
,
0000
0100
0010
0000
1000
0001
1000
0000
,
0010
0100
0010
0100
0001
1000
0001
1000
,
0010
1000
0010
1000
0100
1000
0100
1000
,
0100
0000
1000
0001
0000
1000
0001
0000
,
0000
0010
0100
0001
,
1000
0000
0001
0100
1000
0100
0001
0100
,
0010
0000
0010
1000
0010
0000
0001
0100
,
0001
0000
1000
0000
0100
0001
0100
1000
,
0000
0010
0100
0000
1001
0000
0110
0000
,
0010
0000
0100
0001
0100
0000
1010
0000
,
0202
1313
1010
2020
,
3131
0000
0000
0011
,
1100
0000
0000
0000
,
0000
0000
0000
0000
,
0000
0000
0000
0000
,
0000
0000
0000
1000
0000
0001
0000
1000
0000
0010
0000
0100
,
0000
0010
0000
1000
0000
0100
0000
1000
0000
2002
0000
0000
,
0000
0000
0000
0000
0000
0000
0000
0110
,
3003
0000
0000
0000
;

//---------------dance-single - Renard----------------
#NOTES:
     dance-single:
     Renard:
     Medium:
     6:
     0.429,0.611,0.396,0.052,0.005:
0000
0000
0000
0000
,
0000
0000
0000
0000
,
0000
0000
0000
0000
,
0000
0000
0000
0000
,
0000
0000
0000
0000
,
0000
0000
0000
0000
,
0000
0000
0000
0000
,
0000
0000
0000
0000
,
1000
0001
0100
0010
,
1000
0100
0110
0110
,
0000
0010
0001
1000
,
0001
0100
0101
0000
,
0001
1000
0100
1000
,
0001
0010
0001
1000
,
0010
0010
0100
0100
,
0001
0010
0000
0100
,
1000
0001
0100
0010
,
0010
0010
0100
0100
,
0000
0001
1000
0100
,
1100
1100
1100
0000
,
0000
1000
0001
0100
,
0101
0101
0011
0011
,
0110
0000
0100
1000
,
0010
0100
0001
0100
,
0010
0010
1000
0100
,
0010
0001
0010
0100
,
0100
1000
0010
0100
,
0001
0100
0010
1000
,
1100
0000
1001
0100
,
1010
0100
1001
0100
,
1001
0000
0001
0100
,
0010
1000
0001
1000
,
1100
1100
0000
0000
,
0000
1000
0001
0100
,
0101
0000
0001
1000
,
0100
0010
0001
1000
,
0001
0000
0100
0001
,
1000
0000
0100
0010
,
0001
1000
0001
0010
,
0100
1000
0001
0100
,
0010
1000
1010
0000
,
1000
0000
0101
0000
,
0001
0010
0100
1000
,
0001
0100
0101
0000
,
0001
1000
0100
0010
,
0001
1000
1001
0000
,
0001
0100
0010
1000
,
0100
1000
0001
0010
,
0001
1000
0001
0100
,
0010
1010
1010
0000
,
0000
1000
0100
0010
,
0001
1000
0101
0000
,
0000
0001
1000
0100
,
0010
0001
0011
0000
,
0000
0010
0100
1000
,
0001
0100
0101
0000
,
0001
1000
0100
0010
,
0001
1000
1001
0000
,
0000
1000
0001
0100
,
0010
1000
1001
0000
,
0000
1000
0100
1000
,
0001
0010
0001
1000
,
0020
0000
0000
0000
,
0130
0001
1000
0100
,
0010
0010
0000
0000
,
0001
0010
0100
1000
,
1010
0000
1000
0001
,
0100
0001
0010
0100
,
1000
0000
1000
0001
,
0100
0100
0001
0010
,
0100
1000
0001
0100
,
0001
1000
1000
0001
,
0010
0200
0000
0000
,
1300
0010
0100
0001
,
0020
0000
0031
1000
,
0001
0100
0001
1000
,
1100
1000
1001
0100
,
1001
0100
1001
1100
,
1000
0100
0010
0001
,
2002
0000
0000
0000
,
0000
0000
0000
0000
,
0000
0000
0000
0000
,
0000
0000
0000
0000
,
0000
0000
0000
0000
0000
0000
0000
0000
3003
0000
0000
0000
0000
0110
0000
0000
;

//---------------dance-single - Renard----------------
#NOTES:
     dance-single:
     Renard:
     Easy:
     3:
     0.326,0.393,0.052,0.021,0.005: // measure 1
0000
0000
0000
0000
,  // measure 2
0000
0000
0000
0000
,  // measure 3
0000
0000
0000
0000
,  // measure 4
0000
0000
0000
0000
,  // measure 5
0000
0000
0000
0000
,  // measure 6
0000
0000
0000
0000
,  // measure 7
0000
0000
0000
0000
,  // measure 8
0000
0000
0000
0000
,  // measure 9
1000
0001
1000
0001
,  // measure 10
0100
0100
0100
0100
,  // measure 11
0000
0001
1000
0001
,  // measure 12
1000
0010
0010
0000
,  // measure 13
0000
1000
0100
1000
,  // measure 14
0100
1000
0100
1000
,  // measure 15
0010
0010
0001
0001
,  // measure 16
1000
0001
0000
0000
,  // measure 17
0000
0100
0001
1000
,  // measure 18
0100
1000
0001
0001
,  // measure 19
0000
0100
0010
1000
,  // measure 20
0010
0100
0001
0000
,  // measure 21
0000
1000
0100
0010
,  // measure 22
0010
0001
0001
0010
,  // measure 23
0200
0000
0000
0000
,  // measure 24
1300
0010
1000
0010
,  // measure 25
0100
0100
0000
0000
,  // measure 26
0001
0010
0100
1000
,  // measure 27
1000
0000
0001
0000
,  // measure 28
0010
0000
0001
0000
,  // measure 29
0110
0000
0010
1000
,  // measure 30
0100
0010
0001
1000
,  // measure 31
0001
0000
0100
0000
,  // measure 32
0001
1000
0100
0010
,  // measure 33
0001
1000
0000
0000
,  // measure 34
0000
0001
0100
0010
,  // measure 35
1000
0000
0010
0000
,  // measure 36
1000
0000
0010
0100
,  // measure 37
0001
0000
1001
0000
,  // measure 38
1000
0000
0100
1000
,  // measure 39
0001
0010
0001
1000
,  // measure 40
0001
0100
0000
0010
,  // measure 41
1000
0001
0100
0000
,  // measure 42
0001
1000
0100
0000
,  // measure 43
0010
0000
0001
0000
,  // measure 44
1000
0010
0100
0000
,  // measure 45
0001
0000
0010
0000
,  // measure 46
0100
1000
0100
0000
,  // measure 47
1000
0001
0100
0001
,  // measure 48
0000
1000
0100
0010
,  // measure 49
0001
1000
0001
1000
,  // measure 50
0010
1000
0010
0000
,  // measure 51
1000
0001
1000
0001
,  // measure 52
0100
0001
0100
0000
,  // measure 53
0001
1000
0100
1000
,  // measure 54
0001
0100
0001
0000
,  // measure 55
0000
1000
0100
0010
,  // measure 56
0001
0010
0100
0000
,  // measure 57
1000
0000
0010
0000
,  // measure 58
0100
0001
0100
0010
,  // measure 59
0000
1000
0100
0010
,  // measure 60
0001
1000
0010
0000
,  // measure 61
0000
0100
0001
0100
,  // measure 62
0010
1000
0010
1000
,  // measure 63
0002
0000
0000
0000
,  // measure 64
0103
0001
1000
0100
,  // measure 65
1000
0100
0000
0000
,  // measure 66
0000
1000
0001
1000
,  // measure 67
0001
0000
0100
0000
,  // measure 68
0001
0000
1000
0000
,  // measure 69
0010
0000
0010
1000
,  // measure 70
0001
0000
0100
0001
,  // measure 71
1000
0000
0100
0000
,  // measure 72
1000
0000
0001
0010
,  // measure 73
0001
0000
1000
0000
,  // measure 74
0001
0000
0100
0001
,  // measure 75
1000
0000
0100
0000
,  // measure 76
1000
0000
0001
0100
,  // measure 77
0001
0000
1001
0000
,  // measure 78
1000
0100
1000
0001
,  // measure 79
0100
0000
0010
1000
,  // measure 80
1001
0000
0000
0000
,  // measure 81
0000
0000
0000
0000
,  // measure 82
0000
0000
0000
0000
,  // measure 83
0000
0000
0000
0000
,  // measure 84
0000
0000
0000
0000
0000
0000
0000
0000
0000
0000
0000
0000
0000
0110
0000
0000
;
