#TITLE:Less Talk More Rokk;
#SUBTITLE:;
#ARTIST:Freezepop;
#TITLETRANSLIT:;
#SUBTITLETRANSLIT:;
#ARTISTTRANSLIT:;
#CREDIT:;
#BANNER:rokk.png;
#BACKGROUND:rokk-bg.png;
#LYRICSPATH:;
#CDTITLE:;
#MUSIC:rokk.ogg;
#OFFSET:0.000;
#SAMPLESTART:34.560;
#SAMPLELENGTH:12.000;
#SELECTABLE:YES;
#BPMS:0.000=125.000;
#STOPS:;
#BGCHANGES:;

//---------------dance-single - Renard----------------
#NOTES:
     dance-single:
     Renard:
     Challenge:
     9:
     0.751,0.748,0.149,0.050,0.759:
0000
0000
0000
0000
,
1001
0000
0000
0001
1000
0000
0000
1000
,
0001
0000
0100
0000
0001
0000
1000
0000
0100
0000
1000
0001
0000
0010
0001
0000
,
1000
0000
0010
0000
1000
0000
0001
0000
1000
0000
0010
0100
0000
0001
0100
0000
,
0010
0000
1000
0000
0100
0000
0010
0000
0001
0000
1000
0001
0000
0100
0001
0000
,
1000
0000
0100
0000
1000
0000
0010
0000
0100
0000
0010
0100
0000
0010
0100
0000
,
0001
0000
0010
0000
0100
0000
1000
0000
0001
0000
1000
0100
0000
1000
0010
0000
,
1000
0000
0001
0000
0100
0000
0010
0000
1000
0000
0100
1000
0000
0001
1000
0000
,
0010
0000
0100
0000
0001
0000
1000
0100
0000
1000
0001
0000
0010
0000
0001
0000
,
1000
0010
1010
1000
0001
0100
0101
0000
,
0001
0000
1000
0000
1100
0000
1000
0000
0001
0000
0010
0000
0001
1000
0000
0000
,
0001
0100
0101
0001
1000
0100
1100
0000
,
1000
0000
0001
0000
0101
0000
0001
0000
1000
0000
0010
0000
1000
0001
0000
0000
,
1000
0001
0001
1000
0100
0010
0001
0000
,
1000
0010
0010
0100
0001
0010
0100
0000
,
0100
0000
1000
0000
0010
0000
0010
0000
0100
0000
0001
1000
0000
0001
1000
0000
,
0001
1000
0100
0010
0001
1000
0001
1000
,
2002
0000
0000
0000
0000
0000
0000
0000
0000
0000
3003
0000
0001
0000
1000
0001
,
1000
0001
0100
0010
1000
0100
1000
0001
0010
0100
1000
0010
0100
0000
0000
0000
,
0001
0100
0010
1000
0100
1000
0001
0010
0100
1000
0010
0100
0001
0100
0001
0000
,
1000
0100
1000
0001
0010
0001
1000
0010
0100
0001
0100
0001
1000
0000
0000
0000
,
0001
1000
0100
1000
0001
1000
0010
1000
0100
1000
0001
1000
0010
1000
0001
0000
,
1000
0100
0010
0001
0010
0100
1000
0001
0010
0100
1000
0001
0010
0000
0000
0000
,
0001
0010
0100
1000
0100
0010
0001
1000
0100
0010
0001
0010
0001
0010
0001
0000
,
0010
0100
1000
0010
0100
0001
0100
0010
1000
0100
1000
0010
1000
0000
0000
0000
,
0100
1000
0001
1000
0010
1000
0100
1000
0010
1000
0100
1000
0001
1000
0001
0000
,
1000
0000
0001
0000
0100
0000
0001
1000
0000
0001
1000
0000
0100
0000
1000
0000
,
0001
0000
0010
0000
0001
0000
1000
0001
0000
1000
0010
0000
1000
0000
0100
0000
,
1000
0000
0001
0000
0010
0000
0001
1000
0000
0010
1000
0000
1010
0000
0000
0000
,
1000
0000
0001
0000
0100
0000
0001
0010
0000
0001
0010
0000
0110
0000
0000
0000
,
0100
0000
1000
0000
0010
0000
0100
0001
0000
1000
0100
0000
1000
0000
0001
0000
,
0010
0000
0001
0000
1000
0000
0010
0100
0000
0001
1000
0000
0001
0000
1000
0000
,
0100
0000
1000
0000
0001
0000
0010
0001
0000
1000
0010
0000
1010
0000
0000
0000
,
1000
0000
0001
0000
0100
0000
0001
1000
0000
0100
1000
0000
1001
0000
0000
0000
,
0001
0000
0100
0000
0001
0000
1000
0001
1000
0000
0100
0000
1000
0000
0001
0000
,
0010
0000
0100
0000
1000
0000
0001
1000
0001
0000
0100
0000
0010
0000
1000
0000
,
0100
0000
1000
0000
0001
0000
0010
0001
0010
0000
0001
0000
1001
0000
0000
0000
,
0001
0000
0100
0000
0010
0000
1000
0000
0001
0000
1000
0100
1000
0100
0000
1000
,
0100
0000
1000
0000
0010
0000
0100
0000
0001
0000
1000
0001
1000
0000
0001
0000
,
0100
0000
0010
0000
1000
0000
0100
0000
1000
0000
0001
1000
0001
1000
0000
0001
,
1000
0000
0001
0000
0100
0000
0010
0000
1000
0000
0100
1000
0100
0000
1000
0000
,
0001
0000
0010
0000
0001
0000
1000
0000
0001
0000
0100
0001
1000
0000
0001
0000
,
2002
0000
0000
0000
0000
0000
0000
0000
0000
0000
0003
3000
0001
1000
0001
1000
,
0001
0100
0001
0100
0001
1000
0010
1000
0100
0010
0001
0010
0100
0000
0000
0000
,
0100
1000
0001
0010
0100
1000
0001
0100
0010
1000
0001
0010
0001
0010
0001
0000
,
0010
0100
1000
0001
0010
0100
1000
0100
1000
0010
1000
0001
1000
0000
0000
0000
,
1000
0100
1000
0010
1000
0001
1000
0100
1000
0010
1000
0001
1000
0001
1000
0000
,
0001
0100
0010
1000
0100
0010
0001
1000
0100
0010
0001
1000
0100
0000
0000
0000
,
0100
1000
0001
0010
0100
1000
0100
0010
0001
1000
0100
0010
0001
0010
0001
0000
,
0001
1000
0010
0100
0001
0100
0010
1000
0100
0010
0001
0010
0100
0000
0000
0000
,
0100
1000
0010
1000
0001
1000
0100
1000
0010
1000
0001
1000
0100
1000
0010
0000
,
2010
0010
0010
0010
0010
0010
0010
0010
,
3000
0000
0000
0000
;

//---------------dance-single - Renard----------------
#NOTES:
     dance-single:
     Renard:
     Hard:
     8:
     0.537,0.516,0.000,0.030,0.293:
0000
0000
0000
0000
,
1000
0000
0000
0001
1000
0000
0000
0001
,
0100
0000
0001
0000
1000
0000
0100
0000
0010
0000
0001
0010
0000
0000
0000
0000
,
0100
0000
1000
0000
0001
0000
0100
0000
0010
0000
1000
0001
0000
0000
0000
0000
,
1000
0000
0100
0000
0010
0000
0001
0000
1000
0000
0001
0010
0000
0000
0000
0000
,
0000
0000
0100
0000
1000
0000
0001
0000
0100
0000
0010
1000
0000
0000
0000
0000
,
0000
0000
0001
0000
0010
0000
0100
0000
1000
0000
0001
0100
0000
0000
0000
0000
,
0000
0000
0001
0000
1000
0000
0100
0000
0010
0000
0001
1000
0000
0000
0000
0000
,
0000
0000
0001
0000
0010
0000
0100
1000
0000
0100
1000
0000
0100
0000
1000
0000
,
0000
0000
0001
0000
0100
0000
0010
0000
1000
0000
0001
0100
0000
0000
0000
0000
,
0000
0000
0001
0000
0010
0000
0100
1000
0000
0001
0000
0100
0000
0000
0000
0000
,
0000
0000
0010
0000
1000
0000
0001
0000
0100
0000
0001
1000
0000
0000
0000
0000
,
0000
0000
0100
0000
0010
0000
0001
0000
1000
0000
0001
0100
0000
0000
0000
0000
,
0000
0000
0010
0000
1000
0000
0100
0000
0010
0000
0001
1000
0000
0000
0000
0000
,
0000
0000
0001
0000
0010
0000
0100
0000
1000
0000
0001
0100
0000
0000
0000
0000
,
0000
0000
0010
0000
1000
0000
0001
0000
0010
0000
0100
1000
0000
0000
0000
0000
,
0000
0000
0001
0000
0100
0000
0010
1000
0000
0010
1000
0000
0001
0000
1000
0000
,
0200
0000
0000
0000
,
0310
0000
0001
0010
0001
0000
0010
0000
0100
0000
1000
0100
1000
0000
0000
0000
,
0001
0000
0100
0001
0100
0000
0010
0000
1000
0000
0010
1000
0010
0000
1000
0000
,
0100
0000
1000
0001
1000
0000
0001
0000
0100
0000
0010
0100
0010
0000
0000
0000
,
1000
0000
0010
0000
0100
0000
0001
0000
0010
0000
0100
0000
1000
0001
1000
0000
,
0001
0000
0100
0001
0100
0000
0001
0000
1000
0000
0100
1000
0100
0000
0000
0000
,
1000
0000
0001
0010
0001
0000
1000
0000
0010
0000
1000
0010
1000
0000
0000
0000
,
0010
0000
0100
0001
0100
0000
0001
0000
1000
0000
0100
1000
0100
0000
0000
0000
,
1000
0000
0001
0000
0010
0000
0100
0000
1000
0000
0010
0100
0010
0000
0100
0000
,
0001
0010
0100
1000
0001
0100
0010
1000
,
0100
0000
0000
0010
0000
0000
0001
0000
0010
0000
0000
0100
0000
0000
1000
0000
,
0010
0100
0001
1000
0100
0010
0001
0000
,
0010
0000
0100
0000
1000
0000
0001
0000
0100
0000
0000
0010
0000
0000
1000
0000
,
0100
0000
0010
0001
0010
0100
1000
0000
,
0001
0000
0000
0100
0000
0000
0010
0000
1000
0000
0000
0100
0000
0000
0010
0000
,
0001
0000
0010
0100
0000
1000
0001
0000
,
0100
0000
0010
1000
0000
0001
0100
0001
,
1000
0000
0100
0000
0010
0000
0001
0010
0001
0000
0010
0000
0100
0000
1000
0000
,
0001
0000
0100
0000
0010
0000
1000
0010
1000
0000
0010
0000
0100
0000
0001
0000
,
0010
0000
0100
0000
1000
0000
0001
1000
0001
0000
1000
0000
0001
0000
0100
0000
,
0010
0000
1000
0000
0100
0000
0010
0100
0010
0000
0100
0000
1000
0000
0010
0000
,
0100
0000
0001
0000
0010
0000
0001
1000
0001
0000
0100
0000
0001
0000
0100
0000
,
0010
0000
1000
0000
0100
0000
1000
0001
1000
0000
0001
0000
0010
0000
0100
0000
,
1000
0000
0001
0000
0100
0000
0010
0100
0010
0000
1000
0000
0100
0000
0010
0000
,
0001
0000
1000
0000
0001
0000
0100
0000
0010
1000
0000
0001
0000
0000
0100
0000
,
0020
0000
0000
0000
,
0130
0000
0001
0100
0001
0000
1000
0000
0100
0000
1000
0100
1000
0000
0000
0000
,
0001
0000
0010
0001
0010
0000
0001
0000
1000
0000
0010
1000
0010
0000
0000
0000
,
1000
0000
0100
1000
0100
0000
1000
0000
0001
0000
0010
0001
0010
0000
0000
0000
,
0001
0000
0100
0000
0010
0000
1000
0000
0100
0000
0010
0000
0001
1000
0001
0000
,
0010
0000
0100
1000
0100
0000
1000
0000
0001
0000
0100
0001
0100
0000
0000
0000
,
0001
0000
0010
0001
0010
0000
0100
0000
1000
0000
0001
1000
0001
0000
0000
0000
,
1000
0001
0100
0010
1000
0001
0010
0000
,
0100
0000
1000
0000
0010
0000
0100
0000
0001
0000
0010
0000
0100
0010
0100
0000
,
2000
0100
0100
0100
0100
0100
0100
0100
,
3000
0000
0000
0000
;

//---------------dance-single - Renard----------------
#NOTES:
     dance-single:
     Renard:
     Medium:
     6:
     0.414,0.386,0.099,0.020,0.000:
0000
0000
0000
0000
,
1000
0000
0000
0100
0010
0000
0000
0001
,
1000
0001
0100
0000
0001
1000
0100
0000
,
1000
0001
0010
0000
0001
1000
0010
0000
,
1000
0001
0100
0000
0001
1000
0100
0000
,
1000
0000
1000
0000
0001
1000
0001
0000
,
1000
0000
1000
0000
0001
1000
0001
0000
,
0001
0000
0001
0000
1000
0001
1000
0000
,
0001
0000
0001
0000
1000
0001
1000
0001
,
0100
0000
0010
1000
0100
0000
1100
0000
,
1000
0000
0100
0010
0001
0000
1001
0000
,
0001
0000
0100
0010
0100
0000
0110
0000
,
0001
0000
1000
0100
1000
0000
1100
0000
,
1000
0000
0001
0010
0001
0000
0011
0000
,
0010
0000
0100
1000
0100
0000
1100
0000
,
1000
0000
0001
1000
0001
0000
1001
0000
,
0001
0000
0100
0001
0100
0000
0010
0000
,
2002
0000
0000
3003
,
1000
0000
0100
0010
0001
0010
0001
0000
,
1000
0000
0001
0010
0100
1000
0100
0000
,
1000
0010
1000
0000
0010
1000
0010
0000
,
0100
0001
0100
0000
0001
0100
0001
0000
,
1000
0100
1000
0100
1000
0100
1000
0000
,
0001
0010
0001
0010
0001
0010
0001
0000
,
0100
0001
0100
0001
0100
0001
0100
0000
,
0010
1000
0010
1000
0010
1000
0010
0000
,
1000
0000
0100
1000
0100
0000
1000
0000
,
0001
0000
0010
0001
0010
0000
0001
0000
,
1000
0000
0010
1000
0010
0000
1010
0000
,
1000
0000
0001
0100
0001
0000
0101
0000
,
0001
1000
0100
0010
,
0001
0000
1000
0000
0010
0000
0100
0001
,
0100
0000
0001
0000
1000
0000
0100
1000
,
0100
0000
1000
0000
0001
0000
0010
0001
,
0010
0000
0001
0000
1000
0000
0010
0100
,
0010
0000
0100
0000
0001
0000
1000
0100
,
1000
0000
0001
0000
0010
0000
0100
1000
,
0100
0000
1000
0000
0010
0000
0100
0001
,
0100
0000
0001
0000
1000
0000
0100
1000
,
0100
0000
1000
0000
0001
0000
0010
0001
,
0010
0000
0100
0000
1000
0000
0010
0100
,
0010
0000
0100
0000
0001
0000
1000
0100
,
0010
0000
0000
0000
,
0001
0010
0001
0010
0001
0010
0001
0000
,
1000
0100
1000
0100
1000
0100
1000
0000
,
0010
1000
0010
1000
0010
1000
0010
0000
,
0100
0001
0100
0001
0100
0001
0100
0000
,
0001
1000
0001
1000
0001
1000
0001
0000
,
0100
0010
0100
0010
0100
0010
0100
0000
,
0001
1000
0001
1000
0001
1000
0001
0000
,
1000
0100
1000
0100
1000
0100
1000
0000
,
0001
0010
0001
0010
0001
0010
0001
0010
;

//---------------dance-single - Renard----------------
#NOTES:
     dance-single:
     Renard:
     Easy:
     2:
     0.279,0.284,0.109,0.248,0.000: // measure 1
0000
0000
0000
0000
,  // measure 2
1000
0000
1000
0000
,  // measure 3
0001
0100
0001
0100
,  // measure 4
0001
0010
0001
0010
,  // measure 5
0100
1000
0100
1000
,  // measure 6
0010
1000
0010
1000
,  // measure 7
0001
0100
0001
0100
,  // measure 8
0001
0010
0001
0010
,  // measure 9
0100
1000
0100
1000
,  // measure 10
0001
1000
0001
1001
,  // measure 11
1000
0001
1000
1001
,  // measure 12
0010
0100
0010
0110
,  // measure 13
0100
0010
0100
0110
,  // measure 14
0010
1000
0010
0000
,  // measure 15
0100
0001
0100
0000
,  // measure 16
0001
0010
0001
0000
,  // measure 17
0100
1000
0100
0000
,  // measure 18
2000
0000
0000
0000
,  // measure 19
3010
0100
0001
0020
,  // measure 20
0031
0010
0100
2000
,  // measure 21
3001
0100
0010
2000
,  // measure 22
3100
0010
0001
1000
,  // measure 23
0001
0100
0010
2000
,  // measure 24
3001
0010
0100
2000
,  // measure 25
3001
0010
0001
0200
,  // measure 26
0301
0010
0100
0010
,  // measure 27
0100
0010
0001
1000
,  // measure 28
0002
0000
0203
0000
,  // measure 29
0310
0000
1000
0000
,  // measure 30
0200
0000
0320
0000
,  // measure 31
0031
0000
1000
0000
,  // measure 32
0002
0000
0203
0000
,  // measure 33
0310
0000
1000
0000
,  // measure 34
0200
0000
0320
0000
,  // measure 35
0031
0000
1000
0000
,  // measure 36
0002
0000
0203
0000
,  // measure 37
0310
0000
1000
0000
,  // measure 38
0200
0000
0320
0000
,  // measure 39
0031
0000
1000
0000
,  // measure 40
0020
0000
0230
0000
,  // measure 41
0301
0000
1000
0000
,  // measure 42
0200
0000
0320
0000
,  // measure 43
0032
0000
0000
0000
,  // measure 44
1003
0001
1000
1001
,  // measure 45
0010
0100
0010
0110
,  // measure 46
0010
1000
0010
1010
,  // measure 47
0001
0100
0001
0101
,  // measure 48
0100
1000
0100
1100
,  // measure 49
0001
0010
0011
0000
,  // measure 50
0010
1000
0010
1010
,  // measure 51
0001
0100
0010
1000
,  // measure 52
0200
1000
1000
1000
,  // measure 53
0300
0000
0000
0000
;
