#TITLE:Le Mammoth;
#SUBTITLE:;
#ARTIST:Upbeats;
#TITLETRANSLIT:;
#SUBTITLETRANSLIT:;
#ARTISTTRANSLIT:;
#CREDIT:;
#BANNER:mammoth.png;
#BACKGROUND:mammoth-bg.png;
#LYRICSPATH:;
#CDTITLE:;
#MUSIC:mammoth.ogg;
#OFFSET:0.000;
#SAMPLESTART:10.849;
#SAMPLELENGTH:12.000;
#SELECTABLE:YES;
#BPMS:0.000=176.000;
#STOPS:;
#BGCHANGES:;

//---------------dance-single - Renard----------------
#NOTES:
     dance-single:
     Renard:
     Challenge:
     9:
     0.689,0.703,0.732,0.020,0.483:
0000
0000
0000
0000
,
0000
0000
0000
0000
,
0000
0000
0000
0000
,
0000
0000
0000
0000
,
0000
0000
0000
0000
,
0000
0000
0000
0000
,
0000
0000
0000
0000
,
0000
0000
0000
0000
,
1000
0000
0000
1000
0001
0000
0100
0000
0000
0100
0010
0000
1000
0000
0100
0000
,
1100
0000
0000
0011
0000
0000
0110
0000
0000
0110
0000
0000
0110
0000
0000
0000
,
0100
0000
1010
0100
0001
0100
0010
1000
,
1001
0000
0000
1001
0000
0000
0110
0000
0000
0110
0000
0000
1001
0000
0000
0000
,
0010
0000
0000
0000
1000
0000
0000
0001
0100
0000
0010
0000
1000
0000
0100
0000
,
1100
0000
0000
0011
0000
0000
1100
0000
0000
0011
0000
0000
1100
0000
0000
0000
,
1000
0000
0000
0000
1010
0000
0000
1000
0010
0000
1000
0000
0100
0000
0010
0000
,
0011
0000
0000
0011
0000
0000
0110
0000
0000
0110
0000
0000
1100
0000
0000
0000
,
1001
0000
1001
0000
0001
0100
0010
1000
,
0010
0000
0000
0010
0000
0000
1000
0000
0000
1000
0000
0000
0001
0000
0000
0000
,
1000
0000
1100
0000
1000
0001
0000
0010
,
0001
0000
0000
0001
0000
0000
0011
0000
0000
0110
0000
0000
1100
0000
0000
0000
,
1001
0000
0000
0000
0001
0000
0000
0100
0010
0000
1000
0000
0010
0000
1000
0000
,
1001
0000
0000
1100
0000
0000
0011
0000
0000
1100
0000
0000
1001
0000
0000
0000
,
0001
0100
0001
0100
0010
0000
0000
0000
1000
0000
0100
0000
0000
0000
0010
0000
,
0011
0000
0000
0110
0000
0000
0110
0000
0000
1100
0000
0000
1001
0000
0000
0000
,
0100
0000
1001
0000
0000
0000
1001
0000
0000
0000
0001
0100
0010
0000
1000
0000
,
0100
0000
0100
1000
0000
1000
0001
0000
0001
0010
0000
0010
0001
0000
0000
0000
,
1000
0100
0010
0000
0001
0010
0000
0010
,
0100
0000
0100
1000
0000
1000
0010
0000
0010
0100
0000
0100
0001
0000
0000
0000
,
1000
0001
0110
0000
0010
1000
0100
0010
,
0001
0000
0001
0010
0000
0010
0100
0000
0100
1000
0000
1000
0001
0000
0000
0000
,
1000
0100
0010
0000
0001
0010
0100
0000
,
1000
0000
1000
0010
0000
0010
0100
0000
0100
0001
0000
0001
0100
0000
0000
0000
,
0110
0000
1001
0000
1000
0100
0010
0001
,
0010
0000
0100
1000
0000
0001
0010
0000
0100
1000
0000
0001
0010
0000
0000
0000
,
0100
1000
0010
0000
0100
0001
0000
0001
,
0100
0000
0000
0110
0000
0000
0101
0000
0000
1100
0000
0000
0110
0000
0000
0000
,
0010
0100
0001
0000
1000
0100
0010
0000
,
0011
0000
0000
0110
0000
0000
1010
0000
0000
0110
0000
0000
0011
0000
0000
0000
,
0001
0010
0100
0000
0100
1000
0000
1000
,
0010
0000
0000
0010
0000
0000
0010
0000
0000
0010
0000
0000
0010
0000
0000
0000
,
2002
0000
0000
0000
,
3013
0000
0000
1001
0000
0000
0110
0000
,
1000
0010
0100
0000
0001
0100
0000
0010
,
1000
0000
0000
0001
0000
0000
0100
0000
0000
0010
0000
0000
1000
0000
0000
0000
,
0100
0000
0011
0000
0000
0010
0100
1000
,
0010
0000
0010
1000
0000
1000
0001
0000
0001
0100
0000
0100
0010
0000
0000
0000
,
1000
0100
0010
0000
0001
0000
0000
0000
0010
0000
0100
0000
1000
0000
0001
0000
,
1000
0000
1000
0001
0000
0001
0100
0000
0100
0010
0000
0010
1000
0000
0000
0000
,
1001
0001
1001
0000
1000
0010
0100
0000
,
0001
0000
0001
0100
0000
0100
0010
0000
0010
1000
0000
0000
1010
0000
0000
0000
,
0010
1000
0010
0000
1010
0000
0000
0000
1000
0000
0010
0000
0000
0000
0100
0000
,
0001
0000
0000
0010
0000
0000
0100
0000
0000
1000
0000
0000
0001
0000
0000
0000
,
0010
0001
0010
0000
0011
0000
0000
0000
0010
0000
0100
0000
1000
0000
0001
0000
,
0100
0000
0100
0010
0000
0010
1000
0000
1000
0010
0000
0010
0100
0000
0000
0000
,
0001
0100
0001
0000
0100
0000
0010
0000
1000
0000
0010
0000
1010
0000
0000
0000
,
1000
0000
0000
1000
0000
0000
0011
0000
0000
0011
0000
0000
0011
0000
0000
0000
,
0011
0000
0110
0000
0100
1000
0010
0100
,
0001
0000
0001
0100
0000
0100
0010
0000
0000
1000
0000
0000
0100
0000
0000
0000
,
0010
0000
0001
0000
0010
0000
0100
1000
0001
0000
0010
0000
0100
0000
1000
0000
,
0001
0000
0000
0100
0000
0000
0010
0000
0000
1000
0000
0000
0100
0000
0000
0000
,
1000
0100
1000
0000
0001
0010
0001
1000
,
0010
0000
0000
1000
0000
0000
0001
0000
0000
0100
0000
0000
0010
0000
1000
0010
,
1000
0100
0010
0000
0001
0010
0000
0100
,
1000
0000
0000
0001
0000
0000
0100
0000
0000
0010
0000
0000
1000
0000
0000
0000
,
0001
1000
0001
0000
1000
0100
0010
0001
,
0010
0000
0000
0010
0000
0000
0010
0000
0000
0010
0000
0000
0010
0000
0000
0000
,
0100
1000
0100
1000
0001
0000
0000
0000
1000
0000
0001
0000
0000
0000
0100
0000
,
0010
0000
1000
0001
0000
0100
0010
0000
0000
1001
0000
0000
0110
0000
0000
0000
,
0010
1000
0100
0000
0010
0001
0010
0100
,
1000
0000
0001
0010
0000
0100
1000
0000
0001
0010
0000
0000
1100
0000
0000
0000
,
0001
0100
0001
0000
0100
0000
0001
0000
0100
0000
0010
0000
1000
0000
0001
0000
,
1000
0000
0100
1000
0000
0000
0011
0000
0000
1100
0000
0000
1001
0000
0000
0000
,
0110
0000
0000
0000
;

//---------------dance-single - Renard----------------
#NOTES:
     dance-single:
     Renard:
     Hard:
     8:
     0.511,0.598,0.430,0.010,0.313:
0000
0000
0000
0000
,
0000
0000
0000
0000
,
0000
0000
0000
0000
,
0000
0000
0000
0000
,
1000
0000
0000
1000
0000
0000
1000
0000
0000
1000
0000
0000
1000
0000
0000
0000
,
0001
0000
0000
0001
0000
0000
0001
0000
0000
0001
0000
0000
0001
0000
0000
0000
,
0100
0000
0000
0100
0000
0000
0100
0000
0000
0100
0000
0000
0100
0000
0000
0000
,
0010
0000
0000
0010
0000
0000
0010
0000
,
0100
0000
0101
0000
0100
0010
1000
0000
,
0100
0000
0000
0010
0000
0000
0001
0000
0000
0010
0000
0000
0100
0000
0000
0000
,
1000
0000
1001
0000
0001
0100
0010
0000
,
1000
0000
0000
0010
0000
0000
0100
0000
0000
0001
0000
0000
0010
0000
0000
0000
,
0100
0000
0110
0000
0100
1000
0010
0100
,
0001
0000
0000
1000
0000
0000
0100
0000
0000
0010
0000
0000
0001
0000
0000
0000
,
0010
0000
0110
0000
0100
1000
0001
0100
,
0010
0000
0000
1000
0000
0000
0010
0000
0000
0100
0000
0000
0001
0000
0000
0000
,
1000
0000
1100
0000
1000
0001
0100
0000
,
0001
0000
0000
0001
0000
0000
1000
0000
0000
1000
0000
0000
0100
0000
0000
0000
,
0010
0000
0011
0000
0010
0100
1000
0000
,
0001
0000
0000
0100
0000
0000
0010
0000
0000
1000
0000
0000
0100
0000
0000
0000
,
0010
0000
0011
0000
0010
0100
1000
0000
,
0001
0000
0000
0100
0000
0000
0010
0000
0000
0100
0000
0000
0001
0000
0000
0000
,
1000
0000
1100
0000
1000
0001
0010
0000
,
0001
0000
0000
1000
0000
0000
0010
0000
0000
0100
0000
0000
0001
0000
0000
0000
,
0101
0000
0110
0000
0010
1000
0100
0000
,
1000
0000
0000
0001
0000
0000
0010
0000
0000
0001
0000
0000
1000
0000
0000
0000
,
0010
0000
0100
0000
0000
0001
0100
0000
,
0001
0000
0000
1000
0000
0000
0100
0000
0000
1000
0000
0000
0001
0000
0000
0000
,
0010
0000
0001
0000
0000
1000
0010
0000
,
0100
0000
0000
0100
0000
0000
0100
0000
0000
0100
0000
0000
0100
0000
0000
0000
,
0001
0000
0011
0000
0000
0010
0100
0000
,
1000
0000
0000
0001
0000
0000
1000
0000
0000
0001
0000
0000
1000
0000
0000
0000
,
0010
0000
0010
0000
0000
0100
0001
0000
,
0100
0000
0000
0100
0000
0000
0100
0000
,
0010
0000
1000
0000
0100
1000
0100
0000
,
0010
0000
0000
0010
0000
0000
0010
0000
,
0001
0000
0100
0000
0001
1000
0001
0000
,
0010
0000
0000
0010
0000
0000
0010
0000
,
0100
0000
1000
0000
0001
0100
0001
0000
,
1000
0000
0000
0001
0000
0000
1000
0000
0000
0001
0000
0000
1000
0000
0000
0000
,
0020
0000
0000
0000
,
0130
0000
0000
0001
0000
0000
1000
0000
0000
0100
0000
0000
1000
0000
0000
0000
,
1000
0000
1001
0000
0001
0100
0010
0000
,
1000
0000
0000
0010
0000
0000
1000
0000
0000
0010
0000
0000
0100
0000
0000
0000
,
0001
0000
0011
0000
0010
0100
1000
0000
,
0001
0000
0000
0100
0000
0000
0001
0000
0000
1000
0000
0000
0100
0000
0000
0000
,
1000
0000
1100
0000
1000
0001
0010
0000
,
0001
0000
0000
1000
0000
0000
0001
0000
0000
0100
0000
0000
0010
0000
0000
0000
,
1000
0000
1010
0000
1000
0001
0100
0000
,
0001
0000
0000
0001
0000
0000
0001
0000
0000
0001
0000
0000
0001
0000
0000
0000
,
1000
0000
1100
0000
1000
0001
0100
0000
,
0010
0000
0000
0010
0000
0000
0010
0000
0000
0010
0000
0000
0010
0000
0000
0000
,
1000
0000
1100
0000
1000
0010
0100
0000
,
0100
0000
0000
0100
0000
0000
0100
0000
0000
0100
0000
0000
0100
0000
0000
0000
,
0001
0000
0011
0000
0010
0100
1000
0000
,
0100
0000
0000
1000
0000
0000
0100
0000
0000
1000
0000
0000
0100
0000
0000
0000
,
1000
1001
0000
0110
,
0010
0000
0000
1000
0000
0000
0001
0000
0000
0100
0000
0000
0010
0000
0000
0000
,
1000
1100
0000
0011
,
0001
0000
0000
1000
0000
0000
0010
0000
0000
0100
0000
0000
0001
0000
0000
0000
,
0100
0110
0100
1100
,
0100
0000
0000
0010
0000
0000
0100
0000
0000
0001
0000
0000
0010
0000
0000
0000
,
0100
1100
0100
0101
,
0100
0000
0000
0010
0000
0000
0100
0000
0000
1000
0000
0000
0010
0000
0000
0000
,
0100
0101
0100
1100
,
0110
0000
0000
0110
0000
0000
1010
0000
0000
1010
0000
0000
1001
0000
0000
0000
,
1000
0100
0010
0000
0001
0010
0100
0000
,
0110
0000
0000
0110
0000
0000
1001
0000
0000
1001
0000
0000
0110
0000
0000
0000
,
0010
0000
1000
0000
0100
0010
0001
0000
,
1001
0000
0000
1001
0000
0000
0110
0000
0000
0110
0000
0000
1001
0000
0000
0000
,
1000
0000
0100
0000
0010
0001
0010
0000
,
0100
0000
0000
1000
0000
0000
0001
0000
0000
0100
0000
0000
0010
0000
0000
0000
,
1001
0000
0000
0000
;

//---------------dance-single - Renard----------------
#NOTES:
     dance-single:
     Renard:
     Medium:
     5:
     0.311,0.422,0.166,0.020,0.000:
0000
0000
0000
0000
,
0000
0000
0000
0000
,
0000
0000
0000
0000
,
0000
0000
0000
0000
,
0000
0000
0000
0000
,
0000
0000
0000
0000
,
0000
0000
0000
0000
,
0000
0000
0000
0000
,
1000
0000
0001
0000
0000
0100
0010
0000
,
1000
0000
0000
1000
0000
0000
1000
0000
,
0001
0000
1000
0000
0000
0100
0010
0000
,
0001
0000
0000
1000
0000
0000
0001
0000
,
0010
0000
0100
0000
0000
1000
0001
0000
,
0100
0000
0000
0010
0000
0000
1000
0000
,
0001
0000
1000
0000
0000
0100
1000
0000
,
0001
0000
0000
0010
0000
0000
0100
0000
,
1000
0000
0001
0000
0000
0100
0010
0000
,
1000
0000
0000
0010
0000
0000
0100
0000
,
0001
0000
1000
0000
0000
0100
1000
0000
,
0001
0000
0000
0010
0000
0000
0100
0000
,
1000
0000
0001
0000
0000
0010
0001
0000
,
1000
0000
0000
0010
0000
0000
0100
0000
,
0001
0000
1000
0000
0000
0100
1000
0000
,
0001
0000
0000
0011
0000
0000
0110
0000
,
1100
0000
1100
0000
0000
1000
0001
0000
,
1000
0000
0000
0001
0000
0000
0100
0000
,
0110
1001
0000
1001
,
0010
0000
0000
1010
0000
0000
1001
0000
,
1000
1100
0000
0011
,
1000
0000
0000
0001
0000
0000
0100
0000
,
0000
0110
0000
1001
,
1000
0000
0000
0100
0000
0000
0010
0000
,
0001
1001
0000
1010
,
1000
0000
0000
0010
0000
0000
0100
0000
,
0001
1000
0000
0100
,
1000
0000
0000
0001
0000
0000
0010
0000
,
0001
1000
0000
0010
,
1000
0000
0000
0001
0000
0000
0100
0000
,
0001
1000
0000
0100
,
0010
0000
0000
0001
0000
0000
1000
0000
,
2002
0000
0000
3003
,
1000
0000
0000
0001
0000
0000
1000
0000
,
0010
0100
0000
0100
,
0001
0000
0000
1000
0000
0000
0001
0000
,
1000
0100
0000
1000
,
0100
0000
0000
1000
0000
0000
0001
0000
,
0010
0001
0000
1000
,
0001
0000
0000
0010
0000
0000
0100
0000
,
1000
0100
0000
1000
,
0001
0000
0000
0100
0000
0000
0001
0000
,
0010
0100
0000
1000
,
0100
0000
0000
1000
0000
0000
0001
0000
,
0010
0001
0000
1000
,
0100
0000
0000
1000
0000
0000
0001
0000
,
0010
0100
0000
1000
,
0001
0000
0000
0010
0000
0000
0001
0000
,
1000
0001
1000
0001
,
1000
0000
0000
1000
0000
0000
1000
0000
,
0010
0100
0010
0100
,
0010
0000
0000
0010
0000
0000
0010
0000
,
0100
0001
1000
0100
,
1000
0000
0000
0001
0000
0000
0010
0000
,
0100
1000
0100
1000
,
0001
0000
0000
0010
0000
0000
0100
0000
,
1000
0001
1000
0001
,
0100
0000
0000
0100
0000
0000
0100
0000
,
0010
1000
0000
0010
,
0100
0000
0000
0001
0000
0000
1000
0000
,
0100
1000
0000
0001
,
0010
0000
0000
0100
0000
0000
1000
0000
,
0001
0100
0000
0010
,
1000
0000
0000
0001
0000
0000
0100
0000
,
1001
0000
0000
0000
;

//---------------dance-single - Renard----------------
#NOTES:
     dance-single:
     Renard:
     Easy:
     2:
     0.230,0.422,0.039,0.000,0.000: // measure 1
0000
0000
0000
0000
,  // measure 2
0000
0000
0000
0000
,  // measure 3
0000
0000
0000
0000
,  // measure 4
0000
0000
0000
0000
,  // measure 5
0000
0000
0000
0000
,  // measure 6
0000
0000
0000
0000
,  // measure 7
0000
0000
0000
0000
,  // measure 8
0000
0000
0000
0000
,  // measure 9
1000
0000
1000
0000
,  // measure 10
0001
0000
0000
0001
0000
0000
0001
0000
,  // measure 11
0100
0000
0100
0000
,  // measure 12
0010
0000
0000
0010
0000
0000
0010
0000
,  // measure 13
1000
0000
1000
0000
,  // measure 14
0001
0000
0000
0001
0000
0000
0001
0000
,  // measure 15
0010
0000
0010
0000
,  // measure 16
0100
0000
0000
1000
0000
0000
0100
0000
,  // measure 17
1000
0000
1000
0000
,  // measure 18
0001
0000
0000
0001
0000
0000
0001
0000
,  // measure 19
1000
0000
1000
0000
,  // measure 20
0001
0000
0000
0001
0000
0000
0001
0000
,  // measure 21
0100
0000
0100
0000
,  // measure 22
0001
0000
0000
0001
0000
0000
0001
0000
,  // measure 23
0010
0000
0010
0000
,  // measure 24
0100
0000
0000
1000
0000
0000
0100
0000
,  // measure 25
1000
0000
1000
0000
,  // measure 26
0001
0000
0000
0001
0000
0000
0001
0000
,  // measure 27
1000
0000
1000
0000
,  // measure 28
0001
0000
0000
0001
0000
0000
0001
0000
,  // measure 29
0010
0000
0010
0000
,  // measure 30
0100
0000
0000
0100
0000
0000
0100
0000
,  // measure 31
1000
0000
0001
0000
,  // measure 32
0100
0000
0000
0001
0000
0000
1000
0000
,  // measure 33
0100
0000
0100
0000
,  // measure 34
0010
0000
0000
0010
0000
0000
0010
0000
,  // measure 35
0001
1000
0000
0001
,  // measure 36
1000
0000
0000
0001
0000
0000
0100
0000
,  // measure 37
0001
0000
1000
0000
,  // measure 38
0001
0000
0000
0010
0000
0000
0010
0000
,  // measure 39
0001
0000
1000
0000
,  // measure 40
0001
0000
0000
1000
0000
0000
0001
0000
,  // measure 41
0100
0000
0100
0000
,  // measure 42
0001
0000
0000
0001
0000
0000
0001
0000
,  // measure 43
0000
1000
0000
0000
,  // measure 44
0100
0000
0000
0010
0000
0000
0001
0000
,  // measure 45
1000
0000
1000
0000
,  // measure 46
0001
0000
0000
0100
0000
0000
0001
0000
,  // measure 47
0000
0010
0000
0000
,  // measure 48
0001
0000
0000
1000
0000
0000
0100
0000
,  // measure 49
0010
0000
0001
0000
,  // measure 50
1000
0000
0000
0010
0000
0000
0100
0000
,  // measure 51
0000
0001
0000
0000
,  // measure 52
1000
0000
0000
0100
0000
0000
0010
0000
,  // measure 53
0001
0000
1000
0000
,  // measure 54
0010
0000
0000
0010
0000
0000
0010
0000
,  // measure 55
0000
0100
0000
0000
,  // measure 56
0001
0000
0000
0001
0000
0000
1000
0000
,  // measure 57
0001
0001
0000
1000
,  // measure 58
0100
0000
0000
0100
0000
0000
0100
0000
,  // measure 59
0010
0010
0000
0010
,  // measure 60
0001
0000
0000
0001
0000
0000
0001
0000
,  // measure 61
1000
0000
0100
0000
,  // measure 62
1000
0000
0000
1000
0000
0000
1000
0000
,  // measure 63
0001
0000
0010
0000
,  // measure 64
0100
0000
0000
1000
0000
0000
0001
0000
,  // measure 65
0010
0000
0001
0000
,  // measure 66
1000
0000
0000
1000
0000
0000
1000
0000
,  // measure 67
0000
0001
0000
0010
,  // measure 68
0000
0010
0010
0000
,  // measure 69
0100
0000
0100
0000
,  // measure 70
1000
0000
0000
1000
0000
0000
1000
0000
,  // measure 71
0001
0010
0001
0010
,  // measure 72
0110
0000
0000
1001
0000
0000
0110
0000
,  // measure 73
1001
0000
0000
0000
;
