#TITLE:Kill Bella Donna;
#SUBTITLE:;
#ARTIST:Belladonnakillz;
#TITLETRANSLIT:;
#SUBTITLETRANSLIT:;
#ARTISTTRANSLIT:;
#CREDIT:;
#BANNER:kill.png;
#BACKGROUND:kill-bg.png;
#LYRICSPATH:;
#CDTITLE:;
#MUSIC:kill.ogg;
#OFFSET:0.000;
#SAMPLESTART:35.294;
#SAMPLELENGTH:12.000;
#SELECTABLE:YES;
#BPMS:0.000=170.000;
#STOPS:;
#BGCHANGES:;

//---------------dance-single - Renard----------------
#NOTES:
     dance-single:
     Renard:
     Hard:
     8:
     0.587,0.600,0.437,0.087,0.000:
0000
0000
0000
0000
,
1000
0000
0001
0000
0100
0001
0100
0000
,
0001
0000
1000
0000
0100
1000
0100
0000
,
1000
0000
0001
0000
0010
0001
0010
0000
,
0001
0000
1000
0000
0010
1000
0010
0000
,
1000
0000
0001
0000
0100
0001
0100
0000
,
0001
0000
1000
0000
0100
1000
0100
0000
,
1000
0000
0001
0010
0001
0000
1000
0010
,
1000
1001
0110
1001
,
1000
0100
0010
0000
0001
0010
0100
0000
,
1000
0000
0010
0000
0100
0000
0001
0100
,
0010
1000
0010
0000
1000
0100
1000
0000
,
0001
0010
0100
1000
0010
0100
0001
0000
,
0001
0100
1000
0000
1000
0100
0001
0000
,
0001
0010
1000
0000
1000
0010
0001
0000
,
0001
1000
0010
0100
0001
0010
0100
1000
,
0010
0000
0010
0100
0000
0100
0001
0000
,
2002
0000
0000
0000
0000
0000
0000
3003
,
0000
0000
0000
0110
,
0220
0000
0000
0000
,
0330
0000
0000
1001
,
2200
0000
0000
0000
0000
0000
0000
3300
,
0000
0000
0000
0011
,
2002
0000
0000
0000
,
0020
0000
0000
3033
,
1000
0001
0101
0000
0001
1000
1100
0000
,
1000
0001
0010
0100
1000
0010
0100
0000
,
0001
0100
0101
0000
1000
0100
1100
0000
,
1000
0100
0010
0001
0010
0100
1000
0000
,
1000
0010
1010
0000
0001
0010
0011
0000
,
0001
0010
0100
1000
0010
0100
0001
0000
,
0001
0100
0101
0000
0001
1000
1001
0000
,
1001
0000
0010
0100
0000
0110
1001
0000
,
1000
0000
0001
0000
0100
0001
0100
0000
,
0001
0000
1000
0000
0100
1000
0100
0000
,
1000
0000
0001
0000
0010
0001
0010
0000
,
0001
0000
1000
0000
0010
1000
0010
0000
,
1000
0000
0100
0000
1000
0100
1000
0000
,
0001
0000
0100
0000
0001
0100
0001
0000
,
1000
0000
0001
0000
0010
0001
0010
0000
,
0001
0000
0001
1000
0000
1000
0010
0000
,
1000
0000
0010
0000
0100
0001
1000
0000
,
0100
0000
1000
0000
0001
0010
1000
0000
,
0010
0000
0001
0000
0100
1000
0100
0000
,
0001
0010
1000
0000
1000
0010
0100
0000
,
1000
0000
0010
0000
0100
0001
0100
0000
,
0010
1000
0010
0000
0100
0001
0100
0000
,
1000
0100
0001
0010
1000
0010
0100
1000
,
0010
0100
0001
0100
0010
1000
0001
0000
,
1001
0000
0001
0100
0000
0001
1000
0000
,
1100
0000
1000
0001
0000
1000
0001
0000
,
0011
0000
0001
1000
0000
0010
1000
0000
,
1100
0000
0001
0010
0000
0100
1000
0000
,
1010
0000
0010
0100
0000
0001
1000
0000
,
1100
0000
0001
0010
0000
0100
1000
0000
,
0011
0000
0100
1000
0000
0010
1000
0000
,
0001
0000
0100
0001
0000
1000
0001
0000
,
1001
0000
1100
0000
1000
0001
0010
0000
,
0100
1000
0010
0100
0001
1000
0001
0000
,
0101
0000
1001
0000
1000
0100
1000
0000
,
0001
0010
0100
1000
0010
0100
0001
0000
,
0101
0000
1001
0000
0011
0000
0001
0010
,
0100
1000
0010
0100
0001
0100
0010
0000
,
0110
0000
1010
0000
1000
0100
0010
0000
,
0001
0010
0100
1000
0010
0100
0001
0000
,
0101
0000
0110
0000
0010
1000
0100
0000
,
1000
0001
0010
0100
1000
0010
0100
0000
,
0001
0100
0010
0000
1000
0010
0100
0000
,
0101
0000
0110
0000
0000
1100
0000
0110
,
0101
0000
0110
0000
0010
0100
0001
0000
,
0010
0100
0001
0010
0000
1000
0010
0000
,
0100
0001
0100
0010
1000
0010
0001
0010
,
0100
1000
0010
0100
0000
0100
0010
0000
;

//---------------dance-single - Renard----------------
#NOTES:
     dance-single:
     Renard:
     Medium:
     5:
     0.326,0.353,0.087,0.000,0.000:
0000
0000
0000
0000
,
0000
0000
0000
0000
,
0000
0000
0000
0000
,
0000
0000
0000
0000
,
0000
0000
0000
0000
,
0000
0000
0000
0000
,
0000
0000
0000
0000
,
0000
0000
0000
0000
,
0000
0000
0000
0000
,
1000
0000
0001
0100
,
0001
0000
1000
0000
0100
0000
0010
0001
,
0000
0000
0010
0100
,
1000
0000
0010
0100
,
0001
0000
1000
0100
,
1000
0000
0001
0000
0010
0000
0001
1000
,
0000
0000
0001
0100
,
0010
1000
0100
0110
,
0110
0000
0000
0000
,
0000
0000
0000
1001
,
1001
0000
0000
0000
,
0000
0000
0000
0110
,
0110
0000
0000
0000
,
0000
0000
0000
1001
,
0110
0000
0000
0000
,
1001
0000
0000
0000
,
1000
0000
0100
0000
0000
1000
0100
0000
,
1000
0000
0000
0001
0000
0000
0010
0000
,
0001
0000
0100
0000
0000
0001
1000
0000
,
0001
0000
0000
0010
0000
0000
0100
0000
,
1000
0000
0100
0000
0000
1000
0010
0000
,
1000
0000
0000
0001
0000
0000
0100
0000
,
0001
0000
0010
0000
0000
0100
1000
0000
,
0001
0100
0001
1000
,
0100
0000
0010
0000
0000
0001
0010
0000
,
0100
0000
1000
0000
0001
0000
0100
0010
,
1000
0000
0010
0100
,
0001
1000
0100
0010
,
0001
0000
0010
0000
0000
0100
1000
0000
,
0010
0000
0100
0000
0001
0000
1000
0100
,
1000
0001
0010
0001
,
1000
0001
0100
0001
,
1000
0000
0100
0000
0000
1000
0001
0000
,
1000
0000
0001
0000
0100
0000
0010
1000
,
0010
1000
0001
0100
,
0001
0000
1000
0100
,
0010
0000
0001
0010
,
0100
0000
1000
0000
0001
0000
0100
0001
,
0100
0001
1000
0100
,
0010
0000
0000
0001
0000
0000
1000
0000
,
0001
0000
0100
0000
0000
0001
1000
0000
,
0001
0000
1000
0000
0000
0001
1000
0000
,
0100
0000
1000
0000
0000
0100
1000
0000
,
0001
1000
0010
1000
,
0001
0000
1000
0000
0000
0001
1000
0000
,
0010
0000
0100
0000
0000
0010
0100
0000
,
0010
1000
0001
0100
,
0010
0000
1000
0001
,
0100
0000
0001
1000
,
0100
0000
0010
0000
0001
1000
0001
0000
,
1000
0000
0010
0100
,
0001
0000
1000
0000
0100
0000
0010
0001
,
0010
0000
0100
1000
,
0010
0000
0100
0000
0001
0000
1000
0001
,
1000
0000
0010
0100
,
0001
1000
0100
1000
,
0001
0000
0100
0000
0000
0001
1000
0000
,
0001
0010
0100
1000
,
0001
1000
0001
0000
1000
0000
0010
0000
,
0100
0000
0001
0000
1000
0000
0100
1000
,
0100
1000
0001
0010
,
0100
0000
1000
0000
0001
0000
0100
0001
,
0100
0001
0000
0000
0100
0000
0001
0000
,
1000
0000
0100
1000
0000
0100
1000
0000
;

//---------------dance-single - Renard----------------
#NOTES:
     dance-single:
     Renard:
     Easy:
     2:
     0.209,0.247,0.000,0.039,0.000: // measure 1
0000
0000
0000
0000
,  // measure 2
0000
0000
0000
0000
,  // measure 3
0000
0000
0000
0000
,  // measure 4
0000
0000
0000
0000
,  // measure 5
0000
0000
0000
0000
,  // measure 6
0000
0000
0000
0000
,  // measure 7
0000
0000
0000
0000
,  // measure 8
0000
0000
0000
0000
,  // measure 9
0000
0000
0000
0000
,  // measure 10
1000
0000
0000
0001
,  // measure 11
0100
0010
1000
0000
,  // measure 12
0010
0000
0000
0000
,  // measure 13
0100
0000
0000
0000
,  // measure 14
0001
0000
0000
0010
,  // measure 15
0100
1000
0010
0000
,  // measure 16
0100
0000
0000
0000
,  // measure 17
0001
0000
0000
1000
,  // measure 18
0002
0000
0000
0000
,  // measure 19
0000
0000
0000
0103
,  // measure 20
0020
0000
0000
0000
,  // measure 21
0000
0000
0000
1030
,  // measure 22
0200
0000
0000
0000
,  // measure 23
0000
0000
0000
0000
,  // measure 24
0320
0000
0000
0000
,  // measure 25
0031
0000
0000
0000
,  // measure 26
0001
0000
0010
0000
,  // measure 27
0100
1000
0100
1000
,  // measure 28
0010
0000
0100
0000
,  // measure 29
0001
1000
0001
1000
,  // measure 30
0010
0000
0100
0000
,  // measure 31
0001
1000
0001
1000
,  // measure 32
0001
0000
0010
0000
,  // measure 33
0100
1000
0100
1000
,  // measure 34
0001
0000
0100
0000
,  // measure 35
0001
1000
0100
0000
,  // measure 36
0010
0000
0001
0000
,  // measure 37
1000
0000
0010
0000
,  // measure 38
0100
0000
0001
0000
,  // measure 39
1000
0100
0010
0000
,  // measure 40
0001
0000
1000
0000
,  // measure 41
0010
0000
0100
0000
,  // measure 42
0001
0000
1000
0000
,  // measure 43
0100
0010
0001
0000
,  // measure 44
1000
0000
0010
0000
,  // measure 45
0100
0000
0001
0000
,  // measure 46
1000
0000
0100
0000
,  // measure 47
0010
0001
1000
0000
,  // measure 48
0001
0000
0100
0000
,  // measure 49
0010
1000
0010
1000
,  // measure 50
0001
0000
0100
0000
,  // measure 51
0001
0000
1000
0000
,  // measure 52
0010
0000
0100
0000
,  // measure 53
0001
0000
1000
0000
,  // measure 54
0100
0000
0010
0000
,  // measure 55
0001
0000
1000
0000
,  // measure 56
0010
0000
0100
0000
,  // measure 57
0001
0000
1000
0001
,  // measure 58
0100
0000
0001
1000
,  // measure 59
0100
0000
1000
0001
,  // measure 60
0100
0000
0001
1000
,  // measure 61
0100
0000
1000
0001
,  // measure 62
0100
0000
0001
1000
,  // measure 63
0100
0000
1000
0001
,  // measure 64
0100
0000
0001
0000
,  // measure 65
1000
0000
0001
1000
,  // measure 66
0010
0000
1000
0001
,  // measure 67
0010
0000
0001
1000
,  // measure 68
0010
0000
1000
0001
,  // measure 69
0010
0000
0001
1000
,  // measure 70
0010
0000
1000
0001
,  // measure 71
0010
0000
0001
1000
,  // measure 72
0001
0000
0100
0000
,  // measure 73
0010
0000
1000
0001
;
