#TITLE:Kick the Bucket;
#SUBTITLE:;
#ARTIST:Mindless Self Indulgence;
#TITLETRANSLIT:;
#SUBTITLETRANSLIT:;
#ARTISTTRANSLIT:;
#CREDIT:;
#BANNER:bucket.png;
#BACKGROUND:bucket-bg.png;
#LYRICSPATH:;
#CDTITLE:;
#MUSIC:bucket.ogg;
#OFFSET:0.000;
#SAMPLESTART:39.984;
#SAMPLELENGTH:12.000;
#SELECTABLE:YES;
#BPMS:0.000=107.895;
#STOPS:;
#BGCHANGES:;

//---------------dance-single - Renard----------------
#NOTES:
     dance-single:
     Renard:
     Challenge:
     9:
     0.675,0.741,0.933,0.147,0.487:
0000
0000
0000
0000
,
0000
0000
0000
0000
,
1001
0000
1001
0000
1001
0000
0000
0000
0010
0100
0010
0100
0010
0000
0100
0000
,
0110
0000
0110
0000
0110
0000
0000
0000
0001
1000
0001
1000
0001
0000
1000
0000
,
1001
0000
1100
0000
0000
0000
0011
0000
1001
0000
0000
0000
0001
0100
0010
1000
,
1100
1100
0000
1001
1001
0000
1010
0000
,
1100
0000
1100
0000
1100
0000
0000
0000
0001
0010
0100
1000
0001
0000
1000
0000
,
1001
0000
1001
0000
1001
0000
0000
0000
0010
0100
0001
1000
0100
0000
1000
0000
,
0011
0000
1100
0000
0000
0000
1010
0000
0101
0000
0000
0000
0001
1000
0100
1000
,
1100
1100
0000
0011
0011
0000
1001
0000
,
1001
1001
1001
1001
1001
1001
1001
1001
,
0110
0110
0110
0110
1001
1001
1001
1001
,
0001
1000
0100
0010
0001
0010
0100
0000
0000
0000
0100
0000
1100
0000
0000
0000
,
1000
0010
0100
0001
0100
0010
1000
0000
0000
0000
1100
0000
1100
0000
0000
0000
,
2002
0000
0010
0000
0100
0000
0010
0003
,
0200
0000
0010
0000
0001
0000
0010
3310
,
0000
0000
0000
0000
1000
0100
0010
0000
0000
0001
0010
0100
1000
0010
0100
0000
,
0000
0001
0100
0010
1000
0100
0010
0000
0000
0100
1000
0010
0100
0001
0100
0000
,
0101
0110
1100
0110
,
0202
0000
0010
0000
1000
0310
2000
0000
,
3113
0000
0000
0000
0001
0100
0010
0000
0000
0000
1000
0100
0010
0001
0010
0000
,
0000
0100
1000
0010
0100
0001
0100
0000
0000
0001
1000
0100
0010
0001
0010
0000
,
0000
0100
1000
0001
0100
0010
1000
0000
0000
1000
0010
0100
0001
0100
0010
0000
,
0000
0010
1000
0100
0010
0001
0010
0100
1000
0001
0100
0010
1000
0100
1000
0001
,
1001
0000
1001
0000
1001
0000
0000
0000
0010
0100
0001
1000
0100
0000
1000
0000
,
0011
0000
1100
0000
1001
0000
0000
0000
0001
0100
0010
1000
0100
0000
1000
0000
,
1100
0000
1001
0000
1000
0010
0100
0000
0001
0000
0100
0000
1001
0000
1000
0100
,
1000
0000
1001
0000
0010
0000
0001
1000
0010
0000
1000
0000
1001
0000
1000
0000
,
0101
0101
0110
0110
1100
1100
0110
0110
,
0001
0100
0001
0100
0010
0100
0010
0100
1000
0100
0010
0100
0001
0100
0001
1000
,
0100
0000
1000
0000
1100
0000
0001
0010
0100
0000
1000
0000
1100
0000
1000
0010
,
0100
0000
0001
0000
0101
0000
0001
0100
0010
1000
0100
0000
1100
0000
0001
0000
,
2002
0000
0000
0000
0010
0000
0000
0000
0100
0000
0000
0000
0010
0003
0000
0000
,
0020
0030
0200
0000
0001
0000
0010
3301
,
0000
1000
0001
0100
0010
1000
0100
0000
0000
0010
0001
0100
0010
1000
0100
0000
,
0000
0010
0001
1000
0010
0100
0001
0000
0000
1000
0100
0010
0001
0100
0010
0000
,
1002
0000
0000
0000
0200
0000
0000
0000
0010
0000
0000
0000
1000
0300
0000
0000
,
2000
0000
0010
0000
0100
0000
0010
0200
,
3003
0000
M0MM
M00M
M30M
M00M
MMMM
0000
,
0001
1000
0100
0000
1100
0000
1000
0001
0010
0100
1000
0000
1001
0000
0001
0000
,
0100
0010
0100
0000
0110
0000
0010
1000
0100
1000
0001
0000
1001
0000
0001
0100
,
0010
0000
1000
0000
1100
0000
1000
0001
0010
0100
1000
0000
1001
0000
0001
0000
,
1001
0000
1001
0000
0010
1000
0001
0000
1000
0000
0100
0000
1000
0100
0000
0000
;

//---------------dance-single - Renard----------------
#NOTES:
     dance-single:
     Renard:
     Hard:
     8:
     0.556,0.741,0.556,0.377,0.168:
0000
0000
0000
0000
,
0000
0000
0000
0000
,
1000
0000
0001
0000
1000
0000
0000
0000
0010
0100
0010
0000
0100
0000
0001
0000
,
1000
0100
1000
0000
0001
0000
0000
0000
0010
0100
0010
0000
0100
0000
1000
0000
,
0001
1001
0000
0100
0110
0000
1010
0000
,
1000
1001
0000
0010
0110
0000
1100
0000
,
1000
0000
1000
0000
0001
0000
0000
0000
0100
0010
0100
0000
0010
0000
0100
0000
,
0001
1000
0001
0000
1000
0000
0000
0000
0100
0010
0100
0000
0010
0000
0001
0000
,
1000
0001
0000
0110
0110
0000
1001
0000
,
1000
0100
0000
0011
0011
0000
1100
0000
,
1001
1001
0110
0110
1001
1001
0110
0110
,
1001
0000
1001
0000
0110
0000
0110
0000
0001
1000
0001
1000
0001
0000
1000
0000
,
0010
0000
0100
0000
0001
0000
1000
0100
0000
0000
0010
0000
0001
0000
0010
0000
,
0100
0000
1000
0000
0001
0000
0100
0010
0000
0000
0100
0000
0001
0000
1000
0000
,
1200
0000
0002
0003
0020
0030
2000
3000
,
2000
3000
0020
0030
0002
0303
2000
0200
,
3000
0000
1300
0000
0100
1000
0100
0000
0000
0000
1000
0000
0001
1000
0001
0000
,
0000
0000
0100
0000
0001
0100
0001
0000
0000
0000
0001
0000
0010
0001
0010
0000
,
0002
0000
0000
0000
0203
0000
0000
0000
0320
0000
0000
0030
2000
0000
0000
0000
,
3200
0000
0000
0000
0302
0000
0000
0003
0200
0000
2000
0000
0000
0300
0000
0000
,
3010
0000
0100
0000
0001
1000
0001
0000
0100
0000
0010
0000
1000
0001
1000
0000
,
0010
0000
0100
0000
0001
1000
0001
0000
0100
0000
0010
0000
1000
0001
1000
0000
,
0001
0001
1000
1000
0001
0001
0010
0010
,
0100
1000
0100
0000
1000
0001
1000
0000
0001
0100
0001
0000
0100
0000
0001
0000
,
1000
0000
1000
0000
1000
0000
0000
0000
0001
0010
0001
0000
0010
0000
0001
0000
,
1000
0000
1000
0000
0001
0000
0000
0000
0100
0010
0100
0000
0010
0000
0100
0000
,
0001
0010
0100
1000
0010
0000
1010
0000
,
1000
0010
0100
0001
0010
0000
0011
0000
,
0011
0011
0110
0110
1100
1100
1001
1001
,
0101
0101
0110
0110
1010
1010
1001
1001
,
1000
0000
0100
0000
0010
0000
0001
0010
0000
0000
0100
0000
1100
0000
0000
0000
,
1000
0000
0010
0000
0100
0000
0001
1000
0000
0000
0000
0000
1001
0000
0000
0000
,
0002
0203
0320
2030
,
3200
0000
0000
0000
0302
0000
0000
0000
0203
0000
0000
0300
2000
0000
0020
0000
,
0000
3030
0100
0000
0001
0100
0001
0000
0000
0000
0100
0000
0010
1000
0010
0000
,
0000
0000
1000
0000
0100
1000
0100
0000
0000
0000
1000
0000
0001
0010
0001
0000
,
2000
3002
0203
0320
,
2030
0000
3002
0000
0023
0000
0130
2000
,
0002
0000
0000
0000
0000
3000
0000
0000
0200
0000
0000
0000
0000
0000
0303
0000
,
0100
0000
0001
0000
0101
0000
0001
1000
0100
0000
0000
0000
1100
0000
0000
0000
,
1000
0000
0001
0000
1001
0000
0001
0010
0001
0000
0000
0000
0011
0000
0000
0000
,
0001
0010
0001
0010
0100
0010
0100
1000
,
1001
0000
1001
0000
0000
0000
0110
0000
0110
0000
1000
0000
0010
1000
0000
0000
;

//---------------dance-single - Renard----------------
#NOTES:
     dance-single:
     Renard:
     Medium:
     5:
     0.416,0.426,0.273,0.315,0.000:
0000
0000
0000
0000
,
0000
0000
0000
0000
,
0101
0101
0101
0000
0010
0100
0001
0000
,
1100
1100
1100
0000
1000
0010
0100
0000
,
0001
0001
0000
1000
1000
0000
0020
0000
,
0130
0100
0000
0001
0001
0000
1000
0000
,
0100
0100
0100
0000
0010
0010
0010
0000
,
0001
0001
0001
0000
1000
1000
1000
0000
,
0010
0010
0000
0100
0100
0000
0002
0000
,
1003
1000
0000
0100
0100
0000
0020
0000
,
0031
0010
0001
0010
0001
0010
0001
0010
,
0100
1000
0100
1000
0001
1000
0001
1000
,
0001
0100
0010
1000
0001
0000
1001
0000
,
1000
0100
0010
0001
1000
0000
1001
0000
,
0002
0203
2300
3200
,
0302
0000
0023
0000
0230
0000
2300
0200
,
0300
3000
1100
0000
1000
0000
0101
0000
,
1000
0011
1000
0101
,
2000
3002
0023
0230
,
2300
0000
3020
0000
0230
0002
0300
0000
,
0020
0003
0130
0000
1000
0000
0010
0100
,
0001
0000
0100
0000
0010
0000
1000
0100
,
0010
0000
0001
1000
0001
0000
0100
0010
,
0100
0100
0001
0001
1000
0100
0010
0001
,
1000
0001
1000
0000
0010
0010
0010
0010
,
0100
0001
0100
0000
0010
0010
0010
0010
,
1000
0010
0000
0100
0001
0000
1001
0000
,
1000
1000
0000
0100
0010
0000
0001
0000
,
0010
0100
0010
0100
1000
0100
1000
0100
,
0010
0001
0010
0001
1000
0001
1000
0001
,
0100
0010
1000
0001
0100
0000
1001
0000
,
1000
0100
0010
0001
1000
0000
1010
0000
,
1001
1001
0101
0101
,
1100
0000
0110
0000
0101
0000
0001
0100
,
0000
0001
1000
0100
0000
1000
0100
1000
,
0000
0001
0010
0001
0000
1000
0010
1000
,
0002
0203
2300
3200
,
0302
0000
0023
0000
2030
0000
3020
0002
,
0000
0000
0000
0033
,
0010
0000
0110
0000
0100
1000
0001
0000
,
0100
0000
0110
0000
0010
1000
0001
0000
,
1000
0000
1100
0000
0010
0001
1000
0000
,
0010
0100
0000
0001
1000
0000
0110
0000
;

//---------------dance-single - Renard----------------
#NOTES:
     dance-single:
     Renard:
     Easy:
     2:
     0.208,0.224,0.021,0.147,0.000: // measure 1
0000
0000
0000
0000
,  // measure 2
0000
0000
0000
0000
,  // measure 3
1000
0000
1000
0000
0001
0100
0001
0000
,  // measure 4
1000
1000
0001
0001
,  // measure 5
1000
0000
0000
0001
0000
0000
1000
0000
,  // measure 6
0001
0000
0000
1000
0000
0000
0001
0000
,  // measure 7
1000
0010
1000
0000
0000
0000
0000
0000
,  // measure 8
0001
0010
0001
0000
0000
0000
0000
0000
,  // measure 9
1000
0000
0000
0001
0000
0000
1001
0000
,  // measure 10
0001
0000
0000
1000
0000
0000
1001
0000
,  // measure 11
0001
0001
1000
1000
,  // measure 12
0001
1000
0001
1000
,  // measure 13
0010
0000
0000
0100
0000
0000
0000
0000
,  // measure 14
0001
0000
0000
1000
0000
0000
0000
0000
,  // measure 15
0200
0000
0320
0000
,  // measure 16
0032
0000
0000
0000
2003
0000
0000
3020
,  // measure 17
0000
0130
0100
0100
,  // measure 18
0000
0010
0010
0010
,  // measure 19
2000
0000
3002
0000
,  // measure 20
0023
0000
0230
0000
,  // measure 21
2300
3010
0010
0010
,  // measure 22
0000
0100
0100
0100
,  // measure 23
0001
0001
1000
1000
,  // measure 24
0001
0000
1000
0000
0001
0000
1000
0001
,  // measure 25
1000
1000
0000
0000
,  // measure 26
0001
0001
0000
0000
,  // measure 27
0010
0000
0000
0100
0000
0000
1000
0000
,  // measure 28
0001
0000
0000
0010
0000
0000
0100
0000
,  // measure 29
0010
0010
0001
0001
,  // measure 30
1000
0001
1000
0001
,  // measure 31
1000
0000
0000
0001
0000
0000
0000
0000
,  // measure 32
0100
0000
0000
0010
0000
0000
0000
0000
,  // measure 33
1000
1000
0020
0000
,  // measure 34
0130
0000
0100
0000
0002
0000
0000
0003
,  // measure 35
0010
0001
0000
0001
,  // measure 36
1000
0100
0000
0100
,  // measure 37
0010
0001
0010
0000
,  // measure 38
0100
1000
0100
0000
,  // measure 39
2000
0000
3020
0000
,  // measure 40
0130
0000
0000
0001
0000
0000
0000
0000
,  // measure 41
1000
0000
0000
0100
0000
0000
0000
0000
,  // measure 42
0010
0000
0000
0001
0000
0000
0000
0000
,  // measure 43
1000
1000
0000
0001
0001
0000
0100
0000
;
