#TITLE:Kick Back;
#SUBTITLE:;
#ARTIST:Emoticon;
#TITLETRANSLIT:;
#SUBTITLETRANSLIT:;
#ARTISTTRANSLIT:;
#CREDIT:;
#BANNER:kick.png;
#BACKGROUND:kick-bg.png;
#LYRICSPATH:;
#CDTITLE:;
#MUSIC:kick.ogg;
#OFFSET:0.000;
#SAMPLESTART:55.814;
#SAMPLELENGTH:12.000;
#SELECTABLE:YES;
#BPMS:0.000=172.000;
#STOPS:;
#BGCHANGES:;

//---------------dance-single - Renard----------------
#NOTES:
     dance-single:
     Renard:
     Hard:
     9:
     0.704,0.763,0.638,0.059,0.093:
0000
0000
0000
0000
,
0000
0000
0000
0000
,
0000
0000
0000
0000
,
0000
0000
0000
0000
,
0001
1000
0010
1000
0100
1000
0001
0010
,
1000
0010
1000
0010
0100
1000
0100
1000
,
0001
1000
0010
1000
0100
1000
0020
0002
,
0000
0000
1133
0000
,
1010
0000
0101
0000
0001
0010
0100
1000
,
0000
1100
0000
1000
0010
0000
0101
0000
,
0011
0000
0110
0000
1100
0000
0001
1000
,
0000
1010
0000
0001
0100
0000
0110
0000
,
1010
0000
1001
0000
1100
0000
0100
0010
,
0000
0110
0000
0100
1000
0000
1001
0000
,
0101
0000
1010
0000
0101
0000
0100
0010
,
2000
0000
0000
0000
,
3001
0000
0100
0000
0001
0000
0100
0000
0001
0100
0001
0000
0100
0000
0001
0000
,
0100
0000
0010
0000
0100
0000
0010
0000
0100
0010
0100
0000
0010
0000
0100
0000
,
0010
0000
1000
0000
0010
0000
1000
0000
0010
1000
0010
0000
1000
0000
0100
0000
,
1000
0000
0100
0000
1000
0000
0100
0000
1000
0100
1000
0000
0100
0000
1000
0000
,
0100
0000
0010
0000
0100
0000
0010
0000
0100
0010
0100
0000
0010
0000
0100
0000
,
0010
0000
0001
0000
0010
0000
0001
0000
0010
0001
0010
0000
0001
0000
0010
0000
,
0001
0000
1000
0000
0001
0000
1000
0000
0001
1000
0001
0000
1000
0000
0001
0000
,
0200
1000
0002
1313
,
1010
0000
0101
0000
1010
0000
0001
0100
,
0110
0000
0000
0000
1010
0000
0000
0000
1001
0000
0000
1000
0000
0000
0100
0000
,
0010
0000
0110
0000
1100
0000
0001
0010
,
0100
0000
0000
0000
0110
0000
0000
0000
1100
0000
0000
0001
0000
0000
1000
0000
,
0010
0000
0101
0000
0110
0000
0010
1000
,
1010
0000
0000
0000
0101
0000
0000
0000
1001
0000
0000
1000
0000
0000
0100
0000
,
0010
0010
0001
0000
0010
0000
1000
0000
,
0010
0100
1000
0001
1000
0000
1001
0000
,
0001
1000
0010
1000
0100
1000
0001
0010
,
1000
0010
1000
0010
0100
1000
0100
1000
,
0001
1000
0010
1000
0100
1000
0001
0010
,
1000
0010
1000
0001
0100
1000
0010
1000
,
0001
1000
0010
1000
0100
1000
0001
0010
,
1000
0010
1000
0001
0100
1000
0001
1000
,
0010
1000
0001
1000
0100
1000
0001
0010
,
0001
0100
1000
0100
0001
1000
0100
0000
,
0101
0000
1100
0000
1000
0010
0100
0001
,
0000
0101
0000
0010
1000
0000
0101
0000
,
1001
0000
1100
0000
0110
0000
0001
0010
,
0000
0110
0000
0100
1000
0000
1001
0000
,
1010
0000
0101
0000
0011
0000
0010
0100
,
0000
1100
0000
0001
0010
0000
0011
0000
,
1001
0000
1010
0000
0101
0000
0100
0010
,
0000
1010
0000
0001
0100
0000
0110
0000
,
1001
0000
1100
0000
0110
0000
0001
0010
,
0000
0110
0000
0100
1000
0001
0100
0000
,
0110
0000
1010
0000
1001
0000
0001
0100
,
0010
0010
1000
1000
0001
0000
1001
0000
,
0001
0100
0010
0100
1000
0100
0010
0100
,
0001
0010
0100
0010
1000
0010
0001
0010
,
0001
0100
0010
1000
0001
0100
0010
1000
,
0001
0001
1000
1000
0001
0000
1001
0000
,
0001
1000
0010
1000
0100
0010
0001
0010
,
0000
0010
0100
1000
0010
0100
0001
0100
,
0010
0010
1000
0000
0100
0000
0010
0000
,
0001
0000
0010
0100
1000
0010
0001
0000
,
0011
0000
0001
0010
1000
0100
0001
0100
,
0000
1100
0000
1000
0010
0000
0100
0001
,
0100
0000
0010
0000
1000
0000
0000
0000
0001
0000
0000
0000
0100
0000
0000
0100
,
0001
0100
0001
0000
0100
0000
0010
0000
1000
0010
1000
0010
1000
0000
0010
0000
,
0000
0001
0010
0001
0100
0001
0010
0100
,
1000
0010
0100
0001
0100
0010
1000
0100
,
0100
0000
0010
0000
0010
0000
0001
0000
0001
0000
1000
0000
1000
0001
1000
0001
,
1000
0001
1000
0000
0001
0000
1000
0000
0010
0100
0010
0100
0010
0000
0100
0000
,
0010
1000
0010
0001
0010
0100
0001
1000
,
0100
0010
0001
1000
0001
0100
0010
1000
,
0001
0100
0010
2000
0010
0000
3010
0000
;

//---------------dance-single - Renard----------------
#NOTES:
     dance-single:
     Renard:
     Medium:
     6:
     0.392,0.382,0.000,0.039,0.000:
0000
0000
0000
0000
,
0000
0000
0000
0000
,
0000
0000
0000
0000
,
0000
0000
0000
0000
,
1000
0000
0001
0000
1000
0000
0010
0100
,
0000
0010
0000
0000
1000
0000
0001
0000
,
1000
0100
0010
0001
,
2000
0000
0002
3003
,
1000
0000
0001
0000
0100
0000
0010
1000
,
0000
0001
0000
0000
0100
0000
0001
0000
,
0010
0000
0100
0000
1000
0000
0001
1000
,
0000
0010
0000
0000
0100
0000
0001
0000
,
1000
0000
0100
0000
0010
0000
0001
1000
,
0000
0001
0000
0000
0100
0000
0010
0000
,
1000
0000
0001
0000
0100
0000
0010
1000
,
0010
0000
0000
0000
,
1000
0000
0010
0000
1000
0000
0001
0100
,
0001
0000
0100
0000
0001
0000
0100
0001
,
0100
0000
0001
0000
0010
0000
0001
0010
,
0001
1000
0100
1000
,
0010
0000
1000
0000
0001
0000
1000
0001
,
1000
0000
0001
0000
1000
0000
0001
1000
,
0001
0100
0001
0010
,
0100
1000
1000
1000
,
1000
0000
0001
0000
0100
0000
0010
0100
,
0010
0000
1000
0000
0100
0000
0010
0100
,
0010
0000
0001
0000
0100
0000
0010
0100
,
0010
1000
0100
0010
,
0001
0000
1000
0000
0010
0000
0100
0010
,
0100
0000
0001
0000
0010
0000
0100
0010
,
0100
1000
0010
0100
,
0001
0001
1000
1000
,
0001
0000
0001
0000
0001
0000
0001
0100
,
0000
0100
0000
0000
0010
0000
1000
0000
,
0100
0000
0100
0000
0100
0000
0100
1000
,
0000
1000
0000
0000
0010
0000
0100
0000
,
0001
0000
1000
0000
0001
0000
1000
0001
,
0000
1000
0000
0000
0010
0000
0100
0000
,
0001
0000
1000
0000
0001
0000
1000
0001
,
0000
1000
0000
0000
0001
0000
0100
0000
,
0010
0000
0010
0000
1000
0000
0010
1000
,
0000
0010
0000
0000
0100
0000
0001
0000
,
1000
0000
0100
0000
0010
0000
0001
1000
,
0000
0001
0000
0000
0100
0000
0010
0000
,
1000
0000
0010
0000
1000
0000
0001
0100
,
0000
0001
0000
0000
1000
0000
0100
0000
,
0010
0000
0001
0000
1000
0000
0100
1000
,
0001
0000
0100
0010
,
1000
0000
0010
0000
0100
0000
0001
0100
,
0000
0001
0000
0000
1000
0000
0100
0000
,
0010
0000
0001
0000
1000
0000
0100
1000
,
0000
0100
0000
0000
1000
0000
0001
0000
,
0010
0000
0100
0000
1000
0000
0001
0100
,
0000
0001
0000
0000
1000
0000
0010
0000
,
0100
0001
1000
0100
,
0010
0010
0001
0001
,
0010
0000
0100
0000
1000
0000
0001
0100
,
0000
0001
0000
0000
1000
0000
0100
0000
,
0010
0001
1000
0010
,
0100
0000
0001
0000
1000
0001
1000
0000
,
0001
0000
0100
0000
0010
0000
1000
0010
,
0000
1000
0000
0000
0010
0000
0100
0000
,
0001
1000
0100
0010
,
0002
0000
2003
0000
,
3010
0000
0100
0000
0001
0000
1000
0100
,
0000
1000
0000
0000
0001
0000
0010
0000
,
0001
0001
1000
0010
,
0100
0000
0100
0000
0001
0000
1000
0001
,
1000
0001
0100
0010
,
1000
0100
0010
0001
,
1000
0001
1000
0001
0100
0000
0100
0000
;

//---------------dance-single - Renard----------------
#NOTES:
     dance-single:
     Renard:
     Easy:
     2:
     0.277,0.313,0.000,0.020,0.000: // measure 1
0000
0000
0000
0000
,  // measure 2
0000
0000
0000
0000
,  // measure 3
0000
0000
0000
0000
,  // measure 4
0000
0000
0000
0000
,  // measure 5
1000
0000
0000
0000
1000
0000
1000
0001
,  // measure 6
0000
0001
0000
0000
0000
0000
0000
0000
,  // measure 7
0001
0000
0000
0000
0001
0000
0001
1000
,  // measure 8
0000
0000
0000
0000
,  // measure 9
0001
0000
0000
0000
0001
0000
0000
0100
,  // measure 10
0000
0100
0000
0000
0010
0000
0000
0000
,  // measure 11
1000
0000
0000
0000
0100
0000
0000
0010
,  // measure 12
0000
0010
0000
0000
0001
0000
0000
0000
,  // measure 13
1000
0000
0000
0000
0010
0000
0000
0100
,  // measure 14
0000
0100
0000
0000
0001
0000
0000
0000
,  // measure 15
1000
0000
0000
0000
0100
0000
0000
0010
,  // measure 16
0000
0000
0000
0000
,  // measure 17
0001
0000
0001
0000
,  // measure 18
1000
0000
0000
0000
,  // measure 19
0010
0000
0010
0000
,  // measure 20
0100
0000
0000
0000
,  // measure 21
0001
0000
0001
0000
,  // measure 22
1000
0000
0000
0000
,  // measure 23
0100
0000
0100
0000
,  // measure 24
0010
0001
0001
0001
,  // measure 25
1000
0001
1000
0000
,  // measure 26
0001
1000
0001
0000
,  // measure 27
0100
0010
0100
0000
,  // measure 28
0010
0100
0010
0100
,  // measure 29
0010
1000
0010
1000
,  // measure 30
0001
0100
0001
0100
,  // measure 31
0001
1000
0100
0010
,  // measure 32
0001
1000
0001
1000
,  // measure 33
0001
0000
1000
0000
0100
0000
0000
1000
,  // measure 34
0000
1000
0000
0000
0000
0000
0000
0000
,  // measure 35
0001
0000
0010
0000
0100
0000
0000
1000
,  // measure 36
0000
1000
0000
0000
0000
0000
0000
0000
,  // measure 37
0100
0000
0010
0000
0100
0000
0000
0100
,  // measure 38
0000
0100
0000
0000
0000
0000
0000
0000
,  // measure 39
0010
0000
0100
0000
0010
0000
0000
0010
,  // measure 40
0000
0010
0000
0000
0001
0000
1000
0000
,  // measure 41
0001
0000
0100
0000
0001
0000
0000
1000
,  // measure 42
0000
0001
0000
0000
0100
0000
0001
0000
,  // measure 43
1000
0000
0100
0000
0010
0000
0000
0001
,  // measure 44
0000
1000
0000
0000
0001
0000
0100
0000
,  // measure 45
0010
0000
1000
0000
0001
0000
0000
1000
,  // measure 46
0000
0001
0000
0000
1000
0000
0100
0000
,  // measure 47
0010
0000
0001
0000
1000
0000
0000
0001
,  // measure 48
0000
0100
0000
0000
0001
0000
1000
0000
,  // measure 49
0100
0000
0010
0000
0001
0000
0000
1000
,  // measure 50
0000
0001
0000
0000
0100
0000
0001
0000
,  // measure 51
1000
0100
0010
0001
,  // measure 52
1000
0000
0001
0100
,  // measure 53
0001
1000
0100
0000
,  // measure 54
0010
0000
0001
1000
,  // measure 55
0001
0100
0010
1000
,  // measure 56
0001
0001
1000
1000
,  // measure 57
0001
0000
0100
0000
0010
0000
0000
1000
,  // measure 58
0000
1000
0000
0000
0010
0000
0100
0000
,  // measure 59
0001
0000
1000
0000
0100
0000
0000
0010
,  // measure 60
0000
0010
0000
0000
0001
0000
1000
0000
,  // measure 61
0010
0000
0100
0000
0001
0000
0000
1000
,  // measure 62
0000
1000
0000
0000
0001
0000
0010
0000
,  // measure 63
0100
0000
1000
0000
0001
0000
0000
0100
,  // measure 64
0000
0100
0000
0000
0001
0000
1000
0000
,  // measure 65
0100
0000
0000
0000
0100
0000
0000
0010
,  // measure 66
0000
0010
0000
0000
0001
0000
0000
0000
,  // measure 67
1000
0000
0000
0000
1000
0000
0000
0010
,  // measure 68
0000
0010
0000
0000
0100
0000
0000
0000
,  // measure 69
0001
0000
0000
0000
0001
0000
0000
1000
,  // measure 70
0000
1000
0000
0000
0100
0000
0000
0000
,  // measure 71
0010
0001
2000
0002
,  // measure 72
3003
0000
0000
0000
;
