#TITLE:Kecak;
#SUBTITLE:;
#ARTIST:John Robinson;
#TITLETRANSLIT:;
#SUBTITLETRANSLIT:;
#ARTISTTRANSLIT:;
#CREDIT:;
#BANNER:kecak.png;
#BACKGROUND:kecak-bg.png;
#LYRICSPATH:;
#CDTITLE:;
#MUSIC:kecak.ogg;
#OFFSET:0.000;
#SAMPLESTART:27.409;
#SAMPLELENGTH:12.000;
#SELECTABLE:YES;
#BPMS:0.000=140.000;
#STOPS:;
#BGCHANGES:;

//---------------dance-single - Renard----------------
#NOTES:
     dance-single:
     Renard:
     Challenge:
     10:
     0.797,0.946,0.256,0.307,0.896:
0000
0000
0000
0000
,
0000
0000
0000
0000
,
0000
0000
0000
0000
,
0000
0000
0000
0000
,
1000
0000
0001
0000
0000
1000
0010
0100
0001
0000
0100
0000
0000
0010
1000
0010
,
0100
0000
0001
0000
0000
0010
0100
1000
0001
0000
0010
0000
0000
0001
1000
0100
,
0010
0000
0100
0000
0000
1000
0001
1000
0001
0000
0100
0000
0000
0010
0100
0010
,
1000
0000
0001
0000
0000
1000
0001
0010
0100
0000
0010
0000
0000
0100
1000
0001
,
1000
0000
0010
0000
0100
0001
0000
0100
0010
0000
1000
0100
0000
0010
0001
0000
,
0010
0000
0100
0000
1000
0001
0000
0010
0001
0000
1000
0010
0000
0100
0001
0000
,
1000
0000
0000
0001
0000
0100
0010
1000
0010
0000
0000
0100
0000
0001
0010
0100
,
1000
0000
0000
0001
0000
0010
0001
1000
0010
0000
0000
0100
0000
0001
1000
0010
,
1000
0000
0001
0000
0000
0100
0010
1000
0010
0000
0100
0000
0000
0001
0010
0100
,
1000
0000
0001
0000
0000
1000
0010
0100
0001
0000
0100
0000
0010
1000
0010
0100
,
0001
0000
0100
0000
0000
0010
1000
0100
0010
0000
0001
0000
0000
0010
0100
1000
,
0001
0000
0010
0000
0000
0001
1000
0010
0100
0000
0001
0000
0100
0010
1000
0010
,
0100
0001
0000
0000
0100
0010
0000
1000
0010
0000
0100
0001
0000
0100
0010
0000
,
1000
0000
0100
0000
0010
0001
0000
0010
0100
0000
1000
0001
0000
0100
0010
0000
,
1000
0000
0010
0000
0100
0001
0000
0100
0010
0000
1000
0100
0000
0010
0001
0000
,
0010
0000
0100
0000
1000
0001
0000
1000
0001
0000
1000
0010
0000
0100
0010
0000
,
0100
0000
0001
0000
0100
0010
0000
1000
0010
0000
1000
0100
0000
0010
0001
0000
,
0010
0000
0100
0000
1000
0001
0000
0010
0001
0000
1000
0010
0000
0100
0001
0000
,
0100
0010
1000
0010
0100
0001
0010
0100
,
1000
0100
0010
0000
0001
0010
0100
0000
1001
0000
0110
0000
1001
0000
0000
0000
,
1000
1000
1000
0000
0000
0000
0000
0000
,
0002
0200
0000
0000
0000
0000
0000
0303
,
0001
0001
0001
0000
0000
0000
0000
0000
,
2000
0200
0000
0000
0000
0000
0000
3300
,
1000
1000
1000
0000
0000
0000
0000
0000
,
0020
2000
0000
0000
0000
0000
0000
3030
,
0001
0001
0001
0000
0000
0000
0000
0000
,
0200
0002
0000
0000
0000
0000
0000
0303
,
0000
0002
0000
0203
0000
2300
0000
3020
,
0000
2030
0000
3200
0000
0302
0000
0023
,
0000
2030
0000
3200
0000
2300
0000
3020
,
0000
0032
0000
0203
0000
0320
0000
2030
,
3001
0000
0100
0000
0001
0100
0001
0000
0100
0000
0001
0000
0100
0001
0100
0000
,
0001
0000
0100
0000
0001
0100
0001
0000
0100
0000
0001
0000
0100
0001
0100
0000
,
0010
0000
1000
0000
0010
1000
0010
0000
1000
0000
0010
0000
1000
0010
1000
0000
,
0001
0000
1000
0000
0001
1000
0001
0000
1000
0001
1000
0000
1001
0000
0000
0000
,
1001
0000
0110
0000
1001
0000
0001
0010
0100
1000
0100
1000
0001
0010
0100
1000
,
0100
0010
0001
1000
0100
1000
0100
0010
0001
1000
0001
0100
0010
1000
0001
0000
,
0110
0000
1001
0000
0110
0000
1000
0010
0100
0001
0100
0001
1000
0010
0100
0001
,
0100
0010
1000
0010
1000
0001
0100
0010
1000
0100
0010
0001
1000
0001
1000
0000
,
0101
0000
1010
0000
1001
0000
1000
0100
1000
0001
0010
0001
1000
0010
1000
0001
,
0100
0001
0100
0010
1000
0010
1000
0001
1000
0100
0010
0001
1000
0001
0100
0000
,
0011
0000
1100
0000
1001
0000
1000
0010
1000
0001
0100
0001
0010
0001
0010
0100
,
1000
0100
1000
0010
0100
0001
1000
0000
0001
0000
2200
0000
3311
0000
0000
0000
,
2100
0000
0001
0000
3010
0000
1000
0010
1000
0001
1000
0100
1000
0100
0010
0001
,
1000
0100
0010
0001
0010
0100
1000
0001
0010
0100
1000
0001
0100
0000
0001
0000
,
0012
0000
1000
0000
0103
0000
0001
0100
0001
1000
0001
0010
0001
0010
0100
1000
,
0001
0010
0100
1000
0100
0010
0001
1000
0100
0010
0001
1000
0010
0100
0001
0000
,
0201
0000
0010
0000
1300
0000
1000
0100
0010
0100
0001
0100
0010
1000
0001
0100
,
0001
0100
0010
1000
0001
0100
0001
0100
0001
1000
0100
0010
0001
0010
0100
0000
,
0201
0000
0010
0000
1300
0000
1000
0100
0010
0100
0001
0100
0010
0100
1000
0100
,
0010
0001
0010
0100
1000
0100
1000
0100
0010
0000
0101
0000
1010
0000
0100
0000
,
1001
0000
0000
0000
;

//---------------dance-single - Renard----------------
#NOTES:
     dance-single:
     Renard:
     Hard:
     9:
     0.646,0.831,0.338,0.000,0.430:
0000
0000
0000
0000
,
0000
0000
0000
0000
,
0000
0000
0000
0000
,
0000
0000
0000
0000
,
1000
0001
0100
0001
0010
0001
0100
0000
,
0001
1000
0001
0010
0001
0100
0001
0000
,
0100
0001
0010
0001
1000
0001
0100
0000
,
0001
0100
0001
1000
0001
0010
0001
0000
,
1000
0000
0001
0000
0100
0010
0000
0010
1000
0000
1000
0100
0000
0100
0010
0000
,
0001
0000
0010
0000
0100
1000
0000
1000
0010
0000
0010
0100
0000
0100
0001
0000
,
0100
0010
1000
0100
0010
0001
0010
0100
,
1000
0010
0100
0001
0100
0010
1000
0010
,
1000
0100
0000
1000
0001
0100
0000
0001
,
0010
0100
0000
1000
0010
0100
0001
1000
,
0001
0100
0000
0010
1000
0100
0000
0010
,
0001
0010
0000
0100
1000
0010
0100
0001
,
1000
0000
0100
0000
0010
0001
0000
0001
0010
0000
0010
0100
0000
0100
1000
0000
,
0010
0000
0100
0000
0001
0100
0000
0100
0010
0000
0010
1000
0000
1000
0100
0000
,
0010
0000
0001
0000
0010
0100
0000
0100
1000
0000
1000
0010
0000
0010
0100
0000
,
0001
0000
0100
0000
0010
1000
0000
1000
0010
0000
0010
0100
0000
0100
0001
0000
,
1000
0000
0100
0000
0010
0100
0000
0100
1000
0000
1000
0010
0000
0010
0100
0000
,
0001
0000
0100
0000
0001
1000
0000
1000
0001
0000
0001
0100
0000
0100
0010
0000
,
1000
0000
0100
0000
0010
0001
0000
0001
0010
0000
0010
0100
0000
0100
1000
0000
,
0010
0000
0100
0000
0001
0100
0000
0100
0010
0000
0010
1000
0000
1000
0100
0000
,
1100
1100
1100
0000
0000
0000
0000
0000
,
0000
0101
0000
0000
0000
0000
0000
0000
,
0011
0011
0011
0000
0000
0000
0000
0000
,
0000
1010
0000
0000
0000
0000
0000
0000
,
1100
1100
1100
0000
0000
0000
0000
0000
,
0000
1010
0000
0000
0000
0000
0000
0000
,
0101
0101
0101
0000
0000
0000
0000
0000
,
0000
0011
0000
0000
0000
0000
0000
0000
,
0001
0100
0001
0000
0100
0010
0100
0000
,
0010
1000
0010
0000
1000
0100
1000
0000
,
0010
1000
0010
0000
0100
0010
0100
0000
,
0001
0100
0001
0000
0010
0001
0010
0000
,
0100
0010
0100
0010
0100
1000
0100
1000
,
0010
1000
0010
1000
0010
0100
0010
0100
,
0001
0100
0001
0010
0100
1000
0001
0100
,
0010
1000
0001
1000
0001
1001
1001
0000
,
0001
0000
0100
0000
0001
0000
1000
0100
1000
0000
0001
0000
0010
0000
0100
1000
,
0100
0000
1000
0000
0010
0000
0100
0001
0100
0000
0001
0000
0100
0000
0010
0000
,
1000
0000
0100
0000
0010
0000
0001
0010
0001
0000
0010
0000
0100
0000
1000
0100
,
1000
0000
0100
0000
1000
0000
0010
1000
0010
0000
1000
0000
0010
0000
0100
0000
,
0001
0000
0001
0000
0001
0000
0010
0100
0010
0000
0100
0000
1000
0000
0010
0000
,
0100
0001
1000
0100
0010
0001
0010
0100
,
1000
0000
1000
0000
1000
0000
0010
0100
0010
0000
1000
0000
0100
0000
0010
0000
,
0001
0010
0100
1000
0001
1001
1001
0000
,
1010
0000
1010
0000
1010
0000
1000
0010
1000
0010
1000
0010
1000
0010
1000
0010
,
1000
0010
1000
0010
1000
0010
1000
0010
1000
0000
0010
0000
1000
0000
0000
0000
,
0101
0000
0101
0000
0101
0000
0001
0010
0001
0010
0001
0010
0001
0010
0001
0010
,
0001
0010
0001
0010
0001
0010
0001
0010
0001
0000
0010
0000
0001
0000
0000
0000
,
1100
0000
1100
0000
1100
0000
1000
0100
1000
0100
1000
0100
1000
0100
1000
0100
,
1000
0100
1000
0100
1000
0100
1000
0100
1000
0000
0100
0000
1000
0000
0000
0000
,
0101
0000
0101
0000
0101
0000
0001
0100
0001
0100
0001
0100
0001
0100
0001
0100
,
0001
0100
0001
0100
0001
0100
0001
0100
0001
0000
0100
0000
0001
0000
0000
0000
,
1001
0000
0000
0000
;

//---------------dance-single - Renard----------------
#NOTES:
     dance-single:
     Renard:
     Medium:
     6:
     0.382,0.487,0.061,0.000,0.061:
0000
0000
0000
0000
,
0000
0000
0000
0000
,
0000
0000
0000
0000
,
0000
0000
0000
0000
,
1000
0001
0100
0101
,
1000
0001
0100
0101
,
1000
0001
0100
0101
,
1000
0001
0100
0101
,
0001
0000
1000
0000
0000
0100
0000
0000
0010
0000
0000
0001
0000
0000
0010
0000
,
0100
0000
1000
0000
0000
0001
0000
0000
0100
0000
0000
0001
0000
0000
1000
0000
,
0010
0010
0100
0100
,
0010
0000
0010
0000
0100
0010
0100
0000
,
0001
0000
0001
0000
1000
0100
1000
0000
,
0001
0000
0001
0000
0010
0001
0010
0000
,
0001
0000
0100
0000
0001
0100
0001
0000
,
1000
0100
1000
0001
,
1000
0000
0001
0000
0000
0100
0000
0000
0010
0000
0000
1000
0000
0000
0010
0000
,
0000
0000
1000
0000
0000
0100
0000
0000
0010
0000
0000
0001
0000
0000
1000
0000
,
0000
0000
0001
0000
0000
0100
0000
0000
0010
0000
0000
1000
0000
0000
0010
0000
,
0000
0000
1000
0000
0000
0010
0000
0000
0100
0000
0000
0001
0000
0000
1000
0000
,
0100
0000
1000
0100
1000
0000
0001
0010
,
0001
0000
0100
0001
0100
0000
0010
1000
,
0010
0000
1000
0001
1000
0001
1000
0001
,
1000
0001
1000
0001
1000
0001
1000
0001
,
0001
0001
0001
0000
0000
0000
0000
0000
,
0000
1000
0000
0000
0000
0000
0000
0000
,
0010
0010
0010
0000
0000
0000
0000
0000
,
0000
0100
0000
0000
0000
0000
0000
0000
,
0001
0001
0001
0000
0000
0000
0000
0000
,
0000
1000
0000
0000
0000
0000
0000
0000
,
0010
0010
0010
0000
0000
0000
0000
0000
,
0000
1000
0000
0000
0000
0000
0000
0000
,
0100
1000
0100
0000
0000
0000
0000
0000
,
0010
0100
0010
0000
0000
0000
0000
0000
,
0001
0010
0001
0000
0000
0000
0000
0000
,
0100
0001
0100
0000
0000
0000
0000
0000
,
0010
0010
1000
1000
,
0001
0001
0100
0100
,
0001
1000
0001
1000
0001
1000
0001
1000
,
0001
1000
0001
1000
0001
1000
0001
0000
,
1000
0001
1000
0000
0010
0000
0010
0000
,
0100
0000
0100
0000
0001
0100
0001
0100
,
0001
1000
0001
0000
1000
0000
1000
0000
,
0010
0000
0010
0000
0100
0001
0100
0001
,
1000
1000
0010
0010
,
0100
0000
0100
0000
0010
1000
0010
0000
,
1000
0100
1000
0000
0001
0000
0001
0000
,
0010
0010
0000
1001
,
0001
0100
0001
0100
0001
0100
0001
0100
,
0001
0100
0001
0100
0001
0100
0001
0000
,
1000
0100
1000
0100
1000
0100
1000
0100
,
1000
0100
1000
0100
1000
0100
1000
0000
,
0001
0010
0001
0010
0001
0010
0001
0010
,
0001
0010
0001
0010
0001
0010
0001
0000
,
1000
0010
1000
0010
1000
0010
1000
0010
,
1000
0010
1000
0010
1000
0010
1000
0000
,
1001
0000
0000
0000
;

//---------------dance-single - Renard----------------
#NOTES:
     dance-single:
     Renard:
     Easy:
     3:
     0.260,0.401,0.143,0.082,0.000: // measure 1
0000
0000
0000
0000
,  // measure 2
0000
0000
0000
0000
,  // measure 3
0000
0000
0000
0000
,  // measure 4
0000
0000
0000
0000
,  // measure 5
0000
1001
0000
1001
,  // measure 6
0000
1010
0000
1010
,  // measure 7
0000
0101
0000
0101
,  // measure 8
0000
1001
0000
1001
,  // measure 9
1000
1000
0001
0001
,  // measure 10
1000
1000
0001
0000
,  // measure 11
1000
1000
0001
0001
,  // measure 12
1000
0001
1000
0000
,  // measure 13
0001
0001
1000
0000
,  // measure 14
1000
1000
0001
0000
,  // measure 15
0001
0001
1000
0000
,  // measure 16
1000
0001
1000
0001
,  // measure 17
0100
0100
0010
0000
,  // measure 18
0010
0010
0100
0000
,  // measure 19
0010
0100
0010
0000
,  // measure 20
0100
0010
0100
0010
,  // measure 21
1000
1000
0001
0001
,  // measure 22
1000
1000
0001
0001
,  // measure 23
0100
0001
0100
0001
,  // measure 24
0010
0001
0010
0001
,  // measure 25
2002
0000
0000
0000
,  // measure 26
0000
0010
0000
0000
3003
0000
0000
0000
,  // measure 27
2002
0000
0000
0000
,  // measure 28
0000
0010
0000
0000
3003
0000
0000
0000
,  // measure 29
2002
0000
0000
0000
,  // measure 30
0000
0010
0000
0000
3003
0000
0000
0000
,  // measure 31
2002
0000
0000
0000
,  // measure 32
0000
0010
0000
0000
3003
0000
0000
0000
,  // measure 33
0001
0001
0000
0000
,  // measure 34
1000
1000
0000
0000
,  // measure 35
0001
0001
0000
0000
,  // measure 36
1000
1000
0000
0000
,  // measure 37
0001
1000
1000
0001
,  // measure 38
0001
1000
1000
0001
,  // measure 39
1000
0001
1000
0001
,  // measure 40
1000
0001
0000
1001
,  // measure 41
0001
0001
0100
0100
,  // measure 42
0001
0001
0100
0001
,  // measure 43
1000
1000
0100
0100
,  // measure 44
1000
0100
1000
0100
,  // measure 45
1000
1000
0010
0010
,  // measure 46
1000
0010
1000
0010
,  // measure 47
1000
0000
0001
0000
,  // measure 48
1000
0001
0000
1001
,  // measure 49
0001
0100
0001
0000
,  // measure 50
1000
0100
1000
0000
,  // measure 51
0001
0010
0001
0000
,  // measure 52
1000
0010
1000
0000
,  // measure 53
0001
1000
0001
0000
,  // measure 54
1000
0001
1000
0000
,  // measure 55
1000
0000
0001
0000
1000
0001
1000
0001
,  // measure 56
1000
0001
1000
0001
1000
0001
1000
0000
,  // measure 57
0001
0000
0000
0000
;
