#TITLE:Jordan;
#SUBTITLE:;
#ARTIST:Buckethead;
#TITLETRANSLIT:;
#SUBTITLETRANSLIT:;
#ARTISTTRANSLIT:;
#CREDIT:;
#BANNER:jordan.png;
#BACKGROUND:jordan-bg.png;
#LYRICSPATH:;
#CDTITLE:;
#MUSIC:jordan.ogg;
#OFFSET:0.001;
#SAMPLESTART:8.275;
#SAMPLELENGTH:12.000;
#SELECTABLE:YES;
#BPMS:0.000=116.000,88.000=232.000,150.000=249.560,152.000=232.000,215.000=213.180,216.000=116.000;
#STOPS:;
#BGCHANGES:;

//---------------dance-single - Renard----------------
#NOTES:
     dance-single:
     Renard:
     Challenge:
     13:
     1.000,1.000,0.165,0.021,1.000:
0000
0000
0000
0000
,
0000
0000
0000
0000
,
0000
0000
0000
0000
,
0000
0000
0000
0000
,
0001
1000
0100
0010
0001
0010
0100
1000
0010
0100
0001
0100
0010
1000
0100
0000
,
1000
0100
1000
0001
0010
0001
1000
0010
1000
0001
0100
0010
1000
0100
0010
0000
,
0010
0100
1000
0010
0100
0001
0010
0100
1000
0001
0100
0001
1000
0010
1000
0000
,
0001
0100
0010
1000
0100
0010
0001
0010
0100
1000
0001
0100
0010
1000
0010
0000
,
0010
1000
0100
0010
0001
0010
0100
1000
0001
0010
0100
1000
0010
0100
0001
0000
,
0001
0100
0010
1000
0100
0010
0001
0010
0100
1000
0001
0100
0010
1000
0100
0000
,
1000
0001
0010
0100
1000
0001
0100
0010
1000
0100
0010
0001
0010
0100
0010
0000
,
0100
0000
1000
0001
0000
0100
0001
1000
0001
1000
0100
0010
0001
0000
1001
0000
,
0110
0000
0110
0000
1010
0000
1000
0010
0000
0100
0001
0000
1000
0100
0010
0001
,
0010
0100
1000
0001
0010
0100
1000
0001
0100
0010
1000
0010
0100
0000
0001
0010
,
0100
0000
1000
0000
0001
0000
1000
0010
0000
1000
0001
0000
0100
0001
1000
0100
,
0010
0001
0010
0100
1000
0001
0010
0100
1000
0001
0100
0010
1000
0000
0001
0000
,
0110
0000
0110
0000
0101
0000
0001
0100
0000
0010
1000
0000
0001
0010
0100
1000
,
0100
0010
0001
1000
0100
0010
0001
1000
0010
0100
0001
0100
0010
0000
1000
0100
,
0010
0000
0001
0000
1000
0000
0001
0100
0000
0001
1000
0000
0010
1000
0001
0010
,
0100
1000
0100
0010
0001
1000
0100
0010
0001
1000
0010
0100
0001
0000
0010
0100
,
1000
0100
1000
0001
0010
0001
1000
0010
1000
0001
0100
0001
0010
0100
1000
0001
0010
0100
0010
0001
1000
0100
0010
0001
,
1000
0010
0100
0001
0100
0010
1000
0100
0010
0001
0010
0100
1000
0001
0010
0100
0010
0002
2000
0000
0000
0000
3003
0000
,
1000
0100
0010
0001
1000
0010
0100
0001
,
1000
0000
0100
0000
0010
0000
0001
0000
1000
0000
0001
0000
0100
0000
0010
1000
,
0010
1000
0100
0010
0001
1000
0010
0100
,
0001
0000
1000
0000
0100
0000
0010
0000
0001
0000
1000
0001
1000
0000
0001
0000
,
1000
0100
1000
0001
0010
0001
1000
0010
,
0100
0000
0001
0000
0010
0000
0100
0000
1000
0000
0001
0100
0001
0000
1000
0000
,
0100
0010
0001
1000
0010
0100
0001
0100
,
0010
0000
1000
0000
0001
0000
1000
0000
0100
0000
0010
0000
0001
0010
0001
0000
,
1000
0100
1000
0100
1000
0100
1000
0100
0010
0100
0010
0100
0010
0100
0010
0100
,
0010
0001
0010
0001
0010
0001
0010
0001
1000
0010
1000
0010
1000
0010
1000
0010
,
0100
0001
0100
0001
0100
0001
0100
0001
0010
0001
0010
0001
0010
0001
0010
0001
,
1000
0100
1000
0100
1000
0100
1000
0100
1000
0001
1000
0001
1000
0001
1000
0001
,
0100
0001
0100
0001
0100
0001
0100
0001
1000
0010
1000
0010
1000
0010
1000
0010
,
1000
0100
1000
0100
1000
0100
1000
0100
0010
0001
0010
0001
0010
0001
0010
0001
,
1000
0001
1000
0001
0100
0001
0100
0001
1000
0001
1000
0001
1000
0010
1000
0010
,
1000
0100
1000
0100
1000
0010
1000
0010
1000
0001
1000
0001
1000
0010
1000
0010
,
1000
0100
0010
0001
0010
0100
1000
0001
0010
0100
1000
0100
,
0010
0100
1000
0001
0010
0100
0010
0001
1000
0100
0010
0001
,
1000
0010
0100
0001
0100
0010
1000
0010
1000
0001
0100
0001
,
1000
0010
0100
0010
1000
0001
0100
0010
0100
0001
1000
0001
,
1000
0100
1000
0001
0010
0001
1000
0010
1000
0001
0100
0001
,
1000
0100
0010
0001
0010
0100
1000
0001
0100
0010
1000
0010
,
0100
0001
0100
0010
1000
0010
1000
0100
1000
0001
0010
0001
,
1000
0100
0010
0001
0010
0100
1000
0010
0100
0001
0100
0010
,
1000
0001
1000
0010
0100
0010
1000
0001
1000
0010
0100
0010
,
0100
0010
0100
0001
1000
0001
0100
0010
0100
0001
1000
0001
,
1000
0100
1000
0001
0010
0001
1000
0010
1000
0001
0100
0001
,
1000
0100
0010
0001
0010
0100
1000
0001
0010
0100
1000
0001
,
1000
0100
0010
0001
0010
0100
0010
0001
1000
0100
0010
0100
,
1000
0001
0010
0100
1000
0100
1000
0001
0010
0001
1000
0010
,
0100
0001
1000
0100
1000
0001
0010
0100
1000
0010
0100
0001
,
0100
0001
1000
0100
0010
0001
0010
0100
1000
0001
0000
0000
,
1001
0000
1010
0000
0101
0000
0001
1000
0000
0100
0010
0000
0001
0010
0100
1000
,
0001
0010
0001
1000
0100
1000
0001
0010
0100
1000
0001
0100
0010
0000
1000
0010
,
1000
0000
0101
0000
0011
0000
0001
0010
0000
0100
1000
0000
1000
0010
0100
0001
,
1000
0100
1000
0001
0010
0001
1000
0100
0010
0001
1000
0100
0010
0000
0001
1000
,
0001
0000
0101
0000
1010
0000
1000
0100
0000
0010
0001
0000
1000
0100
1000
0001
,
1000
0100
0010
0001
0010
0100
1000
0010
0100
0001
0100
0010
1000
0000
0100
0010
,
0001
0000
0110
0000
1100
0000
1000
0010
0000
0100
0001
0000
1000
0100
0010
0001
,
1000
0100
1000
0001
0010
0001
1000
0010
1000
0001
0100
0001
1000
0000
0100
0010
;

//---------------dance-single - Renard----------------
#NOTES:
     dance-single:
     Renard:
     Hard:
     9:
     0.820,0.957,0.402,0.000,0.855:
0000
0000
0000
0000
,
0000
0000
0000
0000
,
1000
0000
0000
0001
0000
0100
0000
0010
0000
0000
1000
0000
0100
0000
0000
0000
,
1000
0000
0000
0001
0000
0010
0000
0100
0000
1000
0000
0010
1000
0000
0010
0000
,
1000
0000
0000
0101
0000
1001
0000
1100
0000
1000
0100
0000
1000
0000
0001
0000
,
0101
0000
0000
1001
0000
1100
0000
1001
0000
1000
0000
0001
0100
0000
0001
0000
,
1001
0000
0000
1010
0000
1001
0000
1100
0000
1000
0000
0001
0100
0000
0001
0000
,
1001
0000
0000
1100
0000
1001
0000
1010
0000
1000
0000
0010
1000
0000
0001
0000
,
0101
0000
0000
1001
0000
0011
0000
1001
0000
0001
0000
0100
0010
0000
1000
0000
,
1100
0000
0000
1001
0000
1010
0000
1100
0000
1000
0000
0001
0010
0000
0100
0000
,
1001
0000
0000
0101
0000
0011
0000
1001
0000
0001
0000
0100
0010
0000
1000
0000
,
0100
0000
0100
1000
0000
1000
0001
0100
0001
1000
0001
1000
0001
0000
1000
0000
,
0100
0000
0100
0000
1000
0000
1000
0001
0000
0001
0100
0000
0010
0100
0010
0100
,
0010
1000
0010
1000
0010
1000
0010
1000
0010
1000
0010
1000
0010
0000
1000
0100
,
1000
0000
0001
0000
0010
0000
0001
1000
0000
0001
0100
0000
0001
1000
0001
1000
,
0100
1000
0100
1000
0100
1000
0100
1000
0100
1000
0100
1000
0100
0000
1000
0001
,
0100
0000
0001
0000
0010
0000
0100
1000
0000
0010
0100
0000
0001
0100
0001
0100
,
0010
0100
0010
0100
0010
0100
0010
0100
0010
0100
0010
0100
0010
0000
0100
0010
,
0100
0000
0010
0000
1000
0000
0100
0010
0000
0001
0010
0000
0100
1000
0100
1000
,
0001
1000
0001
1000
0001
1000
0001
1000
0001
1000
0001
1000
0001
0000
1000
0000
,
0001
0100
0001
1000
0100
0010
0001
0010
,
0100
1000
0010
0100
0001
1000
1001
0000
,
0001
0100
0010
0000
1000
0010
1000
0000
,
0100
1000
0100
1000
0001
0010
0100
0000
,
1000
0100
1000
0000
0001
0010
0001
0000
,
1000
0010
0100
0001
1000
0100
1000
0000
,
0001
0010
0100
1000
0001
0100
0001
0100
,
0010
1000
0010
1000
0100
1000
0100
1000
,
0100
0010
0001
0010
0100
1000
0001
0100
,
0010
1000
0100
1000
0001
0010
0100
1000
,
0001
0100
0001
0100
0010
0100
0010
0100
,
0010
1000
0010
1000
0100
1000
0100
1000
,
0001
0010
0100
1000
0001
0010
0100
1000
,
0100
0010
0001
1000
0100
0010
0001
0010
,
0100
1000
0001
0100
0010
1000
0100
1000
,
0001
0010
0100
1000
0001
0100
0010
1000
,
0100
1000
0001
0010
0100
1000
0001
1000
,
0001
1000
0001
0000
1001
0000
0000
0000
,
1000
0001
0100
0010
,
1000
0000
0000
0010
1000
0010
1000
0000
0000
0100
0000
0000
,
0010
0001
1000
0001
,
0100
0000
0000
0001
1000
0001
1000
0000
0000
0001
0000
0000
,
0100
0010
1000
0100
,
1000
0000
0000
0001
1000
0001
1000
0000
0000
0001
0100
0001
,
0100
0000
0000
0001
0000
0000
1000
0000
0000
0100
1000
0100
,
1000
0000
0000
0001
0000
0000
0100
0000
0000
0001
1000
0001
,
1000
0000
0000
0010
0000
0000
1000
0000
0000
0001
1000
0001
,
1000
0000
0000
0100
1000
0100
1000
0000
0000
0001
0010
0001
,
0010
0000
0000
0001
0000
0000
1000
0000
0000
0010
1000
0010
,
1000
0000
0000
0001
0100
0001
0100
0000
0000
0001
1000
0001
,
1000
0000
0000
0100
0000
0000
1000
0000
0000
0001
0010
0001
,
0010
0000
0000
0001
0010
0001
0010
0000
0000
0100
0010
0100
,
0010
0000
0000
0100
0000
0000
1000
0000
0000
0010
1000
0010
,
1000
0001
0100
1001
,
1001
0000
1001
0000
1001
0000
0001
1000
0000
0010
1000
0000
0100
1000
0100
1000
,
0001
0010
0001
0010
0100
0010
0100
0010
0100
1000
0100
1000
0010
0000
1000
0001
,
1000
0000
1001
0000
1001
0000
0001
0100
0000
0001
0100
0000
0001
1000
0001
1000
,
0100
1000
0100
1000
0001
0010
0001
0010
0100
0010
0100
0010
0100
0000
1000
0100
,
1000
0000
1100
0000
1001
0000
1000
0100
0000
1000
0001
0000
0100
0001
0100
0001
,
1000
0001
1000
0010
1000
0010
1000
0100
1000
0001
0010
0100
1000
0000
0001
0100
,
0001
0000
0101
0000
1001
0000
1000
0100
0000
1000
0001
0000
0100
0001
0100
0001
,
1000
0100
1000
0001
0010
0001
1000
0100
1000
0010
1000
0001
1000
0000
0001
1000
;

//---------------dance-single - Renard----------------
#NOTES:
     dance-single:
     Renard:
     Medium:
     6:
     0.417,0.510,0.000,0.010,0.000:
0000
0000
0000
0000
,
0000
0000
0000
0000
,
0000
0000
0000
0000
,
0000
0000
0000
0000
,
1000
0001
0100
0010
1000
0100
0010
0000
,
0001
0010
0100
1000
0010
0100
0001
0000
,
0100
0010
1000
0100
0010
0001
1000
0000
,
0001
0100
0010
1000
0001
1000
0100
0000
,
1000
0100
0010
0001
1000
0001
0010
0000
,
0100
1000
0001
0100
0010
1000
0001
0000
,
1000
0100
0010
0001
0100
0010
1000
0000
,
0001
0000
0001
0000
1000
0001
1000
0000
,
0001
0001
0100
0000
0010
1000
0010
0000
,
1000
1000
0100
0000
0010
0001
0010
0000
,
0001
0001
0100
0000
0010
1000
0010
0000
,
1000
1000
0100
0000
0010
0001
0010
0000
,
0001
0001
0100
0000
0010
1000
0010
0000
,
1000
1000
0100
0000
0010
0001
0010
0000
,
0001
0001
0100
0000
0010
1000
0010
0000
,
1000
1000
0100
0000
0010
0001
0010
0000
,
0001
0010
0001
0010
0100
0010
0100
0010
,
0100
1000
0010
1000
0010
0100
0001
0000
,
1000
0100
0010
0001
,
1000
0001
0100
0010
,
1000
0100
0010
0001
,
1000
0001
1000
0000
,
0001
0100
0010
1000
,
0100
0010
0001
0010
,
0100
1000
0001
0100
,
0010
1000
0010
0000
,
0100
0001
1000
0100
,
0010
0001
1000
0100
,
0010
0000
0001
0000
1000
0000
0010
0100
,
0000
0001
1000
0100
,
0010
0001
0010
0100
,
1000
0001
0100
0010
,
1000
0001
0100
0001
,
2000
0000
3001
0000
,
1000
1000
0001
0001
,
1000
1000
0001
0000
,
0100
0100
0010
0010
,
0100
0100
0010
0000
,
1000
1000
0001
0001
,
1000
1000
0001
0000
,
0010
0010
0100
0000
,
1000
1000
0001
0000
,
0100
0100
0010
0010
,
0100
0100
0010
0000
,
1000
1000
0001
0001
,
1000
1000
0001
0000
,
0010
0010
0100
0100
,
0010
0010
0100
0000
,
1000
1000
0001
0000
,
0100
0100
0010
0000
,
1000
0010
1000
0000
0001
0000
0100
0000
,
0001
1000
0001
0000
0010
0000
0100
0000
,
1000
0001
1000
0000
0001
0000
0100
0000
,
0010
1000
0010
0000
0100
0000
0001
0000
,
1000
0100
0010
0001
0010
0100
1000
0001
,
0010
0100
1000
0100
0010
0001
1000
0000
,
0001
0010
0100
1000
0100
0010
0001
1000
,
0100
0010
0001
1000
0100
1000
0001
0100
;

//---------------dance-single - Renard----------------
#NOTES:
     dance-single:
     Renard:
     Easy:
     3:
     0.334,0.573,0.402,0.134,0.000: // measure 1
0000
0000
0000
0000
,  // measure 2
0000
0000
0000
0000
,  // measure 3
0000
0000
0000
0000
,  // measure 4
0000
0000
0000
0000
,  // measure 5
1000
0001
0100
0110
,  // measure 6
0010
1000
0001
1001
,  // measure 7
0001
0100
0010
0110
,  // measure 8
0010
1000
0100
1100
,  // measure 9
1000
0100
0010
0011
,  // measure 10
0001
0100
0010
1010
,  // measure 11
0010
0100
0001
0101
,  // measure 12
0001
0001
1000
1000
,  // measure 13
0001
0100
0010
1000
,  // measure 14
0010
0010
0010
0010
,  // measure 15
0100
0001
0010
0100
,  // measure 16
1000
1000
1000
1000
,  // measure 17
0001
1000
0010
0100
,  // measure 18
0001
0001
1000
1000
,  // measure 19
0001
0010
0100
1000
,  // measure 20
0010
0100
0010
0100
,  // measure 21
0020
0230
0302
2003
,  // measure 22
3200
0320
0032
2003
,  // measure 23
3001
0000
0001
0100
,  // measure 24
0010
0000
1010
0000
,  // measure 25
0010
0000
1000
0100
,  // measure 26
0010
0000
0110
0000
,  // measure 27
0010
0000
0001
1000
,  // measure 28
0001
0000
1001
0000
,  // measure 29
0001
0000
0100
0010
,  // measure 30
0100
0000
0110
0000
,  // measure 31
0020
0000
1030
0000
,  // measure 32
0100
0000
0010
0000
,  // measure 33
0002
0000
0103
0000
,  // measure 34
0010
1000
0100
0000
,  // measure 35
0020
0000
0031
0000
,  // measure 36
1000
0000
0001
0000
,  // measure 37
0100
0001
0100
0001
,  // measure 38
1000
0000
0001
0000
,  // measure 39
1000
0000
1000
0000
,  // measure 40
0001
0000
0110
0000
,  // measure 41
1001
0000
0001
0000
,  // measure 42
0010
0000
0110
0000
,  // measure 43
1100
0000
1000
0000
,  // measure 44
0001
0000
0100
0000
,  // measure 45
0110
0000
0010
0000
,  // measure 46
1001
0000
1000
0000
,  // measure 47
1100
0000
0010
0000
,  // measure 48
0001
0000
1001
0000
,  // measure 49
0110
0000
0010
0000
,  // measure 50
1000
0000
1001
0000
,  // measure 51
0110
0000
0010
0000
,  // measure 52
1000
0000
1100
0000
,  // measure 53
0011
0000
0001
0000
,  // measure 54
0101
0000
1001
0000
,  // measure 55
1000
0100
0010
0001
,  // measure 56
0020
0130
2000
3100
,  // measure 57
1000
0001
0010
0001
,  // measure 58
0100
0001
1000
0001
,  // measure 59
0101
0101
0101
0101
,  // measure 60
1010
1010
1010
1010
,  // measure 61
1001
1001
1001
1001
,  // measure 62
0110
0010
1000
0100
;
