#TITLE:Je T'aime;
#SUBTITLE:;
#ARTIST:Sonitus Vir;
#TITLETRANSLIT:;
#SUBTITLETRANSLIT:;
#ARTISTTRANSLIT:;
#CREDIT:;
#BANNER:je.png;
#BACKGROUND:je-bg.png;
#LYRICSPATH:;
#CDTITLE:;
#MUSIC:je.ogg;
#OFFSET:0.000;
#SAMPLESTART:92.154;
#SAMPLELENGTH:12.000;
#SELECTABLE:YES;
#BPMS:0.000=190.075,228.000=95.037,260.000=190.075;
#STOPS:;
#BGCHANGES:;

//---------------dance-single - Renard----------------
#NOTES:
     dance-single:
     Renard:
     Challenge:
     13:
     0.991,1.000,0.396,0.018,0.924:
0000
0000
0000
0000
,
1000
0000
1000
0001
0000
0001
0100
0010
,
1000
0000
1000
0100
0010
0001
1000
0001
,
0000
0001
0100
0010
1000
0000
1000
0010
,
0100
0001
0010
0100
1000
0001
1000
0001
,
0100
0000
0100
0010
0000
0010
1000
0100
,
0010
0000
0010
0001
1000
0001
0100
0010
,
0000
0010
1000
0100
0000
0100
0010
0001
,
1000
0000
0001
0000
0100
0000
0010
0000
1000
0000
0001
1000
0001
0000
1000
0000
,
0001
0000
0101
0000
0000
0010
1010
0000
,
1000
0000
1100
0000
0000
0100
0110
0000
,
0010
0000
0011
0000
0000
0001
1001
0000
,
1000
0000
1010
0000
0000
0010
0110
0000
,
0100
0000
0000
0100
0001
0000
0010
0000
0100
0000
1000
0000
0001
0000
0000
0000
,
0100
0000
0000
0100
0010
0000
1000
0000
0100
0000
0010
0000
0110
0000
0000
0000
,
0100
0000
0000
1000
0010
0000
0100
0000
0001
0000
0000
0001
0100
0000
0010
0000
,
1000
0001
1001
0000
0100
0010
0110
0000
,
0100
0000
0000
0100
0010
0000
1000
0000
0100
0000
0010
0000
0001
0010
0001
0000
,
0010
0000
0000
0010
0100
0000
1000
0000
0010
0000
0100
0000
0001
0100
0001
0000
,
0100
0000
0000
0100
0010
0000
1000
0000
0100
0000
0010
0000
0001
1000
0001
0000
,
1000
0000
0000
1000
0010
0000
0100
0000
0001
0000
0010
0000
0100
1000
0100
0000
,
1000
0000
1000
0010
0000
0010
0100
0000
0000
0000
0001
0000
0010
0000
0100
0000
,
1000
0000
1000
0001
0000
0001
0100
0000
0010
0000
1000
0000
0100
0000
0010
0000
,
0001
0000
0001
1000
0000
1000
0010
0000
0000
0100
0001
0000
0010
0000
0100
0000
,
0010
0000
0001
0010
0000
0100
1000
0000
0001
1000
0001
0000
0110
0000
0000
0000
,
1000
0000
0010
0000
0100
0000
0001
0000
0010
0000
0001
0000
1000
0001
1000
0000
,
0001
0100
0010
1000
0100
0000
0100
0010
,
0000
0000
0010
0001
0010
0000
0001
0000
1000
0000
0010
0000
0100
0000
0001
0000
,
1000
0000
0100
0000
0010
0000
0001
0000
0010
0001
0010
0000
0000
0000
0001
0000
,
1000
0000
0000
0000
1000
0010
0100
0000
0000
0000
0001
0000
0010
0000
0100
0000
,
1000
0000
0010
0000
0100
0000
0001
0000
1000
0001
1000
0000
0001
0000
0100
0000
,
0000
0000
0100
0000
0010
0000
1000
0000
0100
0000
0010
0100
0010
0000
0100
0000
,
1000
0010
0100
0001
0100
0001
0100
0000
,
0001
0100
0010
1000
0010
0000
1000
0000
0100
0000
0010
0000
0100
0000
1000
0000
,
0010
0100
0001
0100
0010
0000
0010
1000
,
0000
0000
1000
0100
0010
0000
0001
0000
0010
0000
0100
0000
1000
0000
0001
0000
,
0100
0010
1000
0001
0100
0000
0010
0000
1000
0000
0001
0000
0100
0000
0010
0000
,
1000
0000
0000
0000
1000
0000
0010
0000
0000
0000
0010
0100
0001
0100
0010
0000
,
1000
0000
0010
0000
1000
0000
0001
0000
0010
0000
0100
1000
0100
1000
0100
0000
,
0010
0000
0001
0000
1000
0000
0001
0000
0100
0000
0001
0100
0001
0100
0001
0000
,
0100
0000
0010
1000
0010
0000
1000
0001
0100
0000
0001
1000
0001
0000
1000
0000
,
0001
0000
0000
0001
0100
0000
0010
0000
0000
0000
1000
0000
0000
0000
0100
0000
,
0000
0000
0010
0001
0010
0000
0001
0000
0010
0000
0000
0000
0100
0000
1000
0000
,
0001
0000
0001
0100
0010
1000
0000
1000
,
0010
0000
0010
0100
0001
0000
0001
0100
,
0010
0000
0000
0000
0010
0000
1000
0000
0000
0000
1000
0100
1000
0000
0100
0000
,
0010
0000
0000
0000
0010
0000
0001
0000
0000
0000
0001
0100
0001
0000
0100
0000
,
0010
0000
0000
0000
0010
0000
1000
0000
0000
0000
1000
0100
1000
0000
0100
0000
,
0010
0001
0010
0000
0001
0000
1000
0001
1000
0000
0001
0000
1000
0000
0000
0000
,
0010
0000
0000
0010
0100
0000
0001
0000
0100
0000
0010
0000
1000
0000
0100
0000
,
0010
0000
0000
0010
0100
0000
1000
0000
0010
0000
0100
0000
0001
0000
1000
0000
,
0001
0000
1000
0001
1000
0000
0001
0000
0000
0000
0100
0000
0010
0000
1000
0000
,
0000
0000
0010
1000
0010
0000
1000
0000
0010
0000
0000
0000
0100
0000
0001
0100
,
0001
0000
0110
1000
0000
1000
0110
0000
,
0001
0000
0110
1000
0000
1000
0110
0000
,
0001
0000
0110
1001
0000
1001
0110
0000
,
2002
0000
0000
3113
,
1000
0001
0100
0010
1010
0000
0010
1000
0100
0010
0001
0000
0011
0000
0001
0010
,
0100
1000
0010
0100
0110
0000
0010
0100
0001
0010
0001
0000
0011
0000
0110
0000
,
1001
0000
0010
0000
0101
0000
0010
1000
0001
0010
0100
0000
0110
0000
0100
1000
,
0010
0000
0000
0100
0000
0000
0001
0000
0000
0000
0000
0000
0101
0000
0000
0000
0000
0000
0100
0000
0000
0010
0000
0000
1000
0000
0010
0000
0100
0000
0001
0000
0100
0000
0010
0000
1010
0000
0000
0000
0000
0000
1001
0000
0000
0000
0000
0000
,
1000
0000
0001
0000
0100
0001
0100
0000
0010
0000
1000
0000
0010
1000
0010
0000
1000
0000
0100
0000
0010
0100
0010
0000
0100
0000
1000
0000
0001
1000
0001
0000
,
0100
0000
0010
0000
0100
0010
0100
0000
0010
0000
1000
0000
0100
1000
0100
0000
0010
0000
0100
0000
0010
0100
0010
0000
0001
0000
0010
0000
0001
0010
0001
0000
,
0001
0010
0100
0000
1000
0000
0010
0000
0100
0001
0100
0000
0010
0000
1000
0000
0010
0100
0001
0000
0100
0000
0010
0000
1000
0100
1000
0000
0100
0000
0010
0000
,
0100
1000
0100
0000
1000
0000
0001
0000
0100
0000
0010
0000
1000
0000
0001
0000
0100
0000
0010
0000
1001
0000
0110
0000
1001
0000
0110
0000
1001
0000
0000
0000
,
1000
0100
0010
0001
0010
0100
1000
0010
0100
0001
0100
0010
1000
0001
0100
0000
,
0001
1000
0100
1000
0001
0010
0001
0100
0010
1000
0100
0010
0001
1000
0001
0000
,
0100
0010
1000
0010
0100
0001
0010
0100
1000
0001
1000
0100
0010
0001
1000
0000
,
0001
0100
0001
1000
0010
1000
0100
0010
0001
0010
0100
1000
0001
0100
0001
0000
,
1000
0010
0100
0001
0100
0010
1000
0100
1000
0001
0010
0001
0010
0100
1000
0000
,
0001
0100
0001
1000
0010
1000
0001
0010
0001
1000
0100
0010
0001
1000
0001
0000
,
1000
0010
1000
0001
0100
0001
0010
0001
1000
0100
1000
0001
0100
0001
1000
0000
,
0001
0000
0100
0001
1000
0000
0100
0000
1001
0000
0110
0000
1001
0000
0000
0000
,
1000
0100
0010
0001
0010
0100
1000
0100
0010
0001
0010
0100
1000
0100
0010
0001
,
0100
0010
1000
0010
0100
0001
0100
0010
1000
0010
0100
0001
0100
0010
1000
0010
,
1000
0001
0010
0001
1000
0010
1000
0001
0100
0001
1000
0100
0010
0001
1000
0001
,
1000
0100
0010
0100
1000
0001
0010
0100
0010
0001
1000
0010
0100
0010
1000
0001
,
0100
0010
0100
0001
1000
0100
1000
0001
0010
0001
1000
0010
0100
0010
1000
0001
,
0100
0010
0100
0001
1000
0100
1000
0000
1001
0000
0110
0000
1001
0000
0110
0000
;

//---------------dance-single - Renard----------------
#NOTES:
     dance-single:
     Renard:
     Medium:
     5:
     0.360,0.625,0.062,0.000,0.000:
0000
0000
0000
0000
,
0000
0000
0000
0000
,
0000
0000
0000
0000
,
0000
0000
0000
0000
,
0000
0000
0000
0000
0001
0100
0000
0000
,
0001
0000
0000
1000
0000
0000
0000
0000
,
0000
0000
0000
0000
0100
0000
1000
0010
,
0000
0000
0000
0000
,
0000
0000
0000
0000
0100
0001
0000
0000
,
0001
0000
0000
1000
0000
0000
0000
0000
,
0100
0000
1000
0000
0010
0000
0100
0001
,
0000
0000
0100
0010
,
1000
0000
0000
0000
0100
1000
0000
0000
,
0001
0000
0000
0010
0000
0000
0000
0000
,
0001
0000
0100
0000
0010
0000
1000
0010
,
0000
0000
1000
0000
,
0100
0000
0010
0001
,
1000
0001
0100
0000
,
0001
0000
1000
0000
,
0100
1000
0001
0000
,
0010
0001
0100
0000
,
0010
0000
1000
0100
,
1000
0000
0010
0100
,
0001
1000
0001
1000
,
0100
1000
0001
0100
,
0010
0000
0000
1000
0000
0000
0100
0000
,
1000
0000
0010
0000
0100
0000
0001
1000
,
0000
0001
0100
0010
,
1000
0000
0000
0000
0100
1000
0000
0000
,
0010
0000
0000
0100
0000
0000
0001
0000
,
1000
0000
0100
0000
0010
0000
0001
1000
,
0000
0001
0100
0010
,
1000
0100
1000
0000
,
0001
0000
0000
1000
0000
0000
0010
0000
,
0100
0000
0001
0000
1000
0000
0100
1000
,
0000
0001
0010
0100
,
1000
0000
0010
0000
0100
0001
0000
0000
,
0100
0000
0000
0010
0000
0000
1000
0000
,
0100
0000
0010
0000
0001
0000
0010
0100
,
0000
1000
0010
0100
,
0001
1000
0001
0100
,
0010
0000
1000
0010
0000
1000
0000
0100
,
0000
0000
0010
0000
0001
0000
0010
0001
,
0010
0000
0000
0000
0100
1000
0000
0001
,
0000
0000
0000
0000
0100
0000
0001
1000
,
0001
0000
0000
1000
0000
0000
0000
0000
,
0000
0000
0000
0000
0001
0100
0001
0100
,
0001
0000
0000
0100
0000
0000
0000
0000
,
0000
0000
0010
1000
,
0100
0000
1000
0100
0000
1000
0000
0010
,
0000
0000
0100
0000
0001
0000
0010
0001
,
0010
0100
0000
1000
0000
0001
0000
0100
,
0000
0000
0010
0000
1000
0000
0010
1000
,
0001
1000
0001
0100
,
0001
1000
0100
1000
,
0001
0010
0001
1000
,
1001
0000
0000
0000
,
1001
0000
0001
0000
0100
0010
1000
0000
,
0010
0000
1000
0000
0100
1000
0010
0000
,
0100
0000
0001
0000
0010
0001
0100
0000
,
0001
1000
0100
1000
0001
0001
1001
0000
,
0001
0100
0001
0100
0010
0100
0010
0000
,
1000
0010
1000
0100
0010
0001
0010
0000
,
0100
1000
0010
1000
0001
0100
0001
0010
,
0001
1000
1001
0010
0100
0110
0110
0110
,
0010
0000
1000
0000
0001
0100
0001
0000
,
1000
0000
0100
0000
0010
0000
0001
1000
,
0000
0001
0100
0010
,
1000
0000
0100
0000
1000
0001
0000
0000
,
0100
0000
0000
0001
0000
0000
1000
0000
,
0100
0000
0010
0000
0001
0000
1000
0010
,
0000
1000
0010
0100
,
0001
0000
1000
0000
0001
1000
0000
0000
,
0001
0000
0000
0100
0000
0000
0010
0000
,
1000
0000
0100
0000
1000
0000
0001
1000
,
0000
0001
0100
0010
,
1000
0000
0100
0000
1000
0010
0000
0000
,
0100
0000
0000
0001
0000
0000
1000
0000
,
0100
0000
0010
0000
0001
0000
1000
0001
;

//---------------dance-single - Renard----------------
#NOTES:
     dance-single:
     Renard:
     Hard:
     9:
     0.728,1.000,0.150,0.000,0.172:
0000
0000
0000
0000
,
0000
0000
0000
0000
,
0000
0000
0000
0000
,
0000
0000
0000
0000
,
0000
0000
0000
0000
0001
1000
0000
0000
,
0010
0000
0010
0100
0000
0001
1000
0100
,
0010
0000
0001
0000
0010
0000
0100
1000
,
0000
0010
0100
0000
0001
0100
0000
0010
,
1000
0000
0100
0010
0001
0010
0001
0000
,
1000
0000
1000
0001
0000
0001
0100
0010
,
1000
0100
0010
0001
1000
0000
1000
0001
,
0000
0001
0100
0000
0010
1000
0010
0000
,
1000
0100
1000
0000
0001
0010
0000
0010
,
0001
0000
0001
1000
0000
1000
0010
0100
,
0010
0000
1000
0010
1000
0001
0100
0001
,
0000
0001
1000
0000
0100
0010
0001
0000
,
1000
0001
0100
0001
1000
0001
1000
0000
,
0001
0000
0100
0010
1000
0100
0010
0001
,
0010
0000
0100
1000
0010
0100
0001
0000
,
0100
0000
0001
1000
0100
0010
0001
0010
,
0100
1000
0010
0100
0001
0100
0010
1000
,
0100
0010
0100
1000
0010
0100
0001
0010
,
0100
0010
0001
0010
0001
0010
0100
1000
,
0010
0100
1000
0100
0010
1000
0100
0010
,
0001
0010
0100
1000
0001
0001
1001
0000
,
0001
0100
0010
1000
0100
1000
0100
0010
,
0001
0010
0100
1000
0001
0100
0001
0100
,
0001
0010
0100
1000
0010
1000
0010
1000
,
0100
1000
0100
0010
0001
0010
0001
0010
,
0001
0100
0010
1000
0100
0010
0100
0010
,
0100
1000
0010
0100
0001
0100
0001
0100
,
0001
0100
0010
1000
0100
1000
0001
0010
,
0100
1000
0001
0100
0010
1000
0001
0000
,
0001
1000
0010
0000
1000
0100
0010
0000
,
0100
1000
0010
0100
0001
0010
0100
0000
,
1000
0001
0100
0000
0010
1000
0100
0000
,
0010
0100
1000
0001
0100
0010
1000
0000
,
0010
1000
0001
0000
1000
0100
0010
0000
,
0100
1000
0001
0100
0010
1000
0100
0000
,
1000
0010
0100
0000
0001
0100
0010
0000
,
1000
0100
0010
0001
0010
0100
1000
0001
,
0100
0000
0100
0010
0000
0010
1000
0100
,
0010
0000
0010
0100
0000
0100
1000
0010
,
0100
0000
0100
0001
0000
0001
0010
0100
,
1000
0000
1000
0001
0000
0001
0100
0010
,
1000
0000
1100
0000
1000
0100
0110
0000
,
0100
0000
0110
0000
0010
0001
0011
0000
,
0001
0100
0010
1000
0100
0010
0001
0010
,
0100
1000
0010
0100
0001
0100
0010
0000
,
1000
0000
1000
0010
0000
0010
0100
0001
,
0010
0000
0010
0100
0000
0100
1000
0010
,
0100
0000
0100
0001
0000
0001
0100
0010
,
1000
0000
1000
0100
0000
0100
0010
0001
,
0010
0001
0011
0000
0010
0100
0110
0000
,
0100
1000
0010
0100
0001
0100
0101
0000
,
0001
0100
0010
1000
0100
1000
0001
1000
,
0001
0100
0010
1000
0100
1000
1001
0000
,
0010
0000
1000
0010
1000
0000
0010
0000
0100
0000
0001
0100
0001
0000
0010
0000
,
0100
0000
1000
0001
0100
0000
0001
0000
1000
0000
0100
0000
1001
0000
0000
0000
,
0001
0000
0100
0010
1000
0000
0010
0000
1000
0000
0100
0000
0010
0001
0000
0001
,
1000
0000
0000
0000
0000
0000
0010
0000
0000
0100
0000
0000
0001
0000
0000
0000
0000
0000
1000
0000
0000
0000
0000
0000
0100
0000
1000
0000
0001
0000
0010
0000
0100
0000
1000
0000
0001
0000
0000
0010
0000
0000
0001
0000
0000
0010
0000
0000
,
0001
1000
0001
1000
0010
1000
0010
1000
0100
1000
0100
1000
0100
0010
0100
0010
,
0001
0010
0001
0010
0100
1000
0100
1000
0010
0100
0001
0010
0100
1000
1001
0000
,
0001
0100
0001
0100
0010
0100
0010
0100
0010
1000
0010
1000
0100
1000
0100
1000
,
0100
0010
0001
0010
0011
0000
0011
0000
0010
0100
1100
0000
1100
0000
1100
0000
,
0100
1000
0010
0100
0001
0010
0100
1000
,
0100
0010
0001
0100
0010
1000
0100
0010
,
0001
0100
0010
1000
0100
0010
0100
1000
,
0001
0010
0100
0010
0001
0100
0010
1000
,
0100
0010
0100
1000
0010
0100
0001
0010
,
0100
0001
0100
0010
0100
1000
0010
0100
,
0001
0100
0010
1000
0100
0010
0100
1000
,
0010
0100
1000
0100
0010
1000
0100
0010
,
0001
0010
0100
1000
0010
0100
0001
0010
,
0100
0001
0100
1000
0010
0100
0001
0100
,
0010
1000
0100
0010
0001
0010
1000
0010
,
0100
1000
0010
0100
0001
0100
1000
0100
,
0001
0100
0010
1000
0100
0010
0100
1000
,
0010
0100
0001
0010
0100
1000
0001
1001
;

//---------------dance-single - Renard----------------
#NOTES:
     dance-single:
     Renard:
     Easy:
     3:
     0.234,0.382,0.097,0.000,0.000: // measure 1
0000
0000
0000
0000
,  // measure 2
0000
0000
0000
0000
,  // measure 3
0000
0000
0000
0000
,  // measure 4
0000
0000
0000
0000
,  // measure 5
0000
0000
0001
0000
,  // measure 6
1000
0000
0000
0001
0000
0000
0000
0000
,  // measure 7
0000
0000
0000
0000
0100
0000
0000
0010
,  // measure 8
0000
0000
0000
0000
,  // measure 9
1000
0000
0010
0000
,  // measure 10
1000
0000
0000
0001
0000
0000
0000
0000
,  // measure 11
0000
0000
0000
0000
0100
0000
0000
0010
,  // measure 12
0000
0000
1000
0000
,  // measure 13
0001
0000
0100
0000
,  // measure 14
0001
0000
0000
1000
0000
0000
0000
0000
,  // measure 15
0100
0000
0000
0000
1000
0000
0000
0010
,  // measure 16
0000
0000
0100
0000
,  // measure 17
0001
0000
1000
0000
,  // measure 18
0100
0000
1000
0000
,  // measure 19
0010
0000
0100
0001
,  // measure 20
0100
0000
0001
0000
,  // measure 21
0010
0000
0010
0000
,  // measure 22
0100
0000
1000
0000
,  // measure 23
0010
0000
0100
0001
,  // measure 24
0100
0000
0010
0000
,  // measure 25
1000
0100
1000
0100
,  // measure 26
1000
0000
0000
0001
0000
0000
0000
0000
,  // measure 27
0100
0000
0000
0000
0010
0000
0000
1000
,  // measure 28
0000
0000
0010
0000
,  // measure 29
0100
0000
0001
0000
,  // measure 30
0010
0000
0000
0100
0000
0000
0000
0000
,  // measure 31
1000
0000
0000
0000
0010
0000
0000
1000
,  // measure 32
0000
0000
0010
0000
,  // measure 33
0100
0000
0001
0000
,  // measure 34
1000
0000
0000
0100
0000
0000
0000
0000
,  // measure 35
0010
0000
0000
0000
0001
0000
0000
1000
,  // measure 36
0000
0000
0001
0000
,  // measure 37
0100
0000
0010
0000
,  // measure 38
0100
0000
0000
0001
0000
0000
0000
0000
,  // measure 39
1000
0000
0000
0000
0100
0000
0000
0010
,  // measure 40
0000
0000
0100
0000
,  // measure 41
1000
0000
0010
0000
,  // measure 42
0100
0000
0001
0000
,  // measure 43
0100
0001
0100
0000
,  // measure 44
0010
0000
1000
0000
,  // measure 45
0010
1000
0010
0000
,  // measure 46
1000
0000
1000
0000
,  // measure 47
0100
0000
0100
0000
,  // measure 48
0010
0000
0010
0000
,  // measure 49
0001
0000
0001
0000
,  // measure 50
0100
0001
0100
0000
,  // measure 51
0010
0000
0010
0000
,  // measure 52
1000
0100
1000
0000
,  // measure 53
0010
0000
0010
0000
,  // measure 54
1000
1001
0000
1001
,  // measure 55
0000
1001
0000
1001
,  // measure 56
0001
1001
0000
1001
,  // measure 57
1001
0000
0000
0110
,  // measure 58
0110
0010
0010
0000
,  // measure 59
0100
0100
0100
0000
,  // measure 60
0001
0001
0001
0000
,  // measure 61
1000
0000
1000
0000
1000
0001
1001
0000
,  // measure 62
0001
0001
0001
0000
,  // measure 63
1000
1000
1000
0000
,  // measure 64
0010
0010
0010
0000
,  // measure 65
0100
0100
0100
0000
,  // measure 66
0001
0000
0000
0100
0000
0000
0010
0000
,  // measure 67
1000
0010
1000
0000
,  // measure 68
0100
0000
1000
0000
,  // measure 69
0001
0010
0100
0000
,  // measure 70
1000
0000
0000
0001
0000
0000
0000
0000
,  // measure 71
0100
0001
0100
0000
,  // measure 72
0001
0000
1000
0000
,  // measure 73
0100
1000
0100
0000
,  // measure 74
1000
0000
0000
0010
0000
0000
0000
0000
,  // measure 75
1000
0001
1000
0000
,  // measure 76
0001
0000
0100
0000
,  // measure 77
0001
0010
0001
0000
,  // measure 78
1000
0000
0000
0001
0000
0000
0000
0000
,  // measure 79
0100
0000
0010
0000
0100
0000
0000
0110
;
